  0
SECTION
  2
HEADER
  9
$ACADVER
  1
AC1009
  9
$INSBASE
 10
0.0
 20
0.0
 30
0.0
  9
$EXTMIN
 10
593.96084639153048
 20
-0.0218778991569479
 30
-0.000004611345708
  9
$EXTMAX
 10
1014.0409982649099
 20
297.01687134220299
 30
0.1000045782902585
  9
$LIMMIN
 10
0.0
 20
0.0
  9
$LIMMAX
 10
420.0
 20
297.0
  9
$ORTHOMODE
 70
     0
  9
$REGENMODE
 70
     1
  9
$FILLMODE
 70
     1
  9
$QTEXTMODE
 70
     0
  9
$MIRRTEXT
 70
     1
  9
$DRAGMODE
 70
     2
  9
$LTSCALE
 40
2.0
  9
$OSMODE
 70
    39
  9
$ATTMODE
 70
     1
  9
$TEXTSIZE
 40
3.0
  9
$TRACEWID
 40
1.0
  9
$TEXTSTYLE
  7
STANDARD
  9
$CLAYER
  8
011形状
  9
$CELTYPE
  6
BYLAYER
  9
$CECOLOR
 62
   256
  9
$DIMSCALE
 40
1.0
  9
$DIMASZ
 40
2.5
  9
$DIMEXO
 40
0.5
  9
$DIMDLI
 40
3.75
  9
$DIMRND
 40
0.0
  9
$DIMDLE
 40
0.0
  9
$DIMEXE
 40
0.75
  9
$DIMTP
 40
0.0
  9
$DIMTM
 40
0.000000001
  9
$DIMTXT
 40
3.0
  9
$DIMCEN
 40
2.5
  9
$DIMTSZ
 40
0.0
  9
$DIMTOL
 70
     0
  9
$DIMLIM
 70
     0
  9
$DIMTIH
 70
     0
  9
$DIMTOH
 70
     0
  9
$DIMSE1
 70
     0
  9
$DIMSE2
 70
     0
  9
$DIMTAD
 70
     3
  9
$DIMZIN
 70
     8
  9
$DIMBLK
  1

  9
$DIMASO
 70
     1
  9
$DIMSHO
 70
     1
  9
$DIMPOST
  1

  9
$DIMAPOST
  1

  9
$DIMALT
 70
     0
  9
$DIMALTD
 70
     4
  9
$DIMALTF
 40
0.0394
  9
$DIMLFAC
 40
1.0
  9
$DIMTOFL
 70
     1
  9
$DIMTVP
 40
0.0
  9
$DIMTIX
 70
     0
  9
$DIMSOXD
 70
     0
  9
$DIMSAH
 70
     1
  9
$DIMBLK1
  1
OPEN
  9
$DIMBLK2
  1
OPEN
  9
$DIMSTYLE
  2
通常X1_0
  9
$DIMCLRD
 70
   256
  9
$DIMCLRE
 70
   256
  9
$DIMCLRT
 70
     2
  9
$DIMTFAC
 40
0.5
  9
$DIMGAP
 40
0.5
  9
$LUNITS
 70
     2
  9
$LUPREC
 70
     8
  9
$SKETCHINC
 40
1.0
  9
$FILLETRAD
 40
10.0
  9
$AUNITS
 70
     0
  9
$AUPREC
 70
     6
  9
$MENU
  1
.
  9
$ELEVATION
 40
0.0
  9
$PELEVATION
 40
0.0
  9
$THICKNESS
 40
0.0
  9
$LIMCHECK
 70
     0
  9
$BLIPMODE
 70
     0
  9
$CHAMFERA
 40
10.0
  9
$CHAMFERB
 40
10.0
  9
$SKPOLY
 70
     0
  9
$TDCREATE
 40
2453536.500536378
  9
$TDUPDATE
 40
2457941.3666182412
  9
$TDINDWG
 40
0.8300182986
  9
$TDUSRTIMER
 40
0.8300182986
  9
$USRTIMER
 70
     1
  9
$ANGBASE
 50
0.0
  9
$ANGDIR
 70
     0
  9
$PDMODE
 70
     0
  9
$PDSIZE
 40
0.0
  9
$PLINEWID
 40
0.0
  9
$COORDS
 70
     1
  9
$SPLFRAME
 70
     0
  9
$SPLINETYPE
 70
     6
  9
$SPLINESEGS
 70
     8
  9
$ATTDIA
 70
     1
  9
$ATTREQ
 70
     1
  9
$HANDLING
 70
     1
  9
$HANDSEED
  5
5C1A
  9
$SURFTAB1
 70
     6
  9
$SURFTAB2
 70
     6
  9
$SURFTYPE
 70
     6
  9
$SURFU
 70
     6
  9
$SURFV
 70
     6
  9
$UCSNAME
  2

  9
$UCSORG
 10
594.0
 20
0.0
 30
0.0
  9
$UCSXDIR
 10
1.0
 20
0.0
 30
0.0
  9
$UCSYDIR
 10
0.0
 20
1.0
 30
0.0
  9
$PUCSNAME
  2

  9
$PUCSORG
 10
0.0
 20
0.0
 30
0.0
  9
$PUCSXDIR
 10
1.0
 20
0.0
 30
0.0
  9
$PUCSYDIR
 10
0.0
 20
1.0
 30
0.0
  9
$USERI1
 70
     0
  9
$USERI2
 70
     0
  9
$USERI3
 70
     0
  9
$USERI4
 70
     0
  9
$USERI5
 70
     0
  9
$USERR1
 40
0.0
  9
$USERR2
 40
0.0
  9
$USERR3
 40
0.0
  9
$USERR4
 40
0.0
  9
$USERR5
 40
0.0
  9
$WORLDVIEW
 70
     1
  9
$SHADEDGE
 70
     3
  9
$SHADEDIF
 70
    70
  9
$TILEMODE
 70
     1
  9
$MAXACTVP
 70
    48
  9
$PLIMCHECK
 70
     0
  9
$PEXTMIN
 10
211.5
 20
-8.0
 30
0.0
  9
$PEXTMAX
 10
903.5
 20
300.0
 30
0.0
  9
$PLIMMIN
 10
483.02948910854462
 20
-8.1501641204820885
  9
$PLIMMAX
 10
903.01847226284156
 20
288.8181586334241
  9
$UNITMODE
 70
     0
  9
$VISRETAIN
 70
     1
  9
$PLINEGEN
 70
     0
  9
$PSLTSCALE
 70
     1
  0
ENDSEC
  0
SECTION
  2
TABLES
  0
TABLE
  2
VPORT
 70
     1
  0
VPORT
  2
*ACTIVE
 70
     0
 10
0.0
 20
0.0
 11
1.0
 21
1.0
 12
804.00092232822044
 22
148.49749672152299
 13
0.0
 23
0.0
 14
10.0
 24
10.0
 15
10.0
 25
10.0
 16
0.0
 26
0.0
 36
1.0
 17
0.0
 27
0.0
 37
0.0
 40
331.09334541000419
 41
1.2769440654843101
 42
50.0
 43
0.0
 44
0.0
 50
0.0
 51
0.0
 71
     0
 72
   100
 73
     1
 74
     3
 75
     0
 76
     1
 77
     0
 78
     0
  0
ENDTAB
  0
TABLE
  2
LTYPE
 70
    10
  0
LTYPE
  2
CONTINUOUS
 70
     0
  3
Solid line
 72
    65
 73
     0
 40
0.0
  0
LTYPE
  2
CENTER
 70
     0
  3
Center ____ _ ____ _ ____ _ ____ _ ____ _ ____
 72
    65
 73
     4
 40
2.0
 49
1.25
 49
-0.25
 49
0.25
 49
-0.25
  0
LTYPE
  2
CENTER2
 70
     0
  3
Center (.5x) ___ _ ___ _ ___ _ ___ _ ___ _ ___
 72
    65
 73
     4
 40
1.125
 49
0.75
 49
-0.125
 49
0.125
 49
-0.125
  0
LTYPE
  2
DASHED
 70
     0
  3
Dashed __ __ __ __ __ __ __ __ __ __ __ __ __ _
 72
    65
 73
     2
 40
0.75
 49
0.5
 49
-0.25
  0
LTYPE
  2
DASHED2
 70
     0
  3
Dashed (.5x) _ _ _ _ _ _ _ _ _ _ _ _ _ _ _ _ _
 72
    65
 73
     2
 40
0.375
 49
0.25
 49
-0.125
  0
LTYPE
  2
PHANTOM2
 70
     0
  3
Phantom (.5x) ___ _ _ ___ _ _ ___ _ _ ___ _ _
 72
    65
 73
     6
 40
1.25
 49
0.625
 49
-0.125
 49
0.125
 49
-0.125
 49
0.125
 49
-0.125
  0
LTYPE
  2
CENTERX2
 70
     0
  3
Center (2x) ________  __  ________  __  _____
 72
    65
 73
     4
 40
4.0
 49
2.5
 49
-0.5
 49
0.5
 49
-0.5
  0
LTYPE
  2
DASHEDX2
 70
     0
  3
Dashed (2x) ____  ____  ____  ____  ____  ___
 72
    65
 73
     2
 40
1.5
 49
1.0
 49
-0.5
  0
LTYPE
  2
PHANTOM
 70
     0
  3
Phantom ______  __  __  ______  __  __  ______
 72
    65
 73
     6
 40
2.5
 49
1.25
 49
-0.25
 49
0.25
 49
-0.25
 49
0.25
 49
-0.25
  0
LTYPE
  2
PHANTOMX2
 70
     0
  3
Phantom (2x) ____________    ____    ____   _
 72
    65
 73
     6
 40
5.0
 49
2.5
 49
-0.5
 49
0.5
 49
-0.5
 49
0.5
 49
-0.5
  0
ENDTAB
  0
TABLE
  2
LAYER
 70
     9
  0
LAYER
  2
0
 70
     0
 62
     7
  6
CONTINUOUS
  0
LAYER
  2
DEFPOINTS
 70
     0
 62
     7
  6
CONTINUOUS
  0
LAYER
  2
002寸法
 70
     0
 62
     1
  6
CONTINUOUS
  0
LAYER
  2
001センタ
 70
     0
 62
     1
  6
CENTER
  0
LAYER
  2
011形状
 70
     0
 62
     3
  6
CONTINUOUS
  0
LAYER
  2
003注釈
 70
     0
 62
     2
  6
CONTINUOUS
  0
LAYER
  2
051共通部品
 70
     0
 62
     3
  6
CONTINUOUS
  0
LAYER
  2
101購入品
 70
     0
 62
     3
  6
CONTINUOUS
  0
LAYER
  2
111治具
 70
     0
 62
     3
  6
CONTINUOUS
  0
ENDTAB
  0
TABLE
  2
STYLE
 70
     4
  0
STYLE
  2
STANDARD
 70
     0
 40
0.0
 41
0.9
 50
0.0
 71
     0
 42
3.0
  3
romans.shx
  4
extfont2.shx
  0
STYLE
  2
表題
 70
     0
 40
0.0
 41
1.0
 50
0.0
 71
     0
 42
2.5
  3
txt
  4

  0
STYLE
  2

 70
     1
 40
0.0
 41
1.0
 50
0.0
 71
     0
 42
2.5
  3
ltypeshp.shx
  4

  0
STYLE
  2
注釈
 70
     0
 40
3.0
 41
0.9
 50
0.0
 71
     0
 42
3.0
  3
romans.shx
  4
extfont2.shx
  0
ENDTAB
  0
TABLE
  2
VIEW
 70
     0
  0
ENDTAB
  0
TABLE
  2
UCS
 70
     0
  0
ENDTAB
  0
TABLE
  2
APPID
 70
    17
  0
APPID
  2
ACAD
 70
     0
  0
APPID
  2
ACAD_NAV_VCDISPLAY
 70
     0
  0
APPID
  2
ACAD_EXEMPT_FROM_CAD_STANDARDS
 70
     0
  0
APPID
  2
ACAUTHENVIRON
 70
     0
  0
APPID
  2
ACDBDYNAMICBLOCKTRUENAME
 70
     0
  0
APPID
  2
ACDBDYNAMICBLOCKGUID
 70
     0
  0
APPID
  2
ACADANNOPO
 70
     0
  0
APPID
  2
ACAECLAYERSTANDARD
 70
     0
  0
APPID
  2
ACCMTRANSPARENCY
 70
     0
  0
APPID
  2
ACAD_PSEXT
 70
     0
  0
APPID
  2
ACAD_DSTYLE_DIMJAG
 70
     0
  0
APPID
  2
ACAD_DSTYLE_DIMTALN
 70
     0
  0
APPID
  2
ACAD_DSTYLE_DIMRADIAL_EXTENSION
 70
     0
  0
APPID
  2
ACAD_MLEADERVER
 70
     0
  0
APPID
  2
CONTENTBLOCKDESCRIPTION
 70
     0
  0
APPID
  2
CONTENTBLOCKICON
 70
     0
  0
APPID
  2
AcDbAttr
 70
     0
  0
ENDTAB
  0
TABLE
  2
DIMSTYLE
 70
    19
  0
DIMSTYLE
  2
通常X1_0
 70
     0
  3

  4

  5

  6
OPEN
  7
OPEN
 40
1.0
 41
2.5
 42
0.5
 43
3.75
 44
0.75
 45
0.0
 46
0.0
 47
0.0
 48
0.000000001
140
3.0
141
2.5
142
0.0
143
0.0394
144
1.0
145
0.0
146
0.5
147
0.5
 71
     0
 72
     0
 73
     0
 74
     0
 75
     0
 76
     0
 77
     3
 78
     8
170
     0
171
     4
172
     1
173
     1
174
     0
175
     0
176
   256
177
   256
178
     2
  0
DIMSTYLE
  2
通常X3_0
 70
     0
  3

  4

  5

  6
OPEN
  7
OPEN
 40
0.0
 41
0.833
 42
0.167
 43
3.75
 44
0.25
 45
0.0
 46
0.0
 47
0.0
 48
0.000000001
140
1.0
141
2.5
142
0.0
143
0.0394
144
1.0
145
0.0
146
0.5
147
0.167
 71
     0
 72
     0
 73
     0
 74
     0
 75
     0
 76
     0
 77
     3
 78
     8
170
     0
171
     4
172
     1
173
     1
174
     0
175
     0
176
   256
177
   256
178
     2
  0
DIMSTYLE
  2
通常X2_0
 70
     0
  3

  4

  5

  6
OPEN
  7
OPEN
 40
0.0
 41
1.25
 42
0.25
 43
3.75
 44
0.375
 45
0.0
 46
0.0
 47
0.0
 48
0.000000001
140
1.5
141
2.5
142
0.0
143
0.0394
144
1.0
145
0.0
146
0.5
147
0.25
 71
     0
 72
     0
 73
     0
 74
     0
 75
     0
 76
     0
 77
     3
 78
     8
170
     0
171
     4
172
     1
173
     1
174
     0
175
     0
176
   256
177
   256
178
     2
  0
DIMSTYLE
  2
通常X2_3
 70
     0
  3

  4

  5

  6
OPEN
  7
OPEN
 40
1.0
 41
3.75
 42
0.75
 43
3.75
 44
1.125
 45
0.0
 46
0.0
 47
0.0
 48
0.0
140
4.5
141
2.5
142
0.0
143
0.0394
144
1.0
145
0.0
146
0.5
147
0.75
 71
     0
 72
     0
 73
     0
 74
     0
 75
     0
 76
     0
 77
     3
 78
     8
170
     0
171
     4
172
     1
173
     1
174
     0
175
     0
176
   256
177
   256
178
     2
  0
DIMSTYLE
  2
通常X3_4
 70
     0
  3

  4

  5

  6
OPEN
  7
OPEN
 40
1.0
 41
3.3330000000000002
 42
0.667
 43
3.75
 44
1.0
 45
0.0
 46
0.0
 47
0.0
 48
0.000000001
140
4.0
141
2.5
142
0.0
143
0.0394
144
1.0
145
0.0
146
0.5
147
0.667
 71
     0
 72
     0
 73
     0
 74
     0
 75
     0
 76
     0
 77
     3
 78
     8
170
     0
171
     4
172
     1
173
     1
174
     0
175
     0
176
   256
177
   256
178
     2
  0
DIMSTYLE
  2
通常X1_3
 70
     0
  3

  4

  5

  6
OPEN
  7
OPEN
 40
1.0
 41
7.5
 42
1.5
 43
3.75
 44
2.25
 45
0.0
 46
0.0
 47
0.0
 48
0.000000001
140
9.0
141
2.5
142
0.0
143
0.0394
144
1.0
145
0.0
146
0.5
147
1.5
 71
     0
 72
     0
 73
     0
 74
     0
 75
     0
 76
     0
 77
     3
 78
     8
170
     0
171
     4
172
     1
173
     1
174
     0
175
     0
176
   256
177
   256
178
     2
  0
DIMSTYLE
  2
通常X1_2
 70
     0
  3

  4

  5

  6
OPEN
  7
OPEN
 40
1.0
 41
5.0
 42
1.0
 43
3.75
 44
1.5
 45
0.0
 46
0.0
 47
0.0
 48
0.0
140
6.0
141
2.5
142
0.0
143
0.0394
144
1.0
145
0.0
146
0.5
147
1.0
 71
     0
 72
     0
 73
     0
 74
     0
 75
     0
 76
     0
 77
     3
 78
     8
170
     0
171
     4
172
     1
173
     1
174
     0
175
     0
176
   256
177
   256
178
     2
  0
DIMSTYLE
  2
通常X1_0$3
 70
     0
  3

  4

  5

  6
OPEN
  7
OPEN
 40
1.0
 41
2.5
 42
0.5
 43
3.75
 44
0.75
 45
0.0
 46
0.0
 47
0.0
 48
0.000000001
140
3.0
141
2.5
142
0.0
143
0.0394
144
1.0
145
0.0
146
0.5
147
0.5
 71
     0
 72
     0
 73
     0
 74
     0
 75
     0
 76
     0
 77
     3
 78
     8
170
     0
171
     4
172
     1
173
     1
174
     0
175
     0
176
   256
177
   256
178
     2
  0
DIMSTYLE
  2
通常X1_3$3
 70
     0
  3

  4

  5

  6
OPEN
  7
OPEN
 40
1.0
 41
7.5
 42
1.5
 43
3.75
 44
2.25
 45
0.0
 46
0.0
 47
0.0
 48
0.000000001
140
9.0
141
2.5
142
0.0
143
0.0394
144
1.0
145
0.0
146
0.5
147
1.5
 71
     0
 72
     0
 73
     0
 74
     0
 75
     0
 76
     0
 77
     3
 78
     8
170
     0
171
     4
172
     1
173
     1
174
     0
175
     0
176
   256
177
   256
178
     2
  0
DIMSTYLE
  2
通常X1_2$3
 70
     0
  3

  4

  5

  6
OPEN
  7
OPEN
 40
1.0
 41
5.0
 42
1.0
 43
3.75
 44
1.5
 45
0.0
 46
0.0
 47
0.0
 48
0.0
140
6.0
141
2.5
142
0.0
143
0.0394
144
1.0
145
0.0
146
0.5
147
1.0
 71
     0
 72
     0
 73
     0
 74
     0
 75
     0
 76
     0
 77
     3
 78
     8
170
     0
171
     4
172
     1
173
     1
174
     0
175
     0
176
   256
177
   256
178
     2
  0
DIMSTYLE
  2
通常X2_3$3
 70
     0
  3

  4

  5

  6
OPEN
  7
OPEN
 40
1.0
 41
3.75
 42
0.75
 43
3.75
 44
1.125
 45
0.0
 46
0.0
 47
0.0
 48
0.0
140
4.5
141
2.5
142
0.0
143
0.0394
144
1.0
145
0.0
146
0.5
147
0.75
 71
     0
 72
     0
 73
     0
 74
     0
 75
     0
 76
     0
 77
     3
 78
     8
170
     0
171
     4
172
     1
173
     1
174
     0
175
     0
176
   256
177
   256
178
     2
  0
DIMSTYLE
  2
通常X3_4$3
 70
     0
  3

  4

  5

  6
OPEN
  7
OPEN
 40
1.0
 41
3.3330000000000002
 42
0.667
 43
3.75
 44
1.0
 45
0.0
 46
0.0
 47
0.0
 48
0.000000001
140
4.0
141
10.0
142
0.0
143
0.0394
144
1.0
145
0.0
146
0.5
147
0.667
 71
     0
 72
     0
 73
     0
 74
     0
 75
     0
 76
     0
 77
     3
 78
     8
170
     0
171
     4
172
     1
173
     1
174
     0
175
     0
176
   256
177
   256
178
     2
  0
DIMSTYLE
  2
通常X2_0$3
 70
     0
  3

  4

  5

  6
OPEN
  7
OPEN
 40
0.0
 41
1.25
 42
0.25
 43
3.75
 44
0.5
 45
0.0
 46
0.0
 47
0.0
 48
0.000000001
140
1.5
141
2.5
142
0.0
143
0.0394
144
1.0
145
0.0
146
0.5
147
0.5
 71
     0
 72
     0
 73
     0
 74
     0
 75
     0
 76
     0
 77
     3
 78
     8
170
     0
171
     4
172
     1
173
     1
174
     0
175
     0
176
   256
177
   256
178
     2
  0
DIMSTYLE
  2
通常X3_0$3
 70
     0
  3

  4

  5

  6
OPEN
  7
OPEN
 40
0.0
 41
0.833
 42
0.167
 43
3.75
 44
0.4
 45
0.0
 46
0.0
 47
0.0
 48
0.000000001
140
1.0
141
2.5
142
0.0
143
0.0394
144
1.0
145
0.0
146
0.5
147
0.4
 71
     0
 72
     0
 73
     0
 74
     0
 75
     0
 76
     0
 77
     3
 78
     8
170
     0
171
     4
172
     1
173
     1
174
     0
175
     0
176
   256
177
   256
178
     2
  0
DIMSTYLE
  2
通常X1_5
 70
     0
  3

  4

  5

  6
OPEN
  7
OPEN
 40
1.0
 41
1.6669999999999989
 42
0.33
 43
3.75
 44
0.5
 45
0.0
 46
0.0
 47
0.0
 48
0.000000001
140
2.0
141
2.5
142
0.0
143
0.0394
144
1.0
145
0.0
146
0.5
147
0.33
 71
     0
 72
     0
 73
     0
 74
     0
 75
     0
 76
     0
 77
     3
 78
     9
170
     0
171
     4
172
     1
173
     1
174
     0
175
     0
176
   256
177
   256
178
     2
  0
DIMSTYLE
  2
通常X3_5
 70
     0
  3

  4

  5

  6
OPEN
  7
OPEN
 40
1.0
 41
4.1669999999999989
 42
0.833
 43
3.75
 44
1.25
 45
0.0
 46
0.0
 47
0.0
 48
0.000000001
140
5.0
141
2.5
142
0.0
143
0.0394
144
1.0
145
0.0
146
0.5
147
0.833
 71
     0
 72
     0
 73
     0
 74
     0
 75
     0
 76
     0
 77
     3
 78
     8
170
     0
171
     4
172
     1
173
     1
174
     0
175
     0
176
   256
177
   256
178
     2
  0
DIMSTYLE
  2
通常X3_5$3
 70
     0
  3

  4

  5

  6
OPEN
  7
OPEN
 40
1.0
 41
4.1669999999999989
 42
0.833
 43
3.75
 44
1.25
 45
0.0
 46
0.0
 47
0.0
 48
0.000000001
140
5.0
141
2.5
142
0.0
143
0.0394
144
1.0
145
0.0
146
0.5
147
0.833
 71
     0
 72
     0
 73
     0
 74
     0
 75
     0
 76
     0
 77
     3
 78
     8
170
     0
171
     4
172
     1
173
     1
174
     0
175
     0
176
   256
177
   256
178
     2
  0
DIMSTYLE
  2
通常X1_5$3
 70
     0
  3

  4

  5

  6
OPEN
  7
OPEN
 40
1.0
 41
1.6669999999999989
 42
0.33
 43
3.75
 44
0.5
 45
0.0
 46
0.0
 47
0.0
 48
0.000000001
140
2.0
141
2.5
142
0.0
143
0.0394
144
1.0
145
0.0
146
0.5
147
0.33
 71
     0
 72
     0
 73
     0
 74
     0
 75
     0
 76
     0
 77
     3
 78
     9
170
     0
171
     4
172
     1
173
     1
174
     0
175
     0
176
   256
177
   256
178
     2
  0
DIMSTYLE
  2
STANDARD
 70
     0
  3

  4

  5

  6

  7

 40
1.0
 41
0.18
 42
0.0625
 43
0.38
 44
0.18
 45
0.0
 46
0.0
 47
0.0
 48
0.0
140
0.18
141
0.09
142
0.0
143
25.399999999999999
144
1.0
145
0.0
146
1.0
147
0.09
 71
     0
 72
     0
 73
     1
 74
     1
 75
     0
 76
     0
 77
     0
 78
     0
170
     0
171
     2
172
     0
173
     0
174
     0
175
     0
176
     0
177
     0
178
     0
  0
ENDTAB
  0
ENDSEC
  0
SECTION
  2
BLOCKS
  0
BLOCK
  8
0
  2
$MODEL_SPACE
 70
     0
 10
0.0
 20
0.0
 30
0.0
  3
$MODEL_SPACE
  1

  0
ENDBLK
  5
21
  8
0
  0
BLOCK
 67
     1
  8
0
  2
$PAPER_SPACE
 70
     0
 10
0.0
 20
0.0
 30
0.0
  3
$PAPER_SPACE
  1

  0
ENDBLK
  5
58
 67
     1
  8
0
  0
BLOCK
  8
0
  2
_OPEN
 70
     0
 10
0.0
 20
0.0
 30
0.0
  3
_OPEN
  1

  0
LINE
  5
87
  8
0
  6
BYBLOCK
 62
     0
 10
-1.0
 20
0.1666666666666666
 30
0.0
 11
0.0
 21
0.0
 31
0.0
  0
LINE
  5
88
  8
0
  6
BYBLOCK
 62
     0
 10
0.0
 20
0.0
 30
0.0
 11
-1.0
 21
-0.1666666666666666
 31
0.0
  0
LINE
  5
89
  8
0
  6
BYBLOCK
 62
     0
 10
0.0
 20
0.0
 30
0.0
 11
-1.0
 21
0.0
 31
0.0
  0
ENDBLK
  5
8B
  8
0
  0
BLOCK
  8
0
  2
A$C0C1533B0
 70
     0
 10
0.0
 20
0.0
 30
0.0
  3
A$C0C1533B0
  1

  0
LINE
  5
2C54
  8
0
 10
5.2469999999998427
 20
5.2469999999998427
 30
0.0
 11
0.0
 21
5.2469999999998427
 31
0.0
  0
LINE
  5
2C55
  8
0
 10
5.0984999999996026
 20
5.0984999999996026
 30
0.0
 11
0.1484999999997854
 21
5.0984999999996026
 31
0.0
  0
LINE
  5
2C56
  8
0
 10
3.415500000000065
 20
4.6529999999988831
 30
0.0
 11
3.11850000000004
 21
4.6529999999988831
 31
0.0
  0
LINE
  5
2C57
  8
0
 10
3.11850000000004
 20
4.6529999999988831
 30
0.0
 11
3.11850000000004
 21
3.266999999998915
 31
0.0
  0
LINE
  5
2C58
  8
0
 10
1.7325000000000721
 20
4.6529999999988831
 30
0.0
 11
1.7325000000000721
 21
3.266999999998915
 31
0.0
  0
LINE
  5
2C59
  8
0
 10
1.7325000000000721
 20
4.6529999999988831
 30
0.0
 11
1.336499999999887
 21
4.6529999999988831
 31
0.0
  0
LINE
  5
2C5A
  8
0
 10
2.0324722099007881
 20
1.0250351407994449
 30
0.0
 11
2.0390851008005479
 21
1.0150218869994201
 31
0.0
  0
LINE
  5
2C5B
  8
0
 10
2.1496148443002312
 20
0.9334853956993356
 30
0.0
 11
2.1694535159003858
 21
0.9221561139995628
 31
0.0
  0
LINE
  5
2C5C
  8
0
 10
2.0277487164003101
 20
1.03516283089948
 30
0.0
 11
2.0324722099007881
 21
1.0250351407994449
 31
0.0
  0
LINE
  5
2C5D
  8
0
 10
2.1694535159003858
 20
0.9221561139995628
 30
0.0
 11
2.1892921875009961
 21
0.9115134566995948
 31
0.0
  0
LINE
  5
2C5E
  8
0
 10
2.024914620300478
 20
1.045404958399331
 30
0.0
 11
2.0277487164003101
 21
1.03516283089948
 31
0.0
  0
LINE
  5
2C5F
  8
0
 10
2.1892921875009961
 20
0.9115134566995948
 30
0.0
 11
2.209130859099786
 21
0.9015574215995911
 31
0.0
  0
LINE
  5
2C60
  8
0
 10
2.0239699215999281
 20
1.0557615232992239
 30
0.0
 11
2.024914620300478
 21
1.045404958399331
 31
0.0
  0
LINE
  5
2C61
  8
0
 10
2.209130859099786
 20
0.9015574215995911
 30
0.0
 11
2.2293069238003218
 21
0.8904570157997113
 31
0.0
  0
LINE
  5
2C62
  8
0
 10
2.0245772283005858
 20
1.065202591199067
 30
0.0
 11
2.0239699215999281
 21
1.0557615232992239
 31
0.0
  0
LINE
  5
2C63
  8
0
 10
2.2293069238003218
 20
0.8904570157997113
 30
0.0
 11
2.2463789776998051
 21
0.8779833622995739
 31
0.0
  0
LINE
  5
2C64
  8
0
 10
2.0263991472997982
 20
1.0743003468994621
 30
0.0
 11
2.0245772283005858
 21
1.065202591199067
 31
0.0
  0
LINE
  5
2C65
  8
0
 10
2.2463789776998051
 20
0.8779833622995739
 30
0.0
 11
2.260347023000576
 21
0.8641364632994736
 31
0.0
  0
LINE
  5
2C66
  8
0
 10
2.0294356786002932
 20
1.0830547914995341
 30
0.0
 11
2.0263991472997982
 21
1.0743003468994621
 31
0.0
  0
LINE
  5
2C67
  8
0
 10
2.260347023000576
 20
0.8641364632994736
 30
0.0
 11
2.2712110574998401
 21
0.8489163187991835
 31
0.0
  0
LINE
  5
2C68
  8
0
 10
2.0336868222002522
 20
1.091465923899249
 30
0.0
 11
2.0294356786002932
 21
1.0830547914995341
 31
0.0
  0
LINE
  5
2C69
  8
0
 10
2.2712110574998401
 20
0.8489163187991835
 30
0.0
 11
2.2789710822999041
 21
0.8323229276991241
 31
0.0
  0
LINE
  5
2C6A
  8
0
 10
2.039152579200163
 20
1.099533745199551
 30
0.0
 11
2.0336868222002522
 21
1.091465923899249
 31
0.0
  0
LINE
  5
2C6B
  8
0
 10
2.2789710822999041
 20
0.8323229276991241
 30
0.0
 11
2.2836270963007328
 21
0.8143562899992957
 31
0.0
  0
LINE
  5
2C6C
  8
0
 10
2.0458329485004461
 20
1.1072582553993009
 30
0.0
 11
2.039152579200163
 21
1.099533745199551
 31
0.0
  0
LINE
  5
2C6D
  8
0
 10
2.2836270963007328
 20
0.8143562899992957
 30
0.0
 11
2.2851791017001228
 21
0.7950164067992774
 31
0.0
  0
LINE
  5
2C6E
  8
0
 10
2.0537279301006488
 20
1.1146394533993771
 30
0.0
 11
2.0458329485004461
 21
1.1072582553993009
 31
0.0
  0
LINE
  5
2C6F
  8
0
 10
2.2851791017001228
 20
0.7950164067992774
 30
0.0
 11
2.2841669245999578
 21
0.7755620850994092
 31
0.0
  0
LINE
  5
2C70
  8
0
 10
2.0605432561997068
 20
1.119846345199448
 30
0.0
 11
2.0537279301006488
 21
1.1146394533993771
 31
0.0
  0
LINE
  5
2C71
  8
0
 10
2.2841669245999578
 20
0.7755620850994092
 30
0.0
 11
2.2811303933003719
 21
0.7572521362992575
 31
0.0
  0
LINE
  5
2C72
  8
0
 10
2.067763452700091
 20
1.124252176299251
 30
0.0
 11
2.0605432561997068
 21
1.119846345199448
 31
0.0
  0
LINE
  5
2C73
  8
0
 10
2.2811303933003719
 20
0.7572521362992575
 30
0.0
 11
2.2760695078000022
 21
0.7400865592994707
 31
0.0
  0
LINE
  5
2C74
  8
0
 10
2.075388520700471
 20
1.127856947799045
 30
0.0
 11
2.067763452700091
 21
1.124252176299251
 31
0.0
  0
LINE
  5
2C75
  8
0
 10
2.2760695078000022
 20
0.7400865592994707
 30
0.0
 11
2.2689842670001781
 21
0.7240653540995936
 31
0.0
  0
LINE
  5
2C76
  8
0
 10
2.0834184591003568
 20
1.1306606585994809
 30
0.0
 11
2.075388520700471
 21
1.127856947799045
 31
0.0
  0
LINE
  5
2C77
  8
0
 10
2.2689842670001781
 20
0.7240653540995936
 30
0.0
 11
2.259874673100057
 21
0.709188520699172
 31
0.0
  0
LINE
  5
2C78
  8
0
 10
2.091853268999329
 20
1.1326633086991931
 30
0.0
 11
2.0834184591003568
 21
1.1306606585994809
 31
0.0
  0
LINE
  5
2C79
  8
0
 10
2.259874673100057
 20
0.709188520699172
 30
0.0
 11
2.2487407250000611
 21
0.6954560590995698
 31
0.0
  0
LINE
  5
2C7A
  8
0
 10
2.1006929493005368
 20
1.1338648991993521
 30
0.0
 11
2.091853268999329
 21
1.1326633086991931
 31
0.0
  0
LINE
  5
2C7B
  8
0
 10
2.2487407250000611
 20
0.6954560590995698
 30
0.0
 11
2.2355824216001561
 21
0.6828679681989343
 31
0.0
  0
LINE
  5
2C7C
  8
0
 10
2.1099374999998868
 20
1.1342654300992761
 30
0.0
 11
2.1006929493005368
 21
1.1338648991993521
 31
0.0
  0
LINE
  5
2C7D
  8
0
 10
2.2355824216001561
 20
0.6828679681989343
 30
0.0
 11
2.2216143774003281
 21
0.6724541856992801
 31
0.0
  0
LINE
  5
2C7E
  8
0
 10
2.1191820507006009
 20
1.1338648991993521
 30
0.0
 11
2.1099374999998868
 21
1.1342654300992761
 31
0.0
  0
LINE
  5
2C7F
  8
0
 10
2.2216143774003281
 20
0.6724541856992801
 30
0.0
 11
2.2061618061998161
 21
0.6636425223994138
 31
0.0
  0
LINE
  5
2C80
  8
0
 10
2.1280217310004441
 20
1.1326633086991931
 30
0.0
 11
2.1191820507006009
 21
1.1338648991993521
 31
0.0
  0
LINE
  5
2C81
  8
0
 10
2.2061618061998161
 20
0.6636425223994138
 30
0.0
 11
2.1892247091000172
 21
0.656432979399142
 31
0.0
  0
LINE
  5
2C82
  8
0
 10
2.1364565409003262
 20
1.1306606585994809
 30
0.0
 11
2.1280217310004441
 21
1.1326633086991931
 31
0.0
  0
LINE
  5
2C83
  8
0
 10
2.1892247091000172
 20
0.656432979399142
 30
0.0
 11
2.1708030849999882
 21
0.6508255577991804
 31
0.0
  0
LINE
  5
2C84
  8
0
 10
2.1444864793006668
 20
1.127856947799045
 30
0.0
 11
2.1364565409003262
 21
1.1306606585994809
 31
0.0
  0
LINE
  5
2C85
  8
0
 10
2.1708030849999882
 20
0.6508255577991804
 30
0.0
 11
2.1508969349997642
 21
0.6468202564994954
 31
0.0
  0
LINE
  5
2C86
  8
0
 10
2.1521115473001369
 20
1.124252176299251
 30
0.0
 11
2.1444864793006668
 21
1.127856947799045
 31
0.0
  0
LINE
  5
2C87
  8
0
 10
2.1508969349997642
 20
0.6468202564994954
 30
0.0
 11
2.1295062580002191
 21
0.6444170754994048
 31
0.0
  0
LINE
  5
2C88
  8
0
 10
2.159331743799612
 20
1.119846345199448
 30
0.0
 11
2.1521115473001369
 21
1.124252176299251
 31
0.0
  0
LINE
  5
2C89
  8
0
 10
2.1295062580002191
 20
0.6444170754994048
 30
0.0
 11
2.1066310551004781
 21
0.6436160158991698
 31
0.0
  0
LINE
  5
2C8A
  8
0
 10
2.1661470699009442
 20
1.1146394533993771
 30
0.0
 11
2.159331743799612
 21
1.119846345199448
 31
0.0
  0
LINE
  5
2C8B
  8
0
 10
2.1066310551004781
 20
0.6436160158991698
 30
0.0
 11
2.0847005497998898
 21
0.6443598567993832
 31
0.0
  0
LINE
  5
2C8C
  8
0
 10
2.1747843150005788
 20
1.1062283198991729
 30
0.0
 11
2.1661470699009442
 21
1.1146394533993771
 31
0.0
  0
LINE
  5
2C8D
  8
0
 10
2.0847005497998898
 20
0.6443598567993832
 30
0.0
 11
2.064254571499986
 21
0.6465913827996701
 31
0.0
  0
LINE
  5
2C8E
  8
0
 10
2.1818020763007548
 20
1.0970161267991889
 30
0.0
 11
2.1747843150005788
 21
1.1062283198991729
 31
0.0
  0
LINE
  5
2C8F
  8
0
 10
2.064254571499986
 20
0.6465913827996701
 30
0.0
 11
2.0452931201998581
 21
0.650310590599247
 31
0.0
  0
LINE
  5
2C90
  8
0
 10
2.1872003549001411
 20
1.0870028740991979
 30
0.0
 11
2.1818020763007548
 21
1.0970161267991889
 31
0.0
  0
LINE
  5
2C91
  8
0
 10
2.0452931201998581
 20
0.650310590599247
 30
0.0
 11
2.0278161947999251
 21
0.6555174823993184
 31
0.0
  0
LINE
  5
2C92
  8
0
 10
2.1909791497000688
 20
1.0761885606989381
 30
0.0
 11
2.1872003549001411
 21
1.0870028740991979
 31
0.0
  0
LINE
  5
2C93
  8
0
 10
2.0278161947999251
 20
0.6555174823993184
 30
0.0
 11
2.0118237963997672
 21
0.6622120570993957
 31
0.0
  0
LINE
  5
2C94
  8
0
 10
2.193138460700538
 20
1.0645731865990911
 30
0.0
 11
2.1909791497000688
 21
1.0761885606989381
 31
0.0
  0
LINE
  5
2C95
  8
0
 10
2.0118237963997672
 20
0.6622120570993957
 30
0.0
 11
1.9973159238998051
 21
0.6703943157995127
 31
0.0
  0
LINE
  5
2C96
  8
0
 10
2.193678287900183
 20
1.052156751799429
 30
0.0
 11
2.193138460700538
 21
1.0645731865990911
 31
0.0
  0
LINE
  5
2C97
  8
0
 10
1.9973159238998051
 20
0.6703943157995127
 30
0.0
 11
1.984292578400527
 21
0.6800642573994084
 31
0.0
  0
LINE
  5
2C98
  8
0
 10
2.1925986323999491
 20
1.038939257398851
 30
0.0
 11
2.193678287900183
 21
1.052156751799429
 31
0.0
  0
LINE
  5
2C99
  8
0
 10
1.984292578400527
 20
0.6800642573994084
 30
0.0
 11
1.970257054700596
 21
0.6932245330992828
 31
0.0
  0
LINE
  5
2C9A
  8
0
 10
2.2686468749998312
 20
1.038939257398851
 30
0.0
 11
2.1925986323999491
 21
1.038939257398851
 31
0.0
  0
LINE
  5
2C9B
  8
0
 10
1.970257054700596
 20
0.6932245330992828
 30
0.0
 11
1.9583808431002581
 21
0.707071432099383
 31
0.0
  0
LINE
  5
2C9C
  8
0
 10
2.2685119182001472
 20
1.0598812619996349
 30
0.0
 11
2.2686468749998312
 21
1.038939257398851
 31
0.0
  0
LINE
  5
2C9D
  8
0
 10
1.9583808431002581
 20
0.707071432099383
 30
0.0
 11
1.948663942499933
 21
0.7216049543994814
 31
0.0
  0
LINE
  5
2C9E
  8
0
 10
2.2662176504004492
 20
1.0794500199992849
 30
0.0
 11
2.2685119182001472
 21
1.0598812619996349
 31
0.0
  0
LINE
  5
2C9F
  8
0
 10
1.948663942499933
 20
0.7216049543994814
 30
0.0
 11
1.9411063540001121
 21
0.7368250999993508
 31
0.0
  0
LINE
  5
2CA0
  8
0
 10
2.2617640705002482
 20
1.097645531399166
 30
0.0
 11
2.2662176504004492
 21
1.0794500199992849
 31
0.0
  0
LINE
  5
2CA1
  8
0
 10
1.9411063540001121
 20
0.7368250999993508
 30
0.0
 11
1.935708075400725
 21
0.7527318677994117
 31
0.0
  0
LINE
  5
2CA2
  8
0
 10
2.2551511796004879
 20
1.114467797299312
 30
0.0
 11
2.2617640705002482
 21
1.097645531399166
 31
0.0
  0
LINE
  5
2CA3
  8
0
 10
1.935708075400725
 20
0.7527318677994117
 30
0.0
 11
1.9324691088995669
 21
0.7693252588992438
 31
0.0
  0
LINE
  5
2CA4
  8
0
 10
2.2463789776998051
 20
1.1299168165992339
 30
0.0
 11
2.2551511796004879
 21
1.114467797299312
 31
0.0
  0
LINE
  5
2CA5
  8
0
 10
1.9324691088995669
 20
0.7693252588992438
 30
0.0
 11
1.931389453400697
 21
0.7866052732993012
 31
0.0
  0
LINE
  5
2CA6
  8
0
 10
2.2354474648000169
 20
1.143992590399193
 30
0.0
 11
2.2463789776998051
 21
1.1299168165992339
 31
0.0
  0
LINE
  5
2CA7
  8
0
 10
1.931389453400697
 20
0.7866052732993012
 30
0.0
 11
1.931389453400697
 21
0.81464238239937
 31
0.0
  0
LINE
  5
2CA8
  8
0
 10
2.222356640900216
 20
1.1566951175993829
 30
0.0
 11
2.2354474648000169
 21
1.143992590399193
 31
0.0
  0
LINE
  5
2CA9
  8
0
 10
1.931389453400697
 20
0.81464238239937
 30
0.0
 11
2.0074376948996351
 21
0.81464238239937
 31
0.0
  0
LINE
  5
2CAA
  8
0
 10
2.21034547140016
 20
1.165621217199259
 30
0.0
 11
2.222356640900216
 21
1.1566951175993829
 31
0.0
  0
LINE
  5
2CAB
  8
0
 10
2.0074376948996351
 20
0.81464238239937
 30
0.0
 11
2.0074376948996351
 21
0.789408984099282
 31
0.0
  0
LINE
  5
2CAC
  8
0
 10
2.1969847339000799
 20
1.173174071299399
 30
0.0
 11
2.21034547140016
 21
1.165621217199259
 31
0.0
  0
LINE
  5
2CAD
  8
0
 10
2.0074376948996351
 20
0.789408984099282
 30
0.0
 11
2.0079775232006791
 21
0.7770497690994489
 31
0.0
  0
LINE
  5
2CAE
  8
0
 10
2.1822744262003648
 20
1.1793536787995429
 30
0.0
 11
2.1969847339000799
 21
1.173174071299399
 31
0.0
  0
LINE
  5
2CAF
  8
0
 10
2.0079775232006791
 20
0.7770497690994489
 30
0.0
 11
2.0095970069996829
 21
0.765606051099212
 31
0.0
  0
LINE
  5
2CB0
  8
0
 10
2.1662145483005579
 20
1.184160040799497
 30
0.0
 11
2.1822744262003648
 21
1.1793536787995429
 31
0.0
  0
LINE
  5
2CB1
  8
0
 10
2.0095970069996829
 20
0.765606051099212
 30
0.0
 11
2.012296145199798
 21
0.7550778300992534
 31
0.0
  0
LINE
  5
2CB2
  8
0
 10
2.1488051023998191
 20
1.1875931561990001
 30
0.0
 11
2.1662145483005579
 21
1.184160040799497
 31
0.0
  0
LINE
  5
2CB3
  8
0
 10
2.012296145199798
 20
0.7550778300992534
 30
0.0
 11
2.0160749400001801
 21
0.7454651071996068
 31
0.0
  0
LINE
  5
2CB4
  8
0
 10
2.1300460862994441
 20
1.1896530249991879
 30
0.0
 11
2.1488051023998191
 21
1.1875931561990001
 31
0.0
  0
LINE
  5
2CB5
  8
0
 10
2.0160749400001801
 20
0.7454651071996068
 30
0.0
 11
2.0209333903003421
 21
0.7367678812993291
 31
0.0
  0
LINE
  5
2CB6
  8
0
 10
2.1099374999998868
 20
1.1903396482994131
 30
0.0
 11
2.1300460862994441
 21
1.1896530249991879
 31
0.0
  0
LINE
  5
2CB7
  8
0
 10
2.0209333903003421
 20
0.7367678812993291
 30
0.0
 11
2.0268714961002838
 21
0.7289861523991023
 31
0.0
  0
LINE
  5
2CB8
  8
0
 10
2.093135359700681
 20
1.1895385886991781
 30
0.0
 11
2.1099374999998868
 21
1.1903396482994131
 31
0.0
  0
LINE
  5
2CB9
  8
0
 10
2.0268714961002838
 20
0.7289861523991023
 30
0.0
 11
2.0338892574004599
 21
0.7221199215994149
 31
0.0
  0
LINE
  5
2CBA
  8
0
 10
2.076738089799619
 20
1.187135407699315
 30
0.0
 11
2.093135359700681
 21
1.1895385886991781
 31
0.0
  0
LINE
  5
2CBB
  8
0
 10
2.0338892574004599
 20
0.7221199215994149
 30
0.0
 11
2.0417167606001381
 21
0.7161691888993574
 31
0.0
  0
LINE
  5
2CBC
  8
0
 10
2.0607456914003701
 20
1.1831301063994031
 30
0.0
 11
2.076738089799619
 21
1.187135407699315
 31
0.0
  0
LINE
  5
2CBD
  8
0
 10
2.0417167606001381
 20
0.7161691888993574
 30
0.0
 11
2.050084092099496
 21
0.7111339520995444
 31
0.0
  0
LINE
  5
2CBE
  8
0
 10
2.0451581633997189
 20
1.1775226836991799
 30
0.0
 11
2.0607456914003701
 21
1.1831301063994031
 31
0.0
  0
LINE
  5
2CBF
  8
0
 10
2.050084092099496
 20
0.7111339520995444
 30
0.0
 11
2.0589912508003181
 21
0.7070142144991678
 31
0.0
  0
LINE
  5
2CC0
  8
0
 10
2.0299755057999391
 20
1.170313141799169
 30
0.0
 11
2.0451581633997189
 21
1.1775226836991799
 31
0.0
  0
LINE
  5
2CC1
  8
0
 10
2.0589912508003181
 20
0.7070142144991678
 30
0.0
 11
2.0684382377994548
 21
0.7038099727990357
 31
0.0
  0
LINE
  5
2CC2
  8
0
 10
2.0151977197001538
 20
1.161501478499303
 30
0.0
 11
2.0299755057999391
 21
1.170313141799169
 31
0.0
  0
LINE
  5
2CC3
  8
0
 10
2.0684382377994548
 20
0.7038099727990357
 30
0.0
 11
2.078425052000056
 21
0.7015212291994432
 31
0.0
  0
LINE
  5
2CC4
  8
0
 10
2.00082480509991
 20
1.15108769489916
 30
0.0
 11
2.0151977197001538
 21
1.161501478499303
 31
0.0
  0
LINE
  5
2CC5
  8
0
 10
2.078425052000056
 20
0.7015212291994432
 30
0.0
 11
2.088951694500337
 21
0.7001479825992192
 31
0.0
  0
LINE
  5
2CC6
  8
0
 10
1.9868567598000479
 20
1.138671261199306
 30
0.0
 11
2.00082480509991
 21
1.15108769489916
 31
0.0
  0
LINE
  5
2CC7
  8
0
 10
2.088951694500337
 20
0.7001479825992192
 30
0.0
 11
2.100018164200264
 21
0.6996902340993075
 31
0.0
  0
LINE
  5
2CC8
  8
0
 10
1.975182983400827
 20
1.125453766799182
 30
0.0
 11
1.9868567598000479
 21
1.138671261199306
 31
0.0
  0
LINE
  5
2CC9
  8
0
 10
2.100018164200264
 20
0.6996902340993075
 30
0.0
 11
2.1145935151007502
 21
0.7001479825992192
 31
0.0
  0
LINE
  5
2CCA
  8
0
 10
1.965803475900429
 20
1.1114352116992441
 30
0.0
 11
1.975182983400827
 21
1.125453766799182
 31
0.0
  0
LINE
  5
2CCB
  8
0
 10
2.1145935151007502
 20
0.7001479825992192
 30
0.0
 11
2.128089210500093
 21
0.7015212291994432
 31
0.0
  0
LINE
  5
2CCC
  8
0
 10
1.958718236200184
 20
1.096615596999527
 30
0.0
 11
1.965803475900429
 21
1.1114352116992441
 31
0.0
  0
LINE
  5
2CCD
  8
0
 10
2.128089210500093
 20
0.7015212291994432
 30
0.0
 11
2.140505249300531
 21
0.7038099727990357
 31
0.0
  0
LINE
  5
2CCE
  8
0
 10
1.9539272643005461
 20
1.08099492159954
 30
0.0
 11
1.958718236200184
 21
1.096615596999527
 31
0.0
  0
LINE
  5
2CCF
  8
0
 10
2.140505249300531
 20
0.7038099727990357
 30
0.0
 11
2.1518416337003141
 21
0.7070142144991678
 31
0.0
  0
LINE
  5
2CD0
  8
0
 10
1.951430560199696
 20
1.0645731865990911
 30
0.0
 11
1.9539272643005461
 21
1.08099492159954
 31
0.0
  0
LINE
  5
2CD1
  8
0
 10
2.1518416337003141
 20
0.7070142144991678
 30
0.0
 11
2.1620983615002838
 21
0.7111339520995444
 31
0.0
  0
LINE
  5
2CD2
  8
0
 10
1.951228124999943
 20
1.047350390899509
 30
0.0
 11
1.951430560199696
 21
1.0645731865990911
 31
0.0
  0
LINE
  5
2CD3
  8
0
 10
2.1620983615002838
 20
0.7111339520995444
 30
0.0
 11
2.1712754349000529
 21
0.7161691888993574
 31
0.0
  0
LINE
  5
2CD4
  8
0
 10
1.9531850007997491
 20
1.0302420314994829
 30
0.0
 11
1.951228124999943
 21
1.047350390899509
 31
0.0
  0
LINE
  5
2CD5
  8
0
 10
2.1712754349000529
 20
0.7161691888993574
 30
0.0
 11
2.1793728517004629
 21
0.7221199215994149
 31
0.0
  0
LINE
  5
2CD6
  8
0
 10
1.9571662307998841
 20
1.01416360759913
 30
0.0
 11
1.9531850007997491
 21
1.0302420314994829
 31
0.0
  0
LINE
  5
2CD7
  8
0
 10
2.1793728517004629
 20
0.7221199215994149
 30
0.0
 11
2.1872678333002109
 21
0.7296155569995335
 31
0.0
  0
LINE
  5
2CD8
  8
0
 10
1.9631718150003501
 20
0.9991151191993594
 30
0.0
 11
1.9571662307998841
 21
1.01416360759913
 31
0.0
  0
LINE
  5
2CD9
  8
0
 10
2.1872678333002109
 20
0.7296155569995335
 30
0.0
 11
2.1939482025995849
 21
0.7376833782993799
 31
0.0
  0
LINE
  5
2CDA
  8
0
 10
1.9712017534002371
 20
0.9850965640996491
 30
0.0
 11
1.9631718150003501
 21
0.9991151191993594
 31
0.0
  0
LINE
  5
2CDB
  8
0
 10
2.1939482025995849
 20
0.7376833782993799
 30
0.0
 11
2.1994139584994619
 21
0.7463233854996361
 31
0.0
  0
LINE
  5
2CDC
  8
0
 10
1.981256047100032
 20
0.9721079444993847
 30
0.0
 11
1.9712017534002371
 21
0.9850965640996491
 31
0.0
  0
LINE
  5
2CDD
  8
0
 10
2.1994139584994619
 20
0.7463233854996361
 30
0.0
 11
2.203665103199909
 21
0.7555355785993925
 31
0.0
  0
LINE
  5
2CDE
  8
0
 10
1.993334693900578
 20
0.9601492581991806
 30
0.0
 11
1.981256047100032
 21
0.9721079444993847
 31
0.0
  0
LINE
  5
2CDF
  8
0
 10
2.203665103199909
 20
0.7555355785993925
 30
0.0
 11
2.206701634500404
 21
0.7653199575995587
 31
0.0
  0
LINE
  5
2CE0
  8
0
 10
2.0074376948996351
 20
0.9492205073993318
 30
0.0
 11
1.993334693900578
 21
0.9601492581991806
 31
0.0
  0
LINE
  5
2CE1
  8
0
 10
2.206701634500404
 20
0.7653199575995587
 30
0.0
 11
2.2085235535005259
 21
0.7756765224989977
 31
0.0
  0
LINE
  5
2CE2
  8
0
 10
2.0284235015005829
 20
0.9349158598993199
 30
0.0
 11
2.0074376948996351
 21
0.9492205073993318
 31
0.0
  0
LINE
  5
2CE3
  8
0
 10
2.2085235535005259
 20
0.7756765224989977
 30
0.0
 11
2.209130859099786
 21
0.7866052732993012
 31
0.0
  0
LINE
  5
2CE4
  8
0
 10
2.049814178500128
 20
0.9208400871993944
 30
0.0
 11
2.0284235015005829
 21
0.9349158598993199
 31
0.0
  0
LINE
  5
2CE5
  8
0
 10
2.209130859099786
 20
0.7866052732993012
 30
0.0
 11
2.208186160400146
 21
0.79827786609917
 31
0.0
  0
LINE
  5
2CE6
  8
0
 10
2.0716097259000881
 20
0.9069931881995216
 30
0.0
 11
2.049814178500128
 21
0.9208400871993944
 31
0.0
  0
LINE
  5
2CE7
  8
0
 10
2.208186160400146
 20
0.79827786609917
 30
0.0
 11
2.2053520643007678
 21
0.8092638355990403
 31
0.0
  0
LINE
  5
2CE8
  8
0
 10
2.0938101448000448
 20
0.8933751628992467
 30
0.0
 11
2.0716097259000881
 21
0.9069931881995216
 31
0.0
  0
LINE
  5
2CE9
  8
0
 10
2.2053520643007678
 20
0.8092638355990403
 30
0.0
 11
2.2006285719007792
 21
0.8195631817993671
 31
0.0
  0
LINE
  5
2CEA
  8
0
 10
2.1164154341004169
 20
0.8799860134990922
 30
0.0
 11
2.0938101448000448
 21
0.8933751628992467
 31
0.0
  0
LINE
  5
2CEB
  8
0
 10
2.2006285719007792
 20
0.8195631817993671
 30
0.0
 11
2.1940156810005642
 21
0.829175904699241
 31
0.0
  0
LINE
  5
2CEC
  8
0
 10
2.1394255938002971
 20
0.8668257377989903
 30
0.0
 11
2.1164154341004169
 21
0.8799860134990922
 31
0.0
  0
LINE
  5
2CED
  8
0
 10
2.1940156810005642
 20
0.829175904699241
 30
0.0
 11
2.185513392700158
 21
0.8381020053993779
 31
0.0
  0
LINE
  5
2CEE
  8
0
 10
2.1628406250001708
 20
0.8538943357993957
 30
0.0
 11
2.1394255938002971
 21
0.8668257377989903
 31
0.0
  0
LINE
  5
2CEF
  8
0
 10
2.185513392700158
 20
0.8381020053993779
 30
0.0
 11
2.1751217081005052
 21
0.8463414816992553
 31
0.0
  0
LINE
  5
2CF0
  8
0
 10
2.1751217081005052
 20
0.8463414816992553
 30
0.0
 11
2.1628406250001708
 21
0.8538943357993957
 31
0.0
  0
LINE
  5
2CF1
  8
0
 10
3.0489486324004238
 20
1.1717436059993811
 30
0.0
 11
3.0626467629999752
 21
1.1635613483990701
 31
0.0
  0
LINE
  5
2CF2
  8
0
 10
3.0343058031003229
 20
1.1784381817988101
 30
0.0
 11
3.0489486324004238
 21
1.1717436059993811
 31
0.0
  0
LINE
  5
2CF3
  8
0
 10
3.0626467629999752
 20
1.1635613483990701
 30
0.0
 11
3.0754001948998839
 21
1.1538914056993681
 31
0.0
  0
LINE
  5
2CF4
  8
0
 10
3.0187182762006151
 20
1.183645073599336
 30
0.0
 11
3.0343058031003229
 21
1.1784381817988101
 31
0.0
  0
LINE
  5
2CF5
  8
0
 10
3.0754001948998839
 20
1.1538914056993681
 30
0.0
 11
3.0946990393008491
 21
1.133979336599622
 31
0.0
  0
LINE
  5
2CF6
  8
0
 10
3.0021860494998691
 20
1.187364281399595
 30
0.0
 11
3.0187182762006151
 21
1.183645073599336
 31
0.0
  0
LINE
  5
2CF7
  8
0
 10
3.0946990393008491
 20
1.133979336599622
 30
0.0
 11
3.1110288308000231
 21
1.109489780299554
 31
0.0
  0
LINE
  5
2CF8
  8
0
 10
2.9847091241008452
 20
1.1895958062993941
 30
0.0
 11
3.0021860494998691
 21
1.187364281399595
 31
0.0
  0
LINE
  5
2CF9
  8
0
 10
3.1110288308000231
 20
1.109489780299554
 30
0.0
 11
3.1243895683001019
 21
1.080422735699357
 31
0.0
  0
LINE
  5
2CFA
  8
0
 10
2.9662875000003619
 20
1.1903396482994131
 30
0.0
 11
2.9847091241008452
 21
1.1895958062993941
 31
0.0
  0
LINE
  5
2CFB
  8
0
 10
3.1243895683001019
 20
1.080422735699357
 30
0.0
 11
3.1347812540002451
 21
1.0467782049993271
 31
0.0
  0
LINE
  5
2CFC
  8
0
 10
2.9469886555998519
 20
1.1895958062993941
 30
0.0
 11
2.9662875000003619
 21
1.1903396482994131
 31
0.0
  0
LINE
  5
2CFD
  8
0
 10
3.1347812540002451
 20
1.0467782049993271
 30
0.0
 11
3.1422038868004161
 21
1.0085561859991681
 31
0.0
  0
LINE
  5
2CFE
  8
0
 10
2.9287694678005201
 20
1.187364281399595
 30
0.0
 11
2.9469886555998519
 21
1.1895958062993941
 31
0.0
  0
LINE
  5
2CFF
  8
0
 10
3.1422038868004161
 20
1.0085561859991681
 30
0.0
 11
3.1466574656005828
 21
0.9657566808996307
 31
0.0
  0
LINE
  5
2D00
  8
0
 10
2.911629934400934
 20
1.183645073599336
 30
0.0
 11
2.9287694678005201
 21
1.187364281399595
 31
0.0
  0
LINE
  5
2D01
  8
0
 10
3.1466574656005828
 20
0.9657566808996307
 30
0.0
 11
3.148141992599903
 21
0.9183796874990549
 31
0.0
  0
LINE
  5
2D02
  8
0
 10
2.895570057599798
 20
1.1784381817988101
 30
0.0
 11
2.911629934400934
 21
1.183645073599336
 31
0.0
  0
LINE
  5
2D03
  8
0
 10
3.148141992599903
 20
0.9183796874990549
 30
0.0
 11
3.1466574656005828
 21
0.8702588531996298
 31
0.0
  0
LINE
  5
2D04
  8
0
 10
2.8805898363002589
 20
1.1717436059993811
 30
0.0
 11
2.895570057599798
 21
1.1784381817988101
 31
0.0
  0
LINE
  5
2D05
  8
0
 10
3.1466574656005828
 20
0.8702588531996298
 30
0.0
 11
3.1422038868004161
 21
0.8268299423993994
 31
0.0
  0
LINE
  5
2D06
  8
0
 10
2.8666892694009221
 20
1.1635613483990701
 30
0.0
 11
2.8805898363002589
 21
1.1717436059993811
 31
0.0
  0
LINE
  5
2D07
  8
0
 10
3.1422038868004161
 20
0.8268299423993994
 30
0.0
 11
3.1347812540002451
 21
0.788092957299341
 31
0.0
  0
LINE
  5
2D08
  8
0
 10
2.8538683591004879
 20
1.1538914056993681
 30
0.0
 11
2.8666892694009221
 21
1.1635613483990701
 31
0.0
  0
LINE
  5
2D09
  8
0
 10
3.1347812540002451
 20
0.788092957299341
 30
0.0
 11
3.1243895683001019
 21
0.7540478956993866
 31
0.0
  0
LINE
  5
2D0A
  8
0
 10
2.8345695158004669
 20
1.133979336599622
 30
0.0
 11
2.8538683591004879
 21
1.1538914056993681
 31
0.0
  0
LINE
  5
2D0B
  8
0
 10
3.1243895683001019
 20
0.7540478956993866
 30
0.0
 11
3.1110288308000231
 21
0.7246947586991155
 31
0.0
  0
LINE
  5
2D0C
  8
0
 10
2.8182397242999282
 20
1.109489780299554
 30
0.0
 11
2.8345695158004669
 21
1.133979336599622
 31
0.0
  0
LINE
  5
2D0D
  8
0
 10
3.1110288308000231
 20
0.7246947586991155
 30
0.0
 11
3.0946990393008491
 21
0.7000335462992098
 31
0.0
  0
LINE
  5
2D0E
  8
0
 10
2.8048789857002698
 20
1.080422735699357
 30
0.0
 11
2.8182397242999282
 21
1.109489780299554
 31
0.0
  0
LINE
  5
2D0F
  8
0
 10
3.0946990393008491
 20
0.7000335462992098
 30
0.0
 11
3.0754001948998839
 21
0.6800642573994084
 31
0.0
  0
LINE
  5
2D10
  8
0
 10
2.794487301100161
 20
1.0467782049993271
 30
0.0
 11
2.8048789857002698
 21
1.080422735699357
 31
0.0
  0
LINE
  5
2D11
  8
0
 10
3.0754001948998839
 20
0.6800642573994084
 30
0.0
 11
3.0626467629999752
 21
0.6703943157995127
 31
0.0
  0
LINE
  5
2D12
  8
0
 10
2.7870646682995348
 20
1.0085561859991681
 30
0.0
 11
2.794487301100161
 21
1.0467782049993271
 31
0.0
  0
LINE
  5
2D13
  8
0
 10
3.0626467629999752
 20
0.6703943157995127
 30
0.0
 11
3.0489486324004238
 21
0.6622120570993957
 31
0.0
  0
LINE
  5
2D14
  8
0
 10
2.7826110894993681
 20
0.9657566808996307
 30
0.0
 11
2.7870646682995348
 21
1.0085561859991681
 31
0.0
  0
LINE
  5
2D15
  8
0
 10
3.0489486324004238
 20
0.6622120570993957
 30
0.0
 11
3.0343058031003229
 21
0.6555174823993184
 31
0.0
  0
LINE
  5
2D16
  8
0
 10
2.7811265625000479
 20
0.9183796874990549
 30
0.0
 11
2.7826110894993681
 21
0.9657566808996307
 31
0.0
  0
LINE
  5
2D17
  8
0
 10
3.0343058031003229
 20
0.6555174823993184
 30
0.0
 11
3.0187182762006151
 21
0.650310590599247
 31
0.0
  0
LINE
  5
2D18
  8
0
 10
2.7826110894993681
 20
0.8702588531996298
 30
0.0
 11
2.7811265625000479
 21
0.9183796874990549
 31
0.0
  0
LINE
  5
2D19
  8
0
 10
3.0187182762006151
 20
0.650310590599247
 30
0.0
 11
3.0021860494998691
 21
0.6465913827996701
 31
0.0
  0
LINE
  5
2D1A
  8
0
 10
2.7870646682995348
 20
0.8268299423993994
 30
0.0
 11
2.7826110894993681
 21
0.8702588531996298
 31
0.0
  0
LINE
  5
2D1B
  8
0
 10
3.0021860494998691
 20
0.6465913827996701
 30
0.0
 11
2.9847091241008452
 21
0.6443598567993832
 31
0.0
  0
LINE
  5
2D1C
  8
0
 10
2.794487301100161
 20
0.788092957299341
 30
0.0
 11
2.7870646682995348
 21
0.8268299423993994
 31
0.0
  0
LINE
  5
2D1D
  8
0
 10
2.9847091241008452
 20
0.6443598567993832
 30
0.0
 11
2.9662875000003619
 21
0.6436160158991698
 31
0.0
  0
LINE
  5
2D1E
  8
0
 10
2.8048789857002698
 20
0.7540478956993866
 30
0.0
 11
2.794487301100161
 21
0.788092957299341
 31
0.0
  0
LINE
  5
2D1F
  8
0
 10
2.9662875000003619
 20
0.6436160158991698
 30
0.0
 11
2.9469886555998519
 21
0.6443598567993832
 31
0.0
  0
LINE
  5
2D20
  8
0
 10
2.8182397242999282
 20
0.7246947586991155
 30
0.0
 11
2.8048789857002698
 21
0.7540478956993866
 31
0.0
  0
LINE
  5
2D21
  8
0
 10
2.9469886555998519
 20
0.6443598567993832
 30
0.0
 11
2.9287694678005201
 21
0.6465913827996701
 31
0.0
  0
LINE
  5
2D22
  8
0
 10
2.8345695158004669
 20
0.7000335462992098
 30
0.0
 11
2.8182397242999282
 21
0.7246947586991155
 31
0.0
  0
LINE
  5
2D23
  8
0
 10
2.9287694678005201
 20
0.6465913827996701
 30
0.0
 11
2.911629934400934
 21
0.650310590599247
 31
0.0
  0
LINE
  5
2D24
  8
0
 10
2.8538683591004879
 20
0.6800642573994084
 30
0.0
 11
2.8345695158004669
 21
0.7000335462992098
 31
0.0
  0
LINE
  5
2D25
  8
0
 10
2.911629934400934
 20
0.650310590599247
 30
0.0
 11
2.895570057599798
 21
0.6555174823993184
 31
0.0
  0
LINE
  5
2D26
  8
0
 10
2.8666892694009221
 20
0.6703943157995127
 30
0.0
 11
2.8538683591004879
 21
0.6800642573994084
 31
0.0
  0
LINE
  5
2D27
  8
0
 10
2.895570057599798
 20
0.6555174823993184
 30
0.0
 11
2.8805898363002589
 21
0.6622120570993957
 31
0.0
  0
LINE
  5
2D28
  8
0
 10
2.8805898363002589
 20
0.6622120570993957
 30
0.0
 11
2.8666892694009221
 21
0.6703943157995127
 31
0.0
  0
LINE
  5
2D29
  8
0
 10
3.8557019534000569
 20
1.1903396482994131
 30
0.0
 11
4.0210242182001821
 21
0.6436160158991698
 31
0.0
  0
LINE
  5
2D2A
  8
0
 10
3.7895730466002528
 20
1.1903396482994131
 30
0.0
 11
3.8557019534000569
 21
1.1903396482994131
 31
0.0
  0
LINE
  5
2D2B
  8
0
 10
4.0210242182001821
 20
0.6436160158991698
 30
0.0
 11
3.9416695318004709
 21
0.6436160158991698
 31
0.0
  0
LINE
  5
2D2C
  8
0
 10
3.6242507807005491
 20
0.6436160158991698
 30
0.0
 11
3.7895730466002528
 21
1.1903396482994131
 31
0.0
  0
LINE
  5
2D2D
  8
0
 10
3.9416695318004709
 20
0.6436160158991698
 30
0.0
 11
3.8953792965999119
 21
0.8034275391992196
 31
0.0
  0
LINE
  5
2D2E
  8
0
 10
3.7036054682002941
 20
0.6436160158991698
 30
0.0
 11
3.6242507807005491
 21
0.6436160158991698
 31
0.0
  0
LINE
  5
2D2F
  8
0
 10
3.8953792965999119
 20
0.8034275391992196
 30
0.0
 11
3.749895703400397
 21
0.8034275391992196
 31
0.0
  0
LINE
  5
2D30
  8
0
 10
3.749895703400397
 20
0.8034275391992196
 30
0.0
 11
3.7036054682002941
 21
0.6436160158991698
 31
0.0
  0
LINE
  5
2D31
  8
0
 10
3.8193310551005188
 20
1.0417429692993201
 30
0.0
 11
3.7664279300997801
 21
0.8566980465993765
 31
0.0
  0
LINE
  5
2D32
  8
0
 10
3.7664279300997801
 20
0.8566980465993765
 30
0.0
 11
3.8788470699005302
 21
0.8566980465993765
 31
0.0
  0
LINE
  5
2D33
  8
0
 10
3.8259439449007
 20
1.0417429692993201
 30
0.0
 11
3.8193310551005188
 21
1.0417429692993201
 31
0.0
  0
LINE
  5
2D34
  8
0
 10
3.8788470699005302
 20
0.8566980465993765
 30
0.0
 11
3.8259439449007
 21
1.0417429692993201
 31
0.0
  0
LINE
  5
2D35
  8
0
 10
0.0
 20
0.0
 30
0.0
 11
5.2469999999998427
 21
0.0
 31
0.0
  0
LINE
  5
2D36
  8
0
 10
0.1484999999997854
 20
0.1484999999997854
 30
0.0
 11
5.0984999999996026
 21
0.1484999999997854
 31
0.0
  0
LINE
  5
2D37
  8
0
 10
3.415500000000065
 20
2.276999999999588
 30
0.0
 11
3.11850000000004
 21
2.276999999999588
 31
0.0
  0
LINE
  5
2D38
  8
0
 10
3.11850000000004
 20
2.5599985850992648
 30
0.0
 11
3.11850000000004
 21
2.276999999999588
 31
0.0
  0
ARC
  5
2D39
  8
0
 10
2.4255000000002829
 20
3.266999999998915
 30
0.0
 40
0.9899999999999987
 50
225.57299599901029
 51
314.42700398160042
  0
LINE
  5
2D3A
  8
0
 10
1.7324999999982531
 20
2.5599985855756131
 30
0.0
 11
1.7325000000000721
 21
0.6434999999992215
 31
0.0
  0
LINE
  5
2D3B
  8
0
 10
1.7325000000000721
 20
0.6434999999992215
 30
0.0
 11
1.336499999999887
 21
0.6434999999992215
 31
0.0
  0
LINE
  5
2D3C
  8
0
 10
3.592849218199262
 20
1.1903396482994131
 30
0.0
 11
3.5201074216006409
 21
0.6436160158991698
 31
0.0
  0
LINE
  5
2D3D
  8
0
 10
3.5267203125004012
 20
1.1903396482994131
 30
0.0
 11
3.592849218199262
 21
1.1903396482994131
 31
0.0
  0
LINE
  5
2D3E
  8
0
 10
3.5201074216006409
 20
0.6436160158991698
 30
0.0
 11
3.4539785158999621
 21
0.6436160158991698
 31
0.0
  0
LINE
  5
2D3F
  8
0
 10
3.4837365233001938
 20
0.8398757817990372
 30
0.0
 11
3.5267203125004012
 21
1.1903396482994131
 31
0.0
  0
LINE
  5
2D40
  8
0
 10
3.4539785158999621
 20
0.6436160158991698
 30
0.0
 11
3.3944625000003721
 21
1.052957812499244
 31
0.0
  0
LINE
  5
2D41
  8
0
 10
3.4771236323999801
 20
0.8398757817990372
 30
0.0
 11
3.4837365233001938
 21
0.8398757817990372
 31
0.0
  0
LINE
  5
2D42
  8
0
 10
3.3944625000003721
 20
1.052957812499244
 30
0.0
 11
3.3878496091001571
 21
1.052957812499244
 31
0.0
  0
LINE
  5
2D43
  8
0
 10
3.4275269534009558
 20
1.1903396482994131
 30
0.0
 11
3.4771236323999801
 21
0.8398757817990372
 31
0.0
  0
LINE
  5
2D44
  8
0
 10
3.3878496091001571
 20
1.052957812499244
 30
0.0
 11
3.3283335932001128
 21
0.6436160158991698
 31
0.0
  0
LINE
  5
2D45
  8
0
 10
3.3547851556995729
 20
1.1903396482994131
 30
0.0
 11
3.4275269534009558
 21
1.1903396482994131
 31
0.0
  0
LINE
  5
2D46
  8
0
 10
3.3283335932001128
 20
0.6436160158991698
 30
0.0
 11
3.262204687500343
 21
0.6436160158991698
 31
0.0
  0
LINE
  5
2D47
  8
0
 10
3.30518847669964
 20
0.8398757817990372
 30
0.0
 11
3.3547851556995729
 21
1.1903396482994131
 31
0.0
  0
LINE
  5
2D48
  8
0
 10
3.262204687500343
 20
0.6436160158991698
 30
0.0
 11
3.1894628909003582
 21
1.1903396482994131
 31
0.0
  0
LINE
  5
2D49
  8
0
 10
3.2985755858007901
 20
0.8398757817990372
 30
0.0
 11
3.30518847669964
 21
0.8398757817990372
 31
0.0
  0
LINE
  5
2D4A
  8
0
 10
3.1894628909003582
 20
1.1903396482994131
 30
0.0
 11
3.255591796600128
 21
1.1903396482994131
 31
0.0
  0
LINE
  5
2D4B
  8
0
 10
3.255591796600128
 20
1.1903396482994131
 30
0.0
 11
3.2985755858007901
 21
0.8398757817990372
 31
0.0
  0
LINE
  5
2D4C
  8
0
 10
3.0205401941002492
 20
1.118530317299246
 30
0.0
 11
3.01183547060009
 21
1.1241949575996839
 31
0.0
  0
LINE
  5
2D4D
  8
0
 10
3.01183547060009
 20
1.1241949575996839
 30
0.0
 11
3.0029957902997921
 21
1.1288296634993451
 31
0.0
  0
LINE
  5
2D4E
  8
0
 10
3.029109960799814
 20
1.1118357425991681
 30
0.0
 11
3.0205401941002492
 21
1.118530317299246
 31
0.0
  0
LINE
  5
2D4F
  8
0
 10
3.0029957902997921
 20
1.1288296634993451
 30
0.0
 11
2.9940211532002641
 21
1.13243443499914
 31
0.0
  0
LINE
  5
2D50
  8
0
 10
3.0405138236001221
 20
1.098961559299368
 30
0.0
 11
3.029109960799814
 21
1.1118357425991681
 31
0.0
  0
LINE
  5
2D51
  8
0
 10
2.9940211532002641
 20
1.13243443499914
 30
0.0
 11
2.984911559300599
 21
1.1350092709992621
 31
0.0
  0
LINE
  5
2D52
  8
0
 10
3.0501632458008312
 20
1.0811665776991499
 30
0.0
 11
3.0405138236001221
 21
1.098961559299368
 31
0.0
  0
LINE
  5
2D53
  8
0
 10
2.984911559300599
 20
1.1350092709992621
 30
0.0
 11
2.9756670086003392
 21
1.136554173699323
 31
0.0
  0
LINE
  5
2D54
  8
0
 10
3.0580582274005792
 20
1.058450796699389
 30
0.0
 11
3.0501632458008312
 21
1.0811665776991499
 31
0.0
  0
LINE
  5
2D55
  8
0
 10
2.9756670086003392
 20
1.136554173699323
 30
0.0
 11
2.9662875000003619
 21
1.137069140899257
 31
0.0
  0
LINE
  5
2D56
  8
0
 10
3.0641987683998191
 20
1.0308142184992439
 30
0.0
 11
3.0580582274005792
 21
1.058450796699389
 31
0.0
  0
LINE
  5
2D57
  8
0
 10
2.9662875000003619
 20
1.137069140899257
 30
0.0
 11
2.9560307722003918
 21
1.136554173699323
 31
0.0
  0
LINE
  5
2D58
  8
0
 10
3.068584868799916
 20
0.9982568397995237
 30
0.0
 11
3.0641987683998191
 21
1.0308142184992439
 31
0.0
  0
LINE
  5
2D59
  8
0
 10
2.9560307722003918
 20
1.136554173699323
 30
0.0
 11
2.946043956900211
 21
1.1350092709992621
 31
0.0
  0
LINE
  5
2D5A
  8
0
 10
3.0712165296999951
 20
0.9607786627991573
 30
0.0
 11
3.068584868799916
 21
0.9982568397995237
 31
0.0
  0
LINE
  5
2D5B
  8
0
 10
2.946043956900211
 20
1.1350092709992621
 30
0.0
 11
2.9363270563007968
 21
1.13243443499914
 31
0.0
  0
LINE
  5
2D5C
  8
0
 10
3.0720937500000209
 20
0.9183796874990549
 30
0.0
 11
3.0712165296999951
 21
0.9607786627991573
 31
0.0
  0
LINE
  5
2D5D
  8
0
 10
2.9363270563007968
 20
1.13243443499914
 30
0.0
 11
2.9268800703998741
 21
1.1288296634993451
 31
0.0
  0
LINE
  5
2D5E
  8
0
 10
3.0712165296999951
 20
0.8752368701991599
 30
0.0
 11
3.0720937500000209
 21
0.9183796874990549
 31
0.0
  0
LINE
  5
2D5F
  8
0
 10
2.9268800703998741
 20
1.1288296634993451
 30
0.0
 11
2.9177029970005601
 21
1.1241949575996839
 31
0.0
  0
LINE
  5
2D60
  8
0
 10
3.068584868799916
 20
0.8371292885992716
 30
0.0
 11
3.0712165296999951
 21
0.8752368701991599
 31
0.0
  0
LINE
  5
2D61
  8
0
 10
2.9177029970005601
 20
1.1241949575996839
 30
0.0
 11
2.9087958382997381
 21
1.118530317299246
 31
0.0
  0
LINE
  5
2D62
  8
0
 10
3.0641987683998191
 20
0.8040569437994236
 30
0.0
 11
3.068584868799916
 21
0.8371292885992716
 31
0.0
  0
LINE
  5
2D63
  8
0
 10
2.9087958382997381
 20
1.118530317299246
 30
0.0
 11
2.9001585932001031
 21
1.1118357425991681
 31
0.0
  0
LINE
  5
2D64
  8
0
 10
3.0580582274005792
 20
0.7760198346993548
 30
0.0
 11
3.0641987683998191
 21
0.8040569437994236
 31
0.0
  0
LINE
  5
2D65
  8
0
 10
2.9001585932001031
 20
1.1118357425991681
 30
0.0
 11
2.8887547314998301
 21
1.098961559299368
 31
0.0
  0
LINE
  5
2D66
  8
0
 10
3.0501632458008312
 20
0.7530179612990651
 30
0.0
 11
3.0580582274005792
 21
0.7760198346993548
 31
0.0
  0
LINE
  5
2D67
  8
0
 10
2.8887547314998301
 20
1.098961559299368
 30
0.0
 11
2.8791053093000301
 21
1.0811665776991499
 31
0.0
  0
LINE
  5
2D68
  8
0
 10
3.0405138236001221
 20
0.7350513235994641
 30
0.0
 11
3.0501632458008312
 21
0.7530179612990651
 31
0.0
  0
LINE
  5
2D69
  8
0
 10
2.8791053093000301
 20
1.0811665776991499
 30
0.0
 11
2.8712103277002821
 21
1.058450796699389
 31
0.0
  0
LINE
  5
2D6A
  8
0
 10
3.029109960799814
 20
0.7221199215994149
 30
0.0
 11
3.0405138236001221
 21
0.7350513235994641
 31
0.0
  0
LINE
  5
2D6B
  8
0
 10
2.8712103277002821
 20
1.058450796699389
 30
0.0
 11
2.8650697867001318
 21
1.0308142184992439
 31
0.0
  0
LINE
  5
2D6C
  8
0
 10
3.0205401941002492
 20
0.7154253468993375
 30
0.0
 11
3.029109960799814
 21
0.7221199215994149
 31
0.0
  0
LINE
  5
2D6D
  8
0
 10
2.8650697867001318
 20
1.0308142184992439
 30
0.0
 11
2.860683685200001
 21
0.9982568397995237
 31
0.0
  0
LINE
  5
2D6E
  8
0
 10
3.01183547060009
 20
0.7097607065995817
 30
0.0
 11
3.0205401941002492
 21
0.7154253468993375
 31
0.0
  0
LINE
  5
2D6F
  8
0
 10
2.860683685200001
 20
0.9982568397995237
 30
0.0
 11
2.8580520253999562
 21
0.9607786627991573
 31
0.0
  0
LINE
  5
2D70
  8
0
 10
3.0029957902997921
 20
0.705126000699238
 30
0.0
 11
3.01183547060009
 21
0.7097607065995817
 31
0.0
  0
LINE
  5
2D71
  8
0
 10
2.8580520253999562
 20
0.9607786627991573
 30
0.0
 11
2.8571748050999299
 21
0.9183796874990549
 31
0.0
  0
LINE
  5
2D72
  8
0
 10
2.9940211532002641
 20
0.7015212291994432
 30
0.0
 11
3.0029957902997921
 21
0.705126000699238
 31
0.0
  0
LINE
  5
2D73
  8
0
 10
2.8571748050999299
 20
0.9183796874990549
 30
0.0
 11
2.8580520253999562
 21
0.8752368701991599
 31
0.0
  0
LINE
  5
2D74
  8
0
 10
2.984911559300599
 20
0.6989463931993214
 30
0.0
 11
2.9940211532002641
 21
0.7015212291994432
 31
0.0
  0
LINE
  5
2D75
  8
0
 10
2.8580520253999562
 20
0.8752368701991599
 30
0.0
 11
2.860683685200001
 21
0.8371292885992716
 31
0.0
  0
LINE
  5
2D76
  8
0
 10
2.9756670086003392
 20
0.6974014904994874
 30
0.0
 11
2.984911559300599
 21
0.6989463931993214
 31
0.0
  0
LINE
  5
2D77
  8
0
 10
2.860683685200001
 20
0.8371292885992716
 30
0.0
 11
2.8650697867001318
 21
0.8040569437994236
 31
0.0
  0
LINE
  5
2D78
  8
0
 10
2.9662875000003619
 20
0.6968865232993267
 30
0.0
 11
2.9756670086003392
 21
0.6974014904994874
 31
0.0
  0
LINE
  5
2D79
  8
0
 10
2.8650697867001318
 20
0.8040569437994236
 30
0.0
 11
2.8712103277002821
 21
0.7760198346993548
 31
0.0
  0
LINE
  5
2D7A
  8
0
 10
2.9560307722003918
 20
0.6974014904994874
 30
0.0
 11
2.9662875000003619
 21
0.6968865232993267
 31
0.0
  0
LINE
  5
2D7B
  8
0
 10
2.8712103277002821
 20
0.7760198346993548
 30
0.0
 11
2.8791053093000301
 21
0.7530179612990651
 31
0.0
  0
LINE
  5
2D7C
  8
0
 10
2.946043956900211
 20
0.6989463931993214
 30
0.0
 11
2.9560307722003918
 21
0.6974014904994874
 31
0.0
  0
LINE
  5
2D7D
  8
0
 10
2.8791053093000301
 20
0.7530179612990651
 30
0.0
 11
2.8887547314998301
 21
0.7350513235994641
 31
0.0
  0
LINE
  5
2D7E
  8
0
 10
2.9363270563007968
 20
0.7015212291994432
 30
0.0
 11
2.946043956900211
 21
0.6989463931993214
 31
0.0
  0
LINE
  5
2D7F
  8
0
 10
2.8887547314998301
 20
0.7350513235994641
 30
0.0
 11
2.9001585932001031
 21
0.7221199215994149
 31
0.0
  0
LINE
  5
2D80
  8
0
 10
2.9268800703998741
 20
0.705126000699238
 30
0.0
 11
2.9363270563007968
 21
0.7015212291994432
 31
0.0
  0
LINE
  5
2D81
  8
0
 10
2.9001585932001031
 20
0.7221199215994149
 30
0.0
 11
2.9087958382997381
 21
0.7154253468993375
 31
0.0
  0
LINE
  5
2D82
  8
0
 10
2.9177029970005601
 20
0.7097607065995817
 30
0.0
 11
2.9268800703998741
 21
0.705126000699238
 31
0.0
  0
LINE
  5
2D83
  8
0
 10
2.9087958382997381
 20
0.7154253468993375
 30
0.0
 11
2.9177029970005601
 21
0.7097607065995817
 31
0.0
  0
LINE
  5
2D84
  8
0
 10
2.7067412108003732
 20
1.1903396482994131
 30
0.0
 11
2.7067412108003732
 21
0.6436160158991698
 31
0.0
  0
LINE
  5
2D85
  8
0
 10
2.630692969300525
 20
1.1903396482994131
 30
0.0
 11
2.7067412108003732
 21
1.1903396482994131
 31
0.0
  0
LINE
  5
2D86
  8
0
 10
2.7067412108003732
 20
0.6436160158991698
 30
0.0
 11
2.630692969300525
 21
0.6436160158991698
 31
0.0
  0
LINE
  5
2D87
  8
0
 10
2.630692969300525
 20
0.9716501948992117
 30
0.0
 11
2.630692969300525
 21
1.1903396482994131
 31
0.0
  0
LINE
  5
2D88
  8
0
 10
2.630692969300525
 20
0.6436160158991698
 30
0.0
 11
2.630692969300525
 21
0.7809978516993397
 31
0.0
  0
LINE
  5
2D89
  8
0
 10
2.4422255858007702
 20
0.9716501948992117
 30
0.0
 11
2.630692969300525
 21
0.9716501948992117
 31
0.0
  0
LINE
  5
2D8A
  8
0
 10
2.630692969300525
 20
0.7809978516993397
 30
0.0
 11
2.630692969300525
 21
0.9183796874990549
 31
0.0
  0
LINE
  5
2D8B
  8
0
 10
2.4422255858007702
 20
1.1903396482994131
 30
0.0
 11
2.4422255858007702
 21
0.9716501948992117
 31
0.0
  0
LINE
  5
2D8C
  8
0
 10
2.630692969300525
 20
0.9183796874990549
 30
0.0
 11
2.4422255858007702
 21
0.9183796874990549
 31
0.0
  0
LINE
  5
2D8D
  8
0
 10
2.366177344300012
 20
1.1903396482994131
 30
0.0
 11
2.4422255858007702
 21
1.1903396482994131
 31
0.0
  0
LINE
  5
2D8E
  8
0
 10
2.4422255858007702
 20
0.9183796874990549
 30
0.0
 11
2.4422255858007702
 21
0.6436160158991698
 31
0.0
  0
LINE
  5
2D8F
  8
0
 10
2.366177344300012
 20
0.6436160158991698
 30
0.0
 11
2.366177344300012
 21
1.1903396482994131
 31
0.0
  0
LINE
  5
2D90
  8
0
 10
2.4422255858007702
 20
0.6436160158991698
 30
0.0
 11
2.366177344300012
 21
0.6436160158991698
 31
0.0
  0
LINE
  5
2D91
  8
0
 10
2.0702601557004519
 20
0.9856687499993768
 30
0.0
 11
2.090098828400186
 21
0.9715929761994175
 31
0.0
  0
LINE
  5
2D92
  8
0
 10
2.0579790736996979
 20
0.9953386915990449
 30
0.0
 11
2.0702601557004519
 21
0.9856687499993768
 31
0.0
  0
LINE
  5
2D93
  8
0
 10
2.090098828400186
 20
0.9715929761994175
 30
0.0
 11
2.1099374999998868
 21
0.9582038267994903
 31
0.0
  0
LINE
  5
2D94
  8
0
 10
2.0475873880004651
 20
1.0051230705994381
 30
0.0
 11
2.0579790736996979
 21
0.9953386915990449
 31
0.0
  0
LINE
  5
2D95
  8
0
 10
2.1099374999998868
 20
0.9582038267994903
 30
0.0
 11
2.129776171600497
 21
0.9455012995997549
 31
0.0
  0
LINE
  5
2D96
  8
0
 10
2.0390851008005479
 20
1.0150218869994201
 30
0.0
 11
2.0475873880004651
 21
1.0051230705994381
 31
0.0
  0
LINE
  5
2D97
  8
0
 10
2.129776171600497
 20
0.9455012995997549
 30
0.0
 11
2.1496148443002312
 21
0.9334853956993356
 31
0.0
  0
LINE
  5
2D98
  8
0
 10
5.2469999999998427
 20
0.0
 30
0.0
 11
5.2469999999998427
 21
5.2469999999998427
 31
0.0
  0
LINE
  5
2D99
  8
0
 10
0.0
 20
5.2469999999998427
 30
0.0
 11
0.0
 21
0.0
 31
0.0
  0
LINE
  5
2D9A
  8
0
 10
5.0984999999996026
 20
0.1484999999997854
 30
0.0
 11
5.0984999999996026
 21
5.0984999999996026
 31
0.0
  0
LINE
  5
2D9B
  8
0
 10
0.1484999999997854
 20
5.0984999999996026
 30
0.0
 11
0.1484999999997854
 21
0.1484999999997854
 31
0.0
  0
LINE
  5
2D9C
  8
0
 10
3.415500000000065
 20
4.6529999999988831
 30
0.0
 11
3.415500000000065
 21
2.276999999999588
 31
0.0
  0
ARC
  5
2D9D
  8
0
 10
2.4255000000002829
 20
3.266999999998915
 30
0.0
 40
0.692999999999999
 50
179.9999999999996
 51
0.0
  0
LINE
  5
2D9E
  8
0
 10
1.336499999999887
 20
4.6529999999988831
 30
0.0
 11
1.336499999999887
 21
0.6434999999992215
 31
0.0
  0
ENDBLK
  5
2DA0
  8
0
  0
BLOCK
  8
0
  2
_
 70
     0
 10
0.0
 20
0.0
 30
0.0
  3
_
  1

  0
ARC
  5
42F6
  8
002寸法
 10
-1.2990381056765721
 20
0.0
 30
0.0
 40
1.5
 50
30.000000000001251
 51
180.0
  0
ARC
  5
42F7
  8
002寸法
 10
1.299038105676743
 20
1.5
 30
0.0
 40
1.5
 50
209.9999999999998
 51
0.0
  0
ENDBLK
  5
42F5
  8
0
  0
BLOCK
  8
0
  2
_0
 70
     0
 10
0.0
 20
0.0
 30
0.0
  3
_0
  1

  0
POLYLINE
  5
4304
  8
002寸法
 66
     1
 10
0.0
 20
0.0
 30
0.0
 70
     1
  0
VERTEX
  5
5B2C
  8
002寸法
 10
0.0
 20
0.0
 30
0.0
  0
VERTEX
  5
5B2D
  8
002寸法
 10
1.5
 20
2.5980762113532592
 30
0.0
  0
VERTEX
  5
5B2E
  8
002寸法
 10
-1.5
 20
2.5980762113532592
 30
0.0
  0
SEQEND
  5
5B2F
  8
002寸法
  0
ENDBLK
  5
4303
  8
0
  0
BLOCK
  8
0
  2
__
 70
     0
 10
0.0
 20
0.0
 30
0.0
  3
__
  1

  0
POLYLINE
  5
431A
  8
002寸法
 66
     1
 10
0.0
 20
0.0
 30
0.0
 70
     1
  0
VERTEX
  5
5B32
  8
002寸法
 10
-1.4999999999999429
 20
0.0
 30
0.0
  0
VERTEX
  5
5B33
  8
002寸法
 10
0.0000000000000568
 20
2.5980762113532592
 30
0.0
  0
VERTEX
  5
5B34
  8
002寸法
 10
-2.9999999999999432
 20
2.5980762113532592
 30
0.0
  0
SEQEND
  5
5B35
  8
002寸法
  0
POLYLINE
  5
431B
  8
002寸法
 66
     1
 10
0.0
 20
0.0
 30
0.0
 70
     1
  0
VERTEX
  5
5B36
  8
002寸法
 10
1.500000000000056
 20
0.0
 30
0.0
  0
VERTEX
  5
5B37
  8
002寸法
 10
3.000000000000056
 20
2.5980762113532592
 30
0.0
  0
VERTEX
  5
5B38
  8
002寸法
 10
0.0000000000000568
 20
2.5980762113532592
 30
0.0
  0
SEQEND
  5
5B39
  8
002寸法
  0
ENDBLK
  5
4319
  8
0
  0
BLOCK
  8
0
  2
___
 70
     0
 10
0.0
 20
0.0
 30
0.0
  3
___
  1

  0
POLYLINE
  5
4332
  8
002寸法
 66
     1
 10
0.0
 20
0.0
 30
0.0
 70
     1
  0
VERTEX
  5
5B3C
  8
002寸法
 10
-3.0
 20
0.0
 30
0.0
  0
VERTEX
  5
5B3D
  8
002寸法
 10
-1.5
 20
2.5980762113532592
 30
0.0
  0
VERTEX
  5
5B3E
  8
002寸法
 10
-4.5
 20
2.5980762113532592
 30
0.0
  0
SEQEND
  5
5B3F
  8
002寸法
  0
POLYLINE
  5
4333
  8
002寸法
 66
     1
 10
0.0
 20
0.0
 30
0.0
 70
     1
  0
VERTEX
  5
5B40
  8
002寸法
 10
0.0
 20
0.0
 30
0.0
  0
VERTEX
  5
5B41
  8
002寸法
 10
1.5
 20
2.5980762113532592
 30
0.0
  0
VERTEX
  5
5B42
  8
002寸法
 10
-1.5
 20
2.5980762113532592
 30
0.0
  0
SEQEND
  5
5B43
  8
002寸法
  0
POLYLINE
  5
4334
  8
002寸法
 66
     1
 10
0.0
 20
0.0
 30
0.0
 70
     1
  0
VERTEX
  5
5B44
  8
002寸法
 10
3.0
 20
0.0
 30
0.0
  0
VERTEX
  5
5B45
  8
002寸法
 10
4.5
 20
2.5980762113532592
 30
0.0
  0
VERTEX
  5
5B46
  8
002寸法
 10
1.5
 20
2.5980762113532592
 30
0.0
  0
SEQEND
  5
5B47
  8
002寸法
  0
ENDBLK
  5
4331
  8
0
  0
BLOCK
  8
0
  2
____
 70
     0
 10
0.0
 20
0.0
 30
0.0
  3
____
  1

  0
POLYLINE
  5
4342
  8
002寸法
 66
     1
 10
0.0
 20
0.0
 30
0.0
 70
     1
  0
VERTEX
  5
5B4A
  8
002寸法
 10
-4.5
 20
0.0
 30
0.0
  0
VERTEX
  5
5B4B
  8
002寸法
 10
-3.0
 20
2.5980762113532592
 30
0.0
  0
VERTEX
  5
5B4C
  8
002寸法
 10
-6.0
 20
2.5980762113532592
 30
0.0
  0
SEQEND
  5
5B4D
  8
002寸法
  0
POLYLINE
  5
4343
  8
002寸法
 66
     1
 10
0.0
 20
0.0
 30
0.0
 70
     1
  0
VERTEX
  5
5B4E
  8
002寸法
 10
-1.5
 20
0.0
 30
0.0
  0
VERTEX
  5
5B4F
  8
002寸法
 10
0.0
 20
2.5980762113532592
 30
0.0
  0
VERTEX
  5
5B50
  8
002寸法
 10
-3.0
 20
2.5980762113532592
 30
0.0
  0
SEQEND
  5
5B51
  8
002寸法
  0
POLYLINE
  5
4344
  8
002寸法
 66
     1
 10
0.0
 20
0.0
 30
0.0
 70
     1
  0
VERTEX
  5
5B52
  8
002寸法
 10
1.5
 20
0.0
 30
0.0
  0
VERTEX
  5
5B53
  8
002寸法
 10
3.0
 20
2.5980762113532592
 30
0.0
  0
VERTEX
  5
5B54
  8
002寸法
 10
0.0
 20
2.5980762113532592
 30
0.0
  0
SEQEND
  5
5B55
  8
002寸法
  0
POLYLINE
  5
4345
  8
002寸法
 66
     1
 10
0.0
 20
0.0
 30
0.0
 70
     1
  0
VERTEX
  5
5B56
  8
002寸法
 10
4.5
 20
0.0
 30
0.0
  0
VERTEX
  5
5B57
  8
002寸法
 10
6.0
 20
2.5980762113532592
 30
0.0
  0
VERTEX
  5
5B58
  8
002寸法
 10
3.0
 20
2.5980762113532592
 30
0.0
  0
SEQEND
  5
5B59
  8
002寸法
  0
ENDBLK
  5
4341
  8
0
  0
BLOCK
  8
0
  2
___G
 70
     0
 10
0.0
 20
0.0
 30
0.0
  3
___G
  1

  0
POLYLINE
  5
4354
  8
002寸法
 66
     1
 10
0.0
 20
0.0
 30
0.0
 70
     1
  0
VERTEX
  5
5B5C
  8
002寸法
 10
-3.0
 20
0.0
 30
0.0
  0
VERTEX
  5
5B5D
  8
002寸法
 10
-1.5
 20
2.5980762113532592
 30
0.0
  0
VERTEX
  5
5B5E
  8
002寸法
 10
-4.5
 20
2.5980762113532592
 30
0.0
  0
SEQEND
  5
5B5F
  8
002寸法
  0
POLYLINE
  5
4355
  8
002寸法
 66
     1
 10
0.0
 20
0.0
 30
0.0
 70
     1
  0
VERTEX
  5
5B60
  8
002寸法
 10
0.0
 20
0.0
 30
0.0
  0
VERTEX
  5
5B61
  8
002寸法
 10
1.5
 20
2.5980762113532592
 30
0.0
  0
VERTEX
  5
5B62
  8
002寸法
 10
-1.5
 20
2.5980762113532592
 30
0.0
  0
SEQEND
  5
5B63
  8
002寸法
  0
POLYLINE
  5
4356
  8
002寸法
 66
     1
 10
0.0
 20
0.0
 30
0.0
 70
     1
  0
VERTEX
  5
5B64
  8
002寸法
 10
3.0
 20
0.0
 30
0.0
  0
VERTEX
  5
5B65
  8
002寸法
 10
4.5
 20
2.5980762113532592
 30
0.0
  0
VERTEX
  5
5B66
  8
002寸法
 10
1.5
 20
2.5980762113532592
 30
0.0
  0
SEQEND
  5
5B67
  8
002寸法
  0
LINE
  5
4357
  8
002寸法
 10
4.5
 20
2.5980762113532592
 30
0.0
 11
7.0
 21
6.9282032302754706
 31
0.0
  0
LINE
  5
4358
  8
002寸法
 10
7.0
 20
6.9282032302754706
 30
0.0
 11
10.0
 21
6.9282032302754706
 31
0.0
  0
INSERT
  5
4359
  8
011形状
  2
*U24
 10
0.0
 20
0.0
 30
0.0
  0
ENDBLK
  5
4353
  8
0
  0
BLOCK
  8
0
  2
_TAGCIRCLE
 70
     2
 10
0.0
 20
0.0
 30
0.0
  3
_TAGCIRCLE
  1

  0
CIRCLE
  5
4422
  8
0
  6
BYBLOCK
 10
0.0
 20
0.0
 30
0.0
 40
4.0
  0
ATTDEF
  5
4423
  8
002寸法
 62
     2
 10
-6.7999999999999989
 20
-1.5
 30
0.0
 40
3.0
  1
タグ番号
 72
     1
 11
0.0
 21
-1.5
 31
0.0
  3
タグ番号を入力
  2
タグ番号
 70
     0
  0
ENDBLK
  5
43E5
  8
0
  0
BLOCK
  8
0
  2
訂正記号
 70
     2
 10
0.0
 20
0.0
 30
0.0
  3
訂正記号
  1

  0
POLYLINE
  5
45CE
  8
002寸法
 66
     1
 10
0.0
 20
0.0
 30
0.0
 70
     1
  0
VERTEX
  5
5B72
  8
002寸法
 10
0.0
 20
4.3301270189222123
 30
0.0
  0
VERTEX
  5
5B73
  8
002寸法
 10
-2.5
 20
0.0
 30
0.0
  0
VERTEX
  5
5B74
  8
002寸法
 10
2.5
 20
0.0
 30
0.0
  0
SEQEND
  5
5B75
  8
002寸法
  0
ATTDEF
  5
45CF
  8
002寸法
 62
     2
 10
-3.3999999999999999
 20
0.4433756729740637
 30
0.0
 40
2.0
  1
1
 41
0.75
 72
     1
 11
0.0
 21
1.443375672974063
 31
0.0
  3

  2
訂正番号
 70
     0
 74
     2
1001
AcDbAttr
1070
     0
1070
     1
  0
ENDBLK
  5
4475
  8
0
  0
BLOCK
  8
0
  2
A$C4741278F
 70
     0
 10
0.0
 20
0.0
 30
0.0
  3
A$C4741278F
  1

  0
POLYLINE
  5
4FCA
  8
003注釈
 66
     1
 10
0.0
 20
0.0
 30
0.0
 70
     1
  0
VERTEX
  5
5B9A
  8
003注釈
 10
4.9999975654500304
 20
1.250001047003934
 30
0.0
  0
VERTEX
  5
5B9B
  8
003注釈
 10
2.499997565450037
 20
1.250001047003934
 30
0.0
  0
VERTEX
  5
5B9C
  8
003注釈
 10
2.499997565450037
 20
0.0000010470039342
 30
0.0
  0
VERTEX
  5
5B9D
  8
003注釈
 10
-0.0000024345499625
 20
2.5000010470039342
 30
0.0
  0
VERTEX
  5
5B9E
  8
003注釈
 10
2.499997565450037
 20
5.0000010470039342
 30
0.0
  0
VERTEX
  5
5B9F
  8
003注釈
 10
2.499997565450037
 20
3.7500010470039342
 30
0.0
  0
VERTEX
  5
5BA0
  8
003注釈
 10
4.9999975654500304
 20
3.7500010470039622
 30
0.0
  0
SEQEND
  5
5BA1
  8
003注釈
  0
LINE
  5
4FCB
  8
0
 10
-0.0000024345499625
 20
2.5000010470039342
 30
0.0
 11
4.9999975654500304
 21
2.5000010470039342
 31
0.0
  0
LINE
  5
4FCC
  8
0
 10
2.499997565450037
 20
3.7500010470039342
 30
0.0
 11
2.499997565450037
 21
1.250001047003934
 31
0.0
  0
ENDBLK
  5
4FD0
  8
0
  0
BLOCK
  8
0
  2
*D12
 70
     1
 10
0.0
 20
0.0
 30
0.0
  3
*D12
  1

  0
LINE
  5
579D
  8
002寸法
 10
773.5
 20
167.5
 30
0.0
 11
788.75
 21
167.5
 31
0.0
  0
LINE
  5
579E
  8
002寸法
 10
773.5
 20
207.5
 30
0.0
 11
788.75
 21
207.5
 31
0.0
  0
LINE
  5
579F
  8
002寸法
 10
788.0
 20
170.0
 30
0.0
 11
788.0
 21
205.0
 31
0.0
  0
INSERT
  5
57A0
  8
002寸法
  2
_OPEN
 10
788.0
 20
167.5
 30
0.0
 41
2.5
 42
2.5
 43
2.5
 50
270.0
  0
INSERT
  5
57A1
  8
002寸法
  2
_OPEN
 10
788.0
 20
207.5
 30
0.0
 41
2.5
 42
2.5
 43
2.5
 50
90.0
  0
INSERT
  5
57A2
  8
011形状
  2
*U34
 10
0.0
 20
0.0
 30
0.0
  0
POINT
  5
57A3
  8
DEFPOINTS
 62
     0
 10
773.0
 20
167.5
 30
0.0
  0
POINT
  5
57A4
  8
DEFPOINTS
 62
     0
 10
773.0
 20
207.5
 30
0.0
  0
POINT
  5
57A5
  8
DEFPOINTS
 62
     0
 10
788.0
 20
207.5
 30
0.0
  0
ENDBLK
  5
5792
  8
0
  0
BLOCK
  8
0
  2
*D13
 70
     1
 10
0.0
 20
0.0
 30
0.0
  3
*D13
  1

  0
LINE
  5
57B5
  8
002寸法
 10
729.49999999999989
 20
130.0
 30
0.0
 11
798.74999999999989
 21
130.0
 31
0.0
  0
LINE
  5
57B6
  8
002寸法
 10
773.5
 20
187.5
 30
0.0
 11
798.74999999999989
 21
187.5
 31
0.0
  0
LINE
  5
57B7
  8
002寸法
 10
798.0
 20
132.5
 30
0.0
 11
798.0
 21
185.0
 31
0.0
  0
INSERT
  5
57B8
  8
002寸法
  2
_OPEN
 10
798.0
 20
130.0
 30
0.0
 41
2.5
 42
2.5
 43
2.5
 50
270.0
  0
INSERT
  5
57B9
  8
002寸法
  2
_OPEN
 10
798.0
 20
187.5
 30
0.0
 41
2.5
 42
2.5
 43
2.5
 50
90.0
  0
INSERT
  5
57BA
  8
011形状
  2
*U35
 10
0.0
 20
0.0
 30
0.0
  0
POINT
  5
57BB
  8
DEFPOINTS
 62
     0
 10
729.0
 20
130.0
 30
0.0
  0
POINT
  5
57BC
  8
DEFPOINTS
 62
     0
 10
773.0
 20
187.5
 30
0.0
  0
POINT
  5
57BD
  8
DEFPOINTS
 62
     0
 10
798.0
 20
187.5
 30
0.0
  0
ENDBLK
  5
57AA
  8
0
  0
BLOCK
  8
0
  2
*D14
 70
     1
 10
0.0
 20
0.0
 30
0.0
  3
*D14
  1

  0
LINE
  5
57CD
  8
002寸法
 10
704.0
 20
236.5
 30
0.0
 11
704.0
 21
246.75
 31
0.0
  0
LINE
  5
57CE
  8
002寸法
 10
773.0
 20
208.0
 30
0.0
 11
773.0
 21
246.75
 31
0.0
  0
LINE
  5
57CF
  8
002寸法
 10
706.5
 20
246.0
 30
0.0
 11
770.5
 21
246.0
 31
0.0
  0
INSERT
  5
57D0
  8
002寸法
  2
_OPEN
 10
704.0
 20
246.0
 30
0.0
 41
2.5
 42
2.5
 43
2.5
 50
180.0
  0
INSERT
  5
57D1
  8
002寸法
  2
_OPEN
 10
773.0
 20
246.0
 30
0.0
 41
2.5
 42
2.5
 43
2.5
  0
INSERT
  5
57D2
  8
011形状
  2
*U36
 10
0.0
 20
0.0
 30
0.0
  0
POINT
  5
57D3
  8
DEFPOINTS
 62
     0
 10
704.0
 20
236.0
 30
0.1
  0
POINT
  5
57D4
  8
DEFPOINTS
 62
     0
 10
773.0
 20
207.5
 30
0.0
  0
POINT
  5
57D5
  8
DEFPOINTS
 62
     0
 10
773.0
 20
246.0
 30
0.0
  0
ENDBLK
  5
57C2
  8
0
  0
BLOCK
  8
0
  2
*D15
 70
     1
 10
0.0
 20
0.0
 30
0.0
  3
*D15
  1

  0
LINE
  5
5831
  8
002寸法
 10
910.0
 20
236.5
 30
0.0
 11
910.0
 21
246.75
 31
0.0
  0
LINE
  5
5832
  8
002寸法
 10
928.0
 20
236.5
 30
0.0
 11
928.0
 21
246.75
 31
0.0
  0
LINE
  5
5833
  8
002寸法
 10
912.5
 20
246.0
 30
0.0
 11
925.5
 21
246.0
 31
0.0
  0
INSERT
  5
5834
  8
002寸法
  2
_OPEN
 10
910.0
 20
246.0
 30
0.0
 41
2.5
 42
2.5
 43
2.5
 50
180.0
  0
INSERT
  5
5835
  8
002寸法
  2
_OPEN
 10
928.0
 20
246.0
 30
0.0
 41
2.5
 42
2.5
 43
2.5
  0
INSERT
  5
5836
  8
011形状
  2
*U39
 10
0.0
 20
0.0
 30
0.0
  0
POINT
  5
5837
  8
DEFPOINTS
 62
     0
 10
910.0
 20
236.0
 30
0.0
  0
POINT
  5
5838
  8
DEFPOINTS
 62
     0
 10
928.0
 20
236.0
 30
0.0
  0
POINT
  5
5839
  8
DEFPOINTS
 62
     0
 10
928.0
 20
246.0
 30
0.0
  0
ENDBLK
  5
57DA
  8
0
  0
BLOCK
  8
0
  2
*D16
 70
     1
 10
0.0
 20
0.0
 30
0.0
  3
*D16
  1

  0
LINE
  5
5828
  8
002寸法
 10
894.0
 20
129.5
 30
0.0
 11
894.0
 21
114.25
 31
0.0
  0
LINE
  5
5829
  8
002寸法
 10
944.0
 20
129.5
 30
0.0
 11
944.0
 21
114.25
 31
0.0
  0
LINE
  5
582A
  8
002寸法
 10
896.49999999999989
 20
115.0
 30
0.0
 11
941.5
 21
115.0
 31
0.0
  0
INSERT
  5
582B
  8
002寸法
  2
_OPEN
 10
894.0
 20
115.0
 30
0.0
 41
2.5
 42
2.5
 43
2.5
 50
180.0
  0
INSERT
  5
582C
  8
002寸法
  2
_OPEN
 10
944.0
 20
115.0
 30
0.0
 41
2.5
 42
2.5
 43
2.5
  0
INSERT
  5
582D
  8
011形状
  2
*U38
 10
0.0
 20
0.0
 30
0.0
  0
POINT
  5
582E
  8
DEFPOINTS
 62
     0
 10
894.0
 20
130.0
 30
0.0
  0
POINT
  5
582F
  8
DEFPOINTS
 62
     0
 10
944.0
 20
130.0
 30
0.0
  0
POINT
  5
5830
  8
DEFPOINTS
 62
     0
 10
944.0
 20
115.0
 30
0.0
  0
ENDBLK
  5
57F2
  8
0
  0
BLOCK
  8
0
  2
*D17
 70
     1
 10
0.0
 20
0.0
 30
0.0
  3
*D17
  1

  0
LINE
  5
581F
  8
002寸法
 10
875.0
 20
131.5
 30
0.0
 11
875.0
 21
104.25
 31
0.0
  0
LINE
  5
5820
  8
002寸法
 10
963.0
 20
131.5
 30
0.0
 11
963.0
 21
104.25
 31
0.0
  0
LINE
  5
5821
  8
002寸法
 10
877.5
 20
105.0
 30
0.0
 11
960.5
 21
105.0
 31
0.0
  0
INSERT
  5
5822
  8
002寸法
  2
_OPEN
 10
875.0
 20
105.0
 30
0.0
 41
2.5
 42
2.5
 43
2.5
 50
180.0
  0
INSERT
  5
5823
  8
002寸法
  2
_OPEN
 10
963.0
 20
105.0
 30
0.0
 41
2.5
 42
2.5
 43
2.5
  0
INSERT
  5
5824
  8
011形状
  2
*U37
 10
0.0
 20
0.0
 30
0.0
  0
POINT
  5
5825
  8
DEFPOINTS
 62
     0
 10
875.0
 20
132.0
 30
0.0
  0
POINT
  5
5826
  8
DEFPOINTS
 62
     0
 10
963.0
 20
132.0
 30
0.0
  0
POINT
  5
5827
  8
DEFPOINTS
 62
     0
 10
963.0
 20
105.0
 30
0.0
  0
ENDBLK
  5
580A
  8
0
  0
BLOCK
  8
0
  2
*D18
 70
     1
 10
0.0
 20
0.0
 30
0.0
  3
*D18
  1

  0
LINE
  5
5848
  8
002寸法
 10
944.5
 20
130.0
 30
0.0
 11
978.74999999999989
 21
130.0
 31
0.0
  0
LINE
  5
5849
  8
002寸法
 10
957.0
 20
234.0
 30
0.0
 11
978.74999999999989
 21
234.0
 31
0.0
  0
LINE
  5
584A
  8
002寸法
 10
978.0
 20
132.49999999999989
 30
0.0
 11
978.0
 21
231.5
 31
0.0
  0
INSERT
  5
584B
  8
002寸法
  2
_OPEN
 10
978.0
 20
130.0
 30
0.0
 41
2.5
 42
2.5
 43
2.5
 50
270.0
  0
INSERT
  5
584C
  8
002寸法
  2
_OPEN
 10
978.0
 20
234.0
 30
0.0
 41
2.5
 42
2.5
 43
2.5
 50
90.0
  0
INSERT
  5
584D
  8
011形状
  2
*U40
 10
0.0
 20
0.0
 30
0.0
  0
POINT
  5
584E
  8
DEFPOINTS
 62
     0
 10
944.0
 20
130.0
 30
0.0
  0
POINT
  5
584F
  8
DEFPOINTS
 62
     0
 10
956.49999999999989
 20
234.0
 30
0.0
  0
POINT
  5
5850
  8
DEFPOINTS
 62
     0
 10
978.0
 20
234.0
 30
0.0
  0
ENDBLK
  5
583D
  8
0
  0
BLOCK
  8
0
  2
*D19
 70
     1
 10
0.0
 20
0.0
 30
0.0
  3
*D19
  1

  0
LINE
  5
5860
  8
002寸法
 10
944.5
 20
130.0
 30
0.0
 11
988.75000000000011
 21
130.0
 31
0.0
  0
LINE
  5
5861
  8
002寸法
 10
928.5
 20
236.0
 30
0.0
 11
988.75000000000011
 21
236.0
 31
0.0
  0
LINE
  5
5862
  8
002寸法
 10
988.0
 20
132.49999999999989
 30
0.0
 11
988.0
 21
233.5
 31
0.0
  0
INSERT
  5
5863
  8
002寸法
  2
_OPEN
 10
988.0
 20
130.0
 30
0.0
 41
2.5
 42
2.5
 43
2.5
 50
270.0
  0
INSERT
  5
5864
  8
002寸法
  2
_OPEN
 10
988.0
 20
236.0
 30
0.0
 41
2.5
 42
2.5
 43
2.5
 50
90.0
  0
INSERT
  5
5865
  8
011形状
  2
*U41
 10
0.0
 20
0.0
 30
0.0
  0
POINT
  5
5866
  8
DEFPOINTS
 62
     0
 10
944.0
 20
130.0
 30
0.0
  0
POINT
  5
5867
  8
DEFPOINTS
 62
     0
 10
928.0
 20
236.0
 30
0.0
  0
POINT
  5
5868
  8
DEFPOINTS
 62
     0
 10
988.0
 20
236.0
 30
0.0
  0
ENDBLK
  5
5855
  8
0
  0
BLOCK
  8
0
  2
*D20
 70
     1
 10
0.0
 20
0.0
 30
0.0
  3
*D20
  1

  0
LINE
  5
58B5
  8
002寸法
 10
852.0
 20
196.5
 30
0.0
 11
852.0
 21
213.25
 31
0.0
  0
LINE
  5
58B6
  8
002寸法
 10
884.0
 20
206.0
 30
0.0
 11
884.0
 21
213.25
 31
0.0
  0
LINE
  5
58B7
  8
002寸法
 10
854.49999999999989
 20
212.5
 30
0.0
 11
881.49999999999989
 21
212.5
 31
0.0
  0
INSERT
  5
58B8
  8
002寸法
  2
_OPEN
 10
852.0
 20
212.5
 30
0.0
 41
2.5
 42
2.5
 43
2.5
 50
180.0
  0
INSERT
  5
58B9
  8
002寸法
  2
_OPEN
 10
884.0
 20
212.5
 30
0.0
 41
2.5
 42
2.5
 43
2.5
  0
INSERT
  5
58BA
  8
011形状
  2
*U42
 10
0.0
 20
0.0
 30
0.0
  0
POINT
  5
58BB
  8
DEFPOINTS
 62
     0
 10
852.0
 20
196.0
 30
0.0
  0
POINT
  5
58BC
  8
DEFPOINTS
 62
     0
 10
884.0
 20
205.5
 30
0.0
  0
POINT
  5
58BD
  8
DEFPOINTS
 62
     0
 10
884.0
 20
212.5
 30
0.0
  0
ENDBLK
  5
586D
  8
0
  0
BLOCK
  8
0
  2
*D21
 70
     1
 10
0.0
 20
0.0
 30
0.0
  3
*D21
  1

  0
LINE
  5
5BE6
  8
002寸法
 10
884.0
 20
206.0
 30
0.0
 11
884.0
 21
213.25
 31
0.0
  0
LINE
  5
5BE7
  8
002寸法
 10
954.0
 20
206.0
 30
0.0
 11
954.0
 21
213.25
 31
0.0
  0
LINE
  5
5BE8
  8
002寸法
 10
886.5
 20
212.5
 30
0.0
 11
951.5
 21
212.5
 31
0.0
  0
TEXT
  8
002寸法
  40
3
  5
5C19
  62
2
  72
0
  71
0
 10
914.000
 20
210.600
 30
0.000000
  1
70
  0
INSERT
  5
5BEA
  8
002寸法
  2
_OPEN
 10
884.0
 20
212.5
 30
0.0
 41
2.5
 42
2.5
 43
2.5
 50
180.0
  0
INSERT
  5
5BEB
  8
002寸法
  2
_OPEN
 10
954.0
 20
212.5
 30
0.0
 41
2.5
 42
2.5
 43
2.5
  0
POINT
  5
5BEC
  8
DEFPOINTS
 62
     0
 10
884.0
 20
205.5
 30
0.0
  0
POINT
  5
5BED
  8
DEFPOINTS
 62
     0
 10
954.0
 20
205.5
 30
0.0
  0
POINT
  5
5BEE
  8
DEFPOINTS
 62
     0
 10
954.0
 20
212.5
 30
0.0
  0
ENDBLK
  5
5885
  8
0
  0
BLOCK
  8
0
  2
*D22
 70
     1
 10
0.0
 20
0.0
 30
0.0
  3
*D22
  1

  0
LINE
  5
595B
  8
002寸法
 10
721.23413567771365
 20
26.961156890828779
 30
0.0
 11
686.76586432228635
 21
33.038843109171268
 31
0.0
  0
LINE
  5
595C
  8
002寸法
 10
684.30384493975589
 20
33.472963553338587
 30
0.0
 11
638.80572675059182
 21
41.495509361550653
 31
0.0
  0
INSERT
  5
595D
  8
002寸法
  2
_OPEN
 10
723.69615506024434
 20
26.527036446661459
 30
0.0
 41
2.5
 42
2.5
 43
2.5
 50
350.00000000000023
  0
INSERT
  5
595E
  8
002寸法
  2
_OPEN
 10
684.30384493975589
 20
33.472963553338587
 30
0.0
 41
2.5
 42
2.5
 43
2.5
 50
170.00000000000011
  0
INSERT
  5
595F
  8
011形状
  2
*U45
 10
0.0
 20
0.0
 30
0.0
  0
POINT
  5
5960
  8
DEFPOINTS
 62
     0
 10
684.30384493975589
 20
33.472963553338587
 30
0.0
  0
POINT
  5
5961
  8
DEFPOINTS
 62
     0
 10
723.69615506024434
 20
26.527036446661459
 30
0.0
  0
ENDBLK
  5
58EF
  8
0
  0
BLOCK
  8
0
  2
*U23
 70
     1
 10
0.0
 20
0.0
 30
0.0
  3
*U23
  1

  0
SOLID
  5
59E9
  8
DEFPOINTS
  6
CONTINUOUS
 10
939.34900241109563
 20
16.283760850976019
 30
0.0
 11
939.34900241109563
 21
16.064310850975971
 31
0.0
 12
942.70196741109601
 22
16.064310850975971
 32
0.0
 13
942.70196741109601
 23
16.064310850975971
 33
0.0
210
0.0
220
0.0
230
1.0
  0
SOLID
  5
59EA
  8
DEFPOINTS
  6
CONTINUOUS
 10
-939.34900241109563
 20
16.283760850976019
 30
0.0
 11
-942.70196741109623
 21
16.283760850976019
 31
0.0
 12
-942.70196741109601
 22
16.064310850975971
 32
0.0
 13
-942.70196741109601
 23
16.064310850975971
 33
0.0
210
0.0
220
0.0
230
-1.0
  0
SOLID
  5
59EB
  8
DEFPOINTS
  6
CONTINUOUS
 10
934.61869991109506
 20
16.283760850976019
 30
0.0
 11
934.61869991109506
 21
16.064310850975971
 31
0.0
 12
935.9261599110954
 22
16.064310850975971
 32
0.0
 13
935.9261599110954
 23
16.064310850975971
 33
0.0
  0
SOLID
  5
59EC
  8
DEFPOINTS
  6
CONTINUOUS
 10
-934.61869991109506
 20
16.283760850976019
 30
0.0
 11
-935.9261599110954
 21
16.283760850976019
 31
0.0
 12
-935.9261599110954
 22
16.064310850975971
 32
0.0
 13
-935.9261599110954
 23
16.064310850975971
 33
0.0
210
0.0
220
0.0
230
-1.0
  0
SOLID
  5
59ED
  8
DEFPOINTS
  6
CONTINUOUS
 10
933.63579491109522
 20
16.283760850976019
 30
0.0
 11
933.63579491109601
 21
16.064310850975971
 31
0.0
 12
934.50781991109568
 22
16.064310850975971
 32
0.0
 13
934.50781991109568
 23
16.064310850975971
 33
0.0
210
0.0
220
0.0
230
1.0
  0
SOLID
  5
59EE
  8
DEFPOINTS
  6
CONTINUOUS
 10
-933.63579491109522
 20
16.283760850976019
 30
0.0
 11
-934.50781991109545
 21
16.283760850976019
 31
0.0
 12
-934.50781991109568
 22
16.064310850975971
 32
0.0
 13
-934.50781991109568
 23
16.064310850975971
 33
0.0
210
0.0
220
0.0
230
-1.0
  0
SOLID
  5
59EF
  8
DEFPOINTS
  6
CONTINUOUS
 10
929.66549483009544
 20
16.283760850976019
 30
0.0
 11
929.66549483009544
 21
16.064310850975971
 31
0.0
 12
931.67288483009543
 22
16.064310850975971
 32
0.0
 13
931.67288483009543
 23
16.064310850975971
 33
0.0
  0
SOLID
  5
59F0
  8
DEFPOINTS
  6
CONTINUOUS
 10
-929.66549483009544
 20
16.283760850976019
 30
0.0
 11
-931.67288483009543
 21
16.283760850976019
 31
0.0
 12
-931.67288483009543
 22
16.064310850975971
 32
0.0
 13
-931.67288483009543
 23
16.064310850975971
 33
0.0
210
0.0
220
0.0
230
-1.0
  0
SOLID
  5
59F1
  8
DEFPOINTS
  6
CONTINUOUS
 10
928.08429983009535
 20
16.283760850976019
 30
0.0
 11
928.08429983009535
 21
16.064310850975971
 31
0.0
 12
929.53728983009569
 22
16.064310850975971
 32
0.0
 13
929.53728983009569
 23
16.064310850975971
 33
0.0
210
0.0
220
0.0
230
1.0
  0
SOLID
  5
59F2
  8
DEFPOINTS
  6
CONTINUOUS
 10
-928.08429983009535
 20
16.283760850976019
 30
0.0
 11
-929.53728983009523
 21
16.283760850976019
 31
0.0
 12
-929.53728983009569
 22
16.064310850975971
 32
0.0
 13
-929.53728983009569
 23
16.064310850975971
 33
0.0
210
0.0
220
0.0
230
-1.0
  0
SOLID
  5
59F3
  8
DEFPOINTS
  6
CONTINUOUS
 10
924.13187741109505
 20
16.283760850976019
 30
0.0
 11
924.13187741109505
 21
16.064310850975971
 31
0.0
 12
926.15601491109555
 22
16.064310850975971
 32
0.0
 13
926.15601491109555
 23
16.064310850975971
 33
0.0
210
0.0
220
0.0
230
1.0
  0
SOLID
  5
59F4
  8
DEFPOINTS
  6
CONTINUOUS
 10
-924.13187741109505
 20
16.283760850976019
 30
0.0
 11
-926.15601491109555
 21
16.283760850976019
 31
0.0
 12
-926.15601491109555
 22
16.064310850975971
 32
0.0
 13
-926.15601491109555
 23
16.064310850975971
 33
0.0
210
0.0
220
0.0
230
-1.0
  0
SOLID
  5
59F5
  8
DEFPOINTS
  6
CONTINUOUS
 10
922.59572741109548
 20
16.283760850976019
 30
0.0
 11
922.59572741109548
 21
16.064310850975971
 31
0.0
 12
923.99327741109585
 22
16.064310850975971
 32
0.0
 13
923.99327741109585
 23
16.064310850975971
 33
0.0
210
0.0
220
0.0
230
1.0
  0
SOLID
  5
59F6
  8
DEFPOINTS
  6
CONTINUOUS
 10
-922.59572741109548
 20
16.283760850976019
 30
0.0
 11
-923.99327741109585
 21
16.283760850976019
 31
0.0
 12
-923.99327741109585
 22
16.064310850975971
 32
0.0
 13
-923.99327741109585
 23
16.064310850975971
 33
0.0
210
0.0
220
0.0
230
-1.0
  0
SOLID
  5
59F7
  8
DEFPOINTS
  6
CONTINUOUS
 10
942.0182074110952
 20
16.064310850975971
 30
0.0
 11
942.0182074110952
 21
15.859298350976131
 31
0.0
 12
942.70196741109578
 22
15.859298350976131
 32
0.0
 13
942.70196741109578
 23
15.859298350976131
 33
0.0
210
0.0
220
0.0
230
1.0
  0
SOLID
  5
59F8
  8
DEFPOINTS
  6
CONTINUOUS
 10
-942.0182074110952
 20
16.064310850975971
 30
0.0
 11
-942.70196741109601
 21
16.064310850975971
 31
0.0
 12
-942.70196741109578
 22
15.859298350976131
 32
0.0
 13
-942.70196741109578
 23
15.859298350976131
 33
0.0
210
0.0
220
0.0
230
-1.0
  0
SOLID
  5
59F9
  8
DEFPOINTS
  6
CONTINUOUS
 10
940.68533741109513
 20
16.064310850975971
 30
0.0
 11
940.68533741109513
 21
15.859298350976131
 31
0.0
 12
941.32636241109594
 22
15.859298350976131
 32
0.0
 13
941.32636241109594
 23
15.859298350976131
 33
0.0
210
0.0
220
0.0
230
1.0
  0
SOLID
  5
59FA
  8
DEFPOINTS
  6
CONTINUOUS
 10
-940.68533741109513
 20
16.064310850975971
 30
0.0
 11
-941.32636241109503
 21
16.064310850975971
 31
0.0
 12
-941.32636241109594
 22
15.859298350976131
 32
0.0
 13
-941.32636241109594
 23
15.859298350976131
 33
0.0
210
0.0
220
0.0
230
-1.0
  0
SOLID
  5
59FB
  8
DEFPOINTS
  6
CONTINUOUS
 10
939.34900241109563
 20
16.064310850975971
 30
0.0
 11
939.34900241109563
 21
15.859298350976131
 31
0.0
 12
940.02814241109616
 22
15.859298350976131
 32
0.0
 13
940.02814241109616
 23
15.859298350976131
 33
0.0
  0
SOLID
  5
59FC
  8
DEFPOINTS
  6
CONTINUOUS
 10
-939.34900241109563
 20
16.064310850975971
 30
0.0
 11
-940.02814241109616
 21
16.064310850975971
 31
0.0
 12
-940.02814241109616
 22
15.859298350976131
 32
0.0
 13
-940.02814241109616
 23
15.859298350976131
 33
0.0
210
0.0
220
0.0
230
-1.0
  0
SOLID
  5
59FD
  8
DEFPOINTS
  6
CONTINUOUS
 10
935.38677491109593
 20
16.064310850975971
 30
0.0
 11
935.38677491109593
 21
15.73282585097604
 31
0.0
 12
935.9261599110954
 22
15.73282585097604
 32
0.0
 13
935.9261599110954
 23
15.73282585097604
 33
0.0
210
0.0
220
0.0
230
1.0
  0
SOLID
  5
59FE
  8
DEFPOINTS
  6
CONTINUOUS
 10
-935.38677491109593
 20
16.064310850975971
 30
0.0
 11
-935.9261599110954
 21
16.064310850975971
 31
0.0
 12
-935.9261599110954
 22
15.73282585097604
 32
0.0
 13
-935.9261599110954
 23
15.73282585097604
 33
0.0
210
0.0
220
0.0
230
-1.0
  0
SOLID
  5
59FF
  8
DEFPOINTS
  6
CONTINUOUS
 10
934.61869991109506
 20
16.064310850975971
 30
0.0
 11
934.61869991109506
 21
15.73282585097604
 31
0.0
 12
935.17425491109589
 22
15.73282585097604
 32
0.0
 13
935.17425491109589
 23
15.73282585097604
 33
0.0
210
0.0
220
0.0
230
1.0
  0
SOLID
  5
5A00
  8
DEFPOINTS
  6
CONTINUOUS
 10
-934.61869991109506
 20
16.064310850975971
 30
0.0
 11
-935.1742549110952
 21
16.064310850975971
 31
0.0
 12
-935.17425491109589
 22
15.73282585097604
 32
0.0
 13
-935.17425491109589
 23
15.73282585097604
 33
0.0
210
0.0
220
0.0
230
-1.0
  0
SOLID
  5
5A01
  8
DEFPOINTS
  6
CONTINUOUS
 10
928.55438483009505
 20
16.064310850975971
 30
0.0
 11
928.55438483009596
 21
15.73282585097604
 31
0.0
 12
929.17808483009549
 22
15.73282585097604
 32
0.0
 13
929.17808483009549
 23
15.73282585097604
 33
0.0
210
0.0
220
0.0
230
1.0
  0
SOLID
  5
5A02
  8
DEFPOINTS
  6
CONTINUOUS
 10
-928.55438483009505
 20
16.064310850975971
 30
0.0
 11
-929.17808483009549
 21
16.064310850975971
 31
0.0
 12
-929.17808483009549
 22
15.73282585097604
 32
0.0
 13
-929.17808483009549
 23
15.73282585097604
 33
0.0
210
0.0
220
0.0
230
-1.0
  0
SOLID
  5
5A03
  8
DEFPOINTS
  6
CONTINUOUS
 10
939.34900241109563
 20
15.859298350976131
 30
0.0
 11
939.34900241109563
 21
15.63407335097622
 31
0.0
 12
942.70196741109555
 22
15.63407335097622
 32
0.0
 13
942.70196741109555
 23
15.63407335097622
 33
0.0
  0
SOLID
  5
5A04
  8
DEFPOINTS
  6
CONTINUOUS
 10
-939.34900241109563
 20
15.859298350976131
 30
0.0
 11
-942.70196741109578
 21
15.859298350976131
 31
0.0
 12
-942.70196741109555
 22
15.63407335097622
 32
0.0
 13
-942.70196741109555
 23
15.63407335097622
 33
0.0
210
0.0
220
0.0
230
-1.0
  0
SOLID
  5
5A05
  8
DEFPOINTS
  6
CONTINUOUS
 10
934.61869991109506
 20
15.73282585097604
 30
0.0
 11
934.61869991109506
 21
15.50991085097621
 31
0.0
 12
935.9261599110954
 22
15.50991085097621
 32
0.0
 13
935.9261599110954
 23
15.50991085097621
 33
0.0
  0
SOLID
  5
5A06
  8
DEFPOINTS
  6
CONTINUOUS
 10
-934.61869991109506
 20
15.73282585097604
 30
0.0
 11
-935.9261599110954
 21
15.73282585097604
 31
0.0
 12
-935.9261599110954
 22
15.50991085097621
 32
0.0
 13
-935.9261599110954
 23
15.50991085097621
 33
0.0
210
0.0
220
0.0
230
-1.0
  0
SOLID
  5
5A07
  8
DEFPOINTS
  6
CONTINUOUS
 10
933.63579491109601
 20
15.73282585097604
 30
0.0
 11
933.63579491109601
 21
15.50991085097621
 31
0.0
 12
934.50781991109545
 22
15.50991085097621
 32
0.0
 13
934.50781991109545
 23
15.50991085097621
 33
0.0
210
0.0
220
0.0
230
1.0
  0
SOLID
  5
5A08
  8
DEFPOINTS
  6
CONTINUOUS
 10
-933.63579491109601
 20
15.73282585097604
 30
0.0
 11
-934.50781991109568
 21
15.73282585097604
 31
0.0
 12
-934.50781991109545
 22
15.50991085097621
 32
0.0
 13
-934.50781991109545
 23
15.50991085097621
 33
0.0
210
0.0
220
0.0
230
-1.0
  0
SOLID
  5
5A09
  8
DEFPOINTS
  6
CONTINUOUS
 10
928.08429983009535
 20
15.73282585097604
 30
0.0
 11
928.08429983009592
 21
15.50991085097621
 31
0.0
 12
929.53728983009523
 22
15.50991085097621
 32
0.0
 13
929.53728983009523
 23
15.50991085097621
 33
0.0
210
0.0
220
0.0
230
1.0
  0
SOLID
  5
5A0A
  8
DEFPOINTS
  6
CONTINUOUS
 10
-928.08429983009535
 20
15.73282585097604
 30
0.0
 11
-929.53728983009523
 21
15.73282585097604
 31
0.0
 12
-929.53728983009523
 22
15.50991085097621
 32
0.0
 13
-929.53728983009523
 23
15.50991085097621
 33
0.0
210
0.0
220
0.0
230
-1.0
  0
SOLID
  5
5A0B
  8
DEFPOINTS
  6
CONTINUOUS
 10
925.51210241109595
 20
16.064310850975971
 30
0.0
 11
925.51233111109514
 21
15.46717585097622
 31
0.0
 12
926.15601491109555
 22
15.46717585097622
 32
0.0
 13
926.15601491109555
 23
15.46717585097622
 33
0.0
210
0.0
220
0.0
230
1.0
  0
SOLID
  5
5A0C
  8
DEFPOINTS
  6
CONTINUOUS
 10
-925.51210241109595
 20
16.064310850975971
 30
0.0
 11
-926.15601491109555
 21
16.064310850975971
 31
0.0
 12
-926.15601491109555
 22
15.46717585097622
 32
0.0
 13
-926.15601491109555
 23
15.46717585097622
 33
0.0
210
0.0
220
0.0
230
-1.0
  0
SOLID
  5
5A0D
  8
DEFPOINTS
  6
CONTINUOUS
 10
925.51233111109514
 20
15.46717585097622
 30
0.0
 11
925.28826111109652
 21
15.45909085097605
 31
0.0
 12
926.15601491109555
 22
15.45909085097605
 32
0.0
 13
926.15601491109555
 23
15.45909085097605
 33
0.0
210
0.0
220
0.0
230
1.0
  0
SOLID
  5
5A0E
  8
DEFPOINTS
  6
CONTINUOUS
 10
-925.51233111109514
 20
15.46717585097622
 30
0.0
 11
-926.15601491109555
 21
15.46717585097622
 31
0.0
 12
-926.15601491109555
 22
15.45909085097605
 32
0.0
 13
-926.15601491109555
 23
15.45909085097605
 33
0.0
210
0.0
220
0.0
230
-1.0
  0
SOLID
  5
5A0F
  8
DEFPOINTS
  6
CONTINUOUS
 10
939.34900241109563
 20
15.50991085097621
 30
0.0
 11
939.34900241109563
 21
15.29739085097617
 31
0.0
 12
942.70196741109555
 22
15.29739085097617
 32
0.0
 13
942.70196741109555
 23
15.29739085097617
 33
0.0
  0
SOLID
  5
5A10
  8
DEFPOINTS
  6
CONTINUOUS
 10
-939.34900241109563
 20
15.50991085097621
 30
0.0
 11
-942.70196741109555
 21
15.50991085097621
 31
0.0
 12
-942.70196741109555
 22
15.29739085097617
 32
0.0
 13
-942.70196741109555
 23
15.29739085097617
 33
0.0
210
0.0
220
0.0
230
-1.0
  0
SOLID
  5
5A11
  8
DEFPOINTS
  6
CONTINUOUS
 10
928.55438483009505
 20
15.50991085097621
 30
0.0
 11
928.37510976484396
 21
15.27891085097599
 31
0.0
 12
929.54189741109531
 22
15.27891085097599
 32
0.0
 13
929.54189741109531
 23
15.27891085097599
 33
0.0
210
0.0
220
0.0
230
1.0
  0
SOLID
  5
5A12
  8
DEFPOINTS
  6
CONTINUOUS
 10
-928.55438483009505
 20
15.50991085097621
 30
0.0
 11
-929.17808483009549
 21
15.50991085097621
 31
0.0
 12
-929.54189741109531
 22
15.27891085097599
 32
0.0
 13
-929.54189741109531
 23
15.27891085097599
 33
0.0
210
0.0
220
0.0
230
-1.0
  0
SOLID
  5
5A13
  8
DEFPOINTS
  6
CONTINUOUS
 10
935.38677491109547
 20
15.50991085097621
 30
0.0
 11
935.38677491109547
 21
15.269670850976119
 31
0.0
 12
935.9261599110954
 22
15.269670850976119
 32
0.0
 13
935.9261599110954
 23
15.269670850976119
 33
0.0
210
0.0
220
0.0
230
1.0
  0
SOLID
  5
5A14
  8
DEFPOINTS
  6
CONTINUOUS
 10
-935.38677491109547
 20
15.50991085097621
 30
0.0
 11
-935.9261599110954
 21
15.50991085097621
 31
0.0
 12
-935.9261599110954
 22
15.269670850976119
 32
0.0
 13
-935.9261599110954
 23
15.269670850976119
 33
0.0
210
0.0
220
0.0
230
-1.0
  0
SOLID
  5
5A15
  8
DEFPOINTS
  6
CONTINUOUS
 10
934.61869991109506
 20
15.50991085097621
 30
0.0
 11
934.61869991109506
 21
15.269670850976119
 31
0.0
 12
935.17425491109589
 22
15.269670850976119
 32
0.0
 13
935.17425491109589
 23
15.269670850976119
 33
0.0
210
0.0
220
0.0
230
1.0
  0
SOLID
  5
5A16
  8
DEFPOINTS
  6
CONTINUOUS
 10
-934.61869991109506
 20
15.50991085097621
 30
0.0
 11
-935.17425491109532
 21
15.50991085097621
 31
0.0
 12
-935.17425491109589
 22
15.269670850976119
 32
0.0
 13
-935.17425491109589
 23
15.269670850976119
 33
0.0
210
0.0
220
0.0
230
-1.0
  0
SOLID
  5
5A17
  8
DEFPOINTS
  6
CONTINUOUS
 10
923.4273274110966
 20
16.064310850975971
 30
0.0
 11
923.42732741109558
 21
15.269670850976119
 31
0.0
 12
923.99327741109585
 22
15.269670850976119
 32
0.0
 13
923.99327741109585
 23
15.269670850976119
 33
0.0
210
0.0
220
0.0
230
1.0
  0
SOLID
  5
5A18
  8
DEFPOINTS
  6
CONTINUOUS
 10
-923.4273274110966
 20
16.064310850975971
 30
0.0
 11
-923.99327741109585
 21
16.064310850975971
 31
0.0
 12
-923.99327741109585
 22
15.269670850976119
 32
0.0
 13
-923.99327741109585
 23
15.269670850976119
 33
0.0
210
0.0
220
0.0
230
-1.0
  0
SOLID
  5
5A19
  8
DEFPOINTS
  6
CONTINUOUS
 10
922.59572741109548
 20
16.064310850975971
 30
0.0
 11
922.59572741109548
 21
15.269670850976119
 31
0.0
 12
923.17207241109509
 22
15.269670850976119
 32
0.0
 13
923.17207241109509
 23
15.269670850976119
 33
0.0
210
0.0
220
0.0
230
1.0
  0
SOLID
  5
5A1A
  8
DEFPOINTS
  6
CONTINUOUS
 10
-922.59572741109548
 20
16.064310850975971
 30
0.0
 11
-923.17207241109509
 21
16.064310850975971
 31
0.0
 12
-923.17207241109509
 22
15.269670850976119
 32
0.0
 13
-923.17207241109509
 23
15.269670850976119
 33
0.0
210
0.0
220
0.0
230
-1.0
  0
SOLID
  5
5A1B
  8
DEFPOINTS
  6
CONTINUOUS
 10
925.28826111109652
 20
15.45909085097605
 30
0.0
 11
925.34693741109675
 21
15.22693585097613
 31
0.0
 12
926.15601491109555
 22
15.22693585097613
 32
0.0
 13
926.15601491109555
 23
15.22693585097613
 33
0.0
  0
SOLID
  5
5A1C
  8
DEFPOINTS
  6
CONTINUOUS
 10
-925.28826111109652
 20
15.45909085097605
 30
0.0
 11
-926.15601491109555
 21
15.45909085097605
 31
0.0
 12
-926.15601491109555
 22
15.22693585097613
 32
0.0
 13
-926.15601491109555
 23
15.22693585097613
 33
0.0
210
0.0
220
0.0
230
-1.0
  0
SOLID
  5
5A1D
  8
DEFPOINTS
  6
CONTINUOUS
 10
924.52805483009524
 20
16.064310850975971
 30
0.0
 11
924.13187741109596
 21
15.22693585097613
 31
0.0
 12
924.85259741109473
 22
15.22693585097613
 32
0.0
 13
924.85259741109473
 23
15.22693585097613
 33
0.0
210
0.0
220
0.0
230
1.0
  0
SOLID
  5
5A1E
  8
DEFPOINTS
  6
CONTINUOUS
 10
-924.52805483009524
 20
16.064310850975971
 30
0.0
 11
-925.24877483009504
 21
16.064310850975971
 31
0.0
 12
-924.85259741109473
 22
15.22693585097613
 32
0.0
 13
-924.85259741109473
 23
15.22693585097613
 33
0.0
210
0.0
220
0.0
230
-1.0
  0
SOLID
  5
5A1F
  8
DEFPOINTS
  6
CONTINUOUS
 10
940.68533741109513
 20
15.29739085097617
 30
0.0
 11
940.68533741109513
 21
15.09122335097595
 31
0.0
 12
941.32636241109503
 22
15.09122335097595
 32
0.0
 13
941.32636241109503
 23
15.09122335097595
 33
0.0
  0
SOLID
  5
5A20
  8
DEFPOINTS
  6
CONTINUOUS
 10
-940.68533741109513
 20
15.29739085097617
 30
0.0
 11
-941.32636241109503
 21
15.29739085097617
 31
0.0
 12
-941.32636241109503
 22
15.09122335097595
 32
0.0
 13
-941.32636241109503
 23
15.09122335097595
 33
0.0
210
0.0
220
0.0
230
-1.0
  0
SOLID
  5
5A21
  8
DEFPOINTS
  6
CONTINUOUS
 10
934.61869991109506
 20
15.269670850976119
 30
0.0
 11
934.61869991109506
 21
15.030585850976189
 31
0.0
 12
935.9261599110954
 22
15.030585850976189
 32
0.0
 13
935.9261599110954
 23
15.030585850976189
 33
0.0
210
0.0
220
0.0
230
1.0
  0
SOLID
  5
5A22
  8
DEFPOINTS
  6
CONTINUOUS
 10
-934.61869991109506
 20
15.269670850976119
 30
0.0
 11
-935.9261599110954
 21
15.269670850976119
 31
0.0
 12
-935.9261599110954
 22
15.030585850976189
 32
0.0
 13
-935.9261599110954
 23
15.030585850976189
 33
0.0
210
0.0
220
0.0
230
-1.0
  0
SOLID
  5
5A23
  8
DEFPOINTS
  6
CONTINUOUS
 10
922.59572741109548
 20
15.269670850976119
 30
0.0
 11
922.59572741109548
 21
15.030585850976189
 31
0.0
 12
923.99327741109585
 22
15.030585850976189
 32
0.0
 13
923.99327741109585
 23
15.030585850976189
 33
0.0
210
0.0
220
0.0
230
1.0
  0
SOLID
  5
5A24
  8
DEFPOINTS
  6
CONTINUOUS
 10
-922.59572741109548
 20
15.269670850976119
 30
0.0
 11
-923.99327741109585
 21
15.269670850976119
 31
0.0
 12
-923.99327741109585
 22
15.030585850976189
 32
0.0
 13
-923.99327741109585
 23
15.030585850976189
 33
0.0
210
0.0
220
0.0
230
-1.0
  0
SOLID
  5
5A25
  8
DEFPOINTS
  6
CONTINUOUS
 10
928.37510976484396
 20
15.27891085097599
 30
0.0
 11
928.090062411095
 21
14.9116208509763
 31
0.0
 12
929.54218146666403
 22
14.9116208509763
 32
0.0
 13
929.54218146666403
 23
14.9116208509763
 33
0.0
210
0.0
220
0.0
230
1.0
  0
SOLID
  5
5A26
  8
DEFPOINTS
  6
CONTINUOUS
 10
-928.37510976484396
 20
15.27891085097599
 30
0.0
 11
-929.54189741109531
 21
15.27891085097599
 31
0.0
 12
-929.54218146666403
 22
14.9116208509763
 32
0.0
 13
-929.54218146666403
 23
14.9116208509763
 33
0.0
210
0.0
220
0.0
230
-1.0
  0
SOLID
  5
5A27
  8
DEFPOINTS
  6
CONTINUOUS
 10
939.2126637060959
 20
15.09122335097595
 30
0.0
 11
939.2126637060959
 21
14.879858350975841
 31
0.0
 12
942.804762411095
 22
14.879858350975841
 32
0.0
 13
942.804762411095
 23
14.879858350975841
 33
0.0
210
0.0
220
0.0
230
1.0
  0
SOLID
  5
5A28
  8
DEFPOINTS
  6
CONTINUOUS
 10
-939.2126637060959
 20
15.09122335097595
 30
0.0
 11
-942.804762411095
 21
15.09122335097595
 31
0.0
 12
-942.804762411095
 22
14.879858350975841
 32
0.0
 13
-942.804762411095
 23
14.879858350975841
 33
0.0
210
0.0
220
0.0
230
-1.0
  0
SOLID
  5
5A29
  8
DEFPOINTS
  6
CONTINUOUS
 10
928.090062411095
 20
14.9116208509763
 30
0.0
 11
928.09009927335467
 21
14.838342342412711
 31
0.0
 12
929.54223813896238
 22
14.838342342412711
 32
0.0
 13
929.54223813896238
 23
14.838342342412711
 33
0.0
210
0.0
220
0.0
230
1.0
  0
SOLID
  5
5A2A
  8
DEFPOINTS
  6
CONTINUOUS
 10
-928.090062411095
 20
14.9116208509763
 30
0.0
 11
-929.54218146666403
 21
14.9116208509763
 31
0.0
 12
-929.54223813896238
 22
14.838342342412711
 32
0.0
 13
-929.54223813896238
 23
14.838342342412711
 33
0.0
210
0.0
220
0.0
230
-1.0
  0
SOLID
  5
5A2B
  8
DEFPOINTS
  6
CONTINUOUS
 10
935.38677491109547
 20
15.030585850976189
 30
0.0
 11
935.38677491109547
 21
14.800740850976119
 31
0.0
 12
935.9261599110954
 22
14.800740850976119
 32
0.0
 13
935.9261599110954
 23
14.800740850976119
 33
0.0
  0
SOLID
  5
5A2C
  8
DEFPOINTS
  6
CONTINUOUS
 10
-935.38677491109547
 20
15.030585850976189
 30
0.0
 11
-935.9261599110954
 21
15.030585850976189
 31
0.0
 12
-935.9261599110954
 22
14.800740850976119
 32
0.0
 13
-935.9261599110954
 23
14.800740850976119
 33
0.0
210
0.0
220
0.0
230
-1.0
  0
SOLID
  5
5A2D
  8
DEFPOINTS
  6
CONTINUOUS
 10
934.61869991109506
 20
15.030585850976189
 30
0.0
 11
934.61869991109506
 21
14.800740850976119
 31
0.0
 12
935.17425491109532
 22
14.800740850976119
 32
0.0
 13
935.17425491109532
 23
14.800740850976119
 33
0.0
210
0.0
220
0.0
230
1.0
  0
SOLID
  5
5A2E
  8
DEFPOINTS
  6
CONTINUOUS
 10
-934.61869991109506
 20
15.030585850976189
 30
0.0
 11
-935.17425491109441
 21
15.030585850976189
 31
0.0
 12
-935.17425491109532
 22
14.800740850976119
 32
0.0
 13
-935.17425491109532
 23
14.800740850976119
 33
0.0
210
0.0
220
0.0
230
-1.0
  0
SOLID
  5
5A2F
  8
DEFPOINTS
  6
CONTINUOUS
 10
924.13187741109505
 20
15.030585850976189
 30
0.0
 11
924.13187741109505
 21
14.7995858509762
 31
0.0
 12
926.15601491109555
 22
14.7995858509762
 32
0.0
 13
926.15601491109555
 23
14.7995858509762
 33
0.0
  0
SOLID
  5
5A30
  8
DEFPOINTS
  6
CONTINUOUS
 10
-924.13187741109505
 20
15.030585850976189
 30
0.0
 11
-926.15601491109555
 21
15.030585850976189
 31
0.0
 12
-926.15601491109555
 22
14.7995858509762
 32
0.0
 13
-926.15601491109555
 23
14.7995858509762
 33
0.0
210
0.0
220
0.0
230
-1.0
  0
SOLID
  5
5A31
  8
DEFPOINTS
  6
CONTINUOUS
 10
-929.53121341054725
 20
14.614126066384181
 30
0.0
 11
-929.5424115438517
 21
14.614126066384181
 31
0.0
 12
-929.54241704543165
 22
14.60701240458843
 32
0.0
 13
-929.54241704543165
 23
14.60701240458843
 33
0.0
210
0.0
220
0.0
230
-1.0
  0
SOLID
  5
5A32
  8
DEFPOINTS
  6
CONTINUOUS
 10
929.17808483009549
 20
14.838342342412711
 30
0.0
 11
929.53121341054725
 21
14.614126066384181
 31
0.0
 12
929.5424115438517
 22
14.614126066384181
 32
0.0
 13
929.5424115438517
 23
14.614126066384181
 33
0.0
210
0.0
220
0.0
230
1.0
  0
SOLID
  5
5A33
  8
DEFPOINTS
  6
CONTINUOUS
 10
-929.17808483009549
 20
14.838342342412711
 30
0.0
 11
-929.54223813896238
 21
14.838342342412711
 31
0.0
 12
-929.5424115438517
 22
14.614126066384181
 32
0.0
 13
-929.5424115438517
 23
14.614126066384181
 33
0.0
210
0.0
220
0.0
230
-1.0
  0
SOLID
  5
5A34
  8
DEFPOINTS
  6
CONTINUOUS
 10
928.09009927335467
 20
14.838342342412711
 30
0.0
 11
928.09021206384045
 21
14.614126066384181
 31
0.0
 12
929.17808483009537
 22
14.614126066384181
 32
0.0
 13
929.17808483009537
 23
14.614126066384181
 33
0.0
210
0.0
220
0.0
230
1.0
  0
SOLID
  5
5A35
  8
DEFPOINTS
  6
CONTINUOUS
 10
-928.09009927335467
 20
14.838342342412711
 30
0.0
 11
-929.17808483009549
 21
14.838342342412711
 31
0.0
 12
-929.17808483009537
 22
14.614126066384181
 32
0.0
 13
-929.17808483009537
 23
14.614126066384181
 33
0.0
210
0.0
220
0.0
230
-1.0
  0
SOLID
  5
5A36
  8
DEFPOINTS
  6
CONTINUOUS
 10
928.55438483009436
 20
14.614126066384181
 30
0.0
 11
928.55438483009436
 21
14.60701240458843
 31
0.0
 12
929.17808483009537
 22
14.60701240458843
 32
0.0
 13
929.17808483009537
 23
14.60701240458843
 33
0.0
  0
SOLID
  5
5A37
  8
DEFPOINTS
  6
CONTINUOUS
 10
-928.55438483009436
 20
14.614126066384181
 30
0.0
 11
-929.17808483009537
 21
14.614126066384181
 31
0.0
 12
-929.17808483009537
 22
14.60701240458843
 32
0.0
 13
-929.17808483009537
 23
14.60701240458843
 33
0.0
210
0.0
220
0.0
230
-1.0
  0
SOLID
  5
5A38
  8
DEFPOINTS
  6
CONTINUOUS
 10
928.09021206384045
 20
14.614126066384181
 30
0.0
 11
928.09021564232
 21
14.60701240458843
 31
0.0
 12
928.54886404141325
 22
14.60701240458843
 32
0.0
 13
928.54886404141325
 23
14.60701240458843
 33
0.0
210
0.0
220
0.0
230
1.0
  0
SOLID
  5
5A39
  8
DEFPOINTS
  6
CONTINUOUS
 10
-928.09021206384045
 20
14.614126066384181
 30
0.0
 11
-928.55438483009436
 21
14.614126066384181
 31
0.0
 12
-928.54886404141325
 22
14.60701240458843
 32
0.0
 13
-928.54886404141325
 23
14.60701240458843
 33
0.0
210
0.0
220
0.0
230
-1.0
  0
SOLID
  5
5A3A
  8
DEFPOINTS
  6
CONTINUOUS
 10
936.01162991109538
 20
16.283760850976019
 30
0.0
 11
936.01162991109538
 21
14.56165585097596
 31
0.0
 12
936.53253491109592
 22
14.56165585097596
 32
0.0
 13
936.53253491109592
 23
14.56165585097596
 33
0.0
210
0.0
220
0.0
230
1.0
  0
SOLID
  5
5A3B
  8
DEFPOINTS
  6
CONTINUOUS
 10
-936.01162991109538
 20
16.283760850976019
 30
0.0
 11
-936.53253491109592
 21
16.283760850976019
 31
0.0
 12
-936.53253491109592
 22
14.56165585097596
 32
0.0
 13
-936.53253491109592
 23
14.56165585097596
 33
0.0
210
0.0
220
0.0
230
-1.0
  0
SOLID
  5
5A3C
  8
DEFPOINTS
  6
CONTINUOUS
 10
934.61869991109506
 20
14.800740850976119
 30
0.0
 11
934.61869991109506
 21
14.56165585097596
 31
0.0
 12
935.9261599110954
 22
14.56165585097596
 32
0.0
 13
935.9261599110954
 23
14.56165585097596
 33
0.0
210
0.0
220
0.0
230
1.0
  0
SOLID
  5
5A3D
  8
DEFPOINTS
  6
CONTINUOUS
 10
-934.61869991109506
 20
14.800740850976119
 30
0.0
 11
-935.9261599110954
 21
14.800740850976119
 31
0.0
 12
-935.9261599110954
 22
14.56165585097596
 32
0.0
 13
-935.9261599110954
 23
14.56165585097596
 33
0.0
210
0.0
220
0.0
230
-1.0
  0
SOLID
  5
5A3E
  8
DEFPOINTS
  6
CONTINUOUS
 10
934.73363498009576
 20
14.56165585097596
 30
0.0
 11
934.72969819894615
 21
14.55451071597599
 31
0.0
 12
935.85440031128201
 22
14.55451071597599
 32
0.0
 13
935.85440031128201
 23
14.55451071597599
 33
0.0
210
0.0
220
0.0
230
1.0
  0
SOLID
  5
5A3F
  8
DEFPOINTS
  6
CONTINUOUS
 10
-934.73363498009576
 20
14.56165585097596
 30
0.0
 11
-935.8496934270961
 21
14.56165585097596
 31
0.0
 12
-935.85440031128201
 22
14.55451071597599
 32
0.0
 13
-935.85440031128201
 23
14.55451071597599
 33
0.0
210
0.0
220
0.0
230
-1.0
  0
SOLID
  5
5A40
  8
DEFPOINTS
  6
CONTINUOUS
 10
939.21266370609555
 20
14.71296085097606
 30
0.0
 11
939.21266370609555
 21
14.51083585097626
 31
0.0
 12
942.80476241109523
 22
14.51083585097626
 32
0.0
 13
942.80476241109523
 23
14.51083585097626
 33
0.0
  0
SOLID
  5
5A41
  8
DEFPOINTS
  6
CONTINUOUS
 10
-939.21266370609555
 20
14.71296085097606
 30
0.0
 11
-942.804762411095
 21
14.71296085097606
 31
0.0
 12
-942.80476241109523
 22
14.51083585097626
 32
0.0
 13
-942.80476241109523
 23
14.51083585097626
 33
0.0
210
0.0
220
0.0
230
-1.0
  0
SOLID
  5
5A42
  8
DEFPOINTS
  6
CONTINUOUS
 10
936.67499868009497
 20
16.283760850976019
 30
0.0
 11
936.67499868009497
 21
14.25096085097584
 31
0.0
 12
937.23055368009557
 22
14.25096085097584
 32
0.0
 13
937.23055368009557
 23
14.25096085097584
 33
0.0
210
0.0
220
0.0
230
1.0
  0
SOLID
  5
5A43
  8
DEFPOINTS
  6
CONTINUOUS
 10
-936.67499868009497
 20
16.283760850976019
 30
0.0
 11
-937.23055368009602
 21
16.283760850976019
 31
0.0
 12
-937.23055368009557
 22
14.25096085097584
 32
0.0
 13
-937.23055368009557
 23
14.25096085097584
 33
0.0
210
0.0
220
0.0
230
-1.0
  0
SOLID
  5
5A44
  8
DEFPOINTS
  6
CONTINUOUS
 10
931.00644983009613
 20
16.064310850975971
 30
0.0
 11
931.00644983009533
 21
14.25096085097584
 31
0.0
 12
931.67288483009543
 22
14.25096085097584
 32
0.0
 13
931.67288483009543
 23
14.25096085097584
 33
0.0
210
0.0
220
0.0
230
1.0
  0
SOLID
  5
5A45
  8
DEFPOINTS
  6
CONTINUOUS
 10
-931.00644983009613
 20
16.064310850975971
 30
0.0
 11
-931.67288483009543
 21
16.064310850975971
 31
0.0
 12
-931.67288483009543
 22
14.25096085097584
 32
0.0
 13
-931.67288483009543
 23
14.25096085097584
 33
0.0
210
0.0
220
0.0
230
-1.0
  0
SOLID
  5
5A46
  8
DEFPOINTS
  6
CONTINUOUS
 10
929.66549483009544
 20
16.064310850975971
 30
0.0
 11
929.66549483009544
 21
14.25096085097584
 31
0.0
 12
930.31460483009585
 22
14.25096085097584
 32
0.0
 13
930.31460483009585
 23
14.25096085097584
 33
0.0
210
0.0
220
0.0
230
1.0
  0
SOLID
  5
5A47
  8
DEFPOINTS
  6
CONTINUOUS
 10
-929.66549483009544
 20
16.064310850975971
 30
0.0
 11
-930.31460483009562
 21
16.064310850975971
 31
0.0
 12
-930.31460483009585
 22
14.25096085097584
 32
0.0
 13
-930.31460483009585
 23
14.25096085097584
 33
0.0
210
0.0
220
0.0
230
-1.0
  0
SOLID
  5
5A48
  8
DEFPOINTS
  6
CONTINUOUS
 10
925.51210241109595
 20
14.7995858509762
 30
0.0
 11
925.51210241109595
 21
14.25096085097584
 31
0.0
 12
926.15601491109555
 22
14.25096085097584
 32
0.0
 13
926.15601491109555
 23
14.25096085097584
 33
0.0
210
0.0
220
0.0
230
1.0
  0
SOLID
  5
5A49
  8
DEFPOINTS
  6
CONTINUOUS
 10
-925.51210241109595
 20
14.7995858509762
 30
0.0
 11
-926.15601491109555
 21
14.7995858509762
 31
0.0
 12
-926.15601491109555
 22
14.25096085097584
 32
0.0
 13
-926.15601491109555
 23
14.25096085097584
 33
0.0
210
0.0
220
0.0
230
-1.0
  0
SOLID
  5
5A4A
  8
DEFPOINTS
  6
CONTINUOUS
 10
924.13187741109505
 20
14.7995858509762
 30
0.0
 11
924.13187741109505
 21
14.25096085097584
 31
0.0
 12
924.79311491109593
 22
14.25096085097584
 32
0.0
 13
924.79311491109593
 23
14.25096085097584
 33
0.0
210
0.0
220
0.0
230
1.0
  0
SOLID
  5
5A4B
  8
DEFPOINTS
  6
CONTINUOUS
 10
-924.13187741109505
 20
14.7995858509762
 30
0.0
 11
-924.7931149110957
 21
14.7995858509762
 31
0.0
 12
-924.79311491109593
 22
14.25096085097584
 32
0.0
 13
-924.79311491109593
 23
14.25096085097584
 33
0.0
210
0.0
220
0.0
230
-1.0
  0
SOLID
  5
5A4C
  8
DEFPOINTS
  6
CONTINUOUS
 10
923.42732741109558
 20
15.030585850976189
 30
0.0
 11
923.42732741109558
 21
14.25096085097584
 31
0.0
 12
923.99327741109585
 22
14.25096085097584
 32
0.0
 13
923.99327741109585
 23
14.25096085097584
 33
0.0
210
0.0
220
0.0
230
1.0
  0
SOLID
  5
5A4D
  8
DEFPOINTS
  6
CONTINUOUS
 10
-923.42732741109558
 20
15.030585850976189
 30
0.0
 11
-923.99327741109585
 21
15.030585850976189
 31
0.0
 12
-923.99327741109585
 22
14.25096085097584
 32
0.0
 13
-923.99327741109585
 23
14.25096085097584
 33
0.0
210
0.0
220
0.0
230
-1.0
  0
SOLID
  5
5A4E
  8
DEFPOINTS
  6
CONTINUOUS
 10
922.59572741109548
 20
15.030585850976189
 30
0.0
 11
922.59572741109548
 21
14.25096085097584
 31
0.0
 12
923.17207241109554
 22
14.25096085097584
 32
0.0
 13
923.17207241109554
 23
14.25096085097584
 33
0.0
210
0.0
220
0.0
230
1.0
  0
SOLID
  5
5A4F
  8
DEFPOINTS
  6
CONTINUOUS
 10
-922.59572741109548
 20
15.030585850976189
 30
0.0
 11
-923.17207241109554
 21
15.030585850976189
 31
0.0
 12
-923.17207241109554
 22
14.25096085097584
 32
0.0
 13
-923.17207241109554
 23
14.25096085097584
 33
0.0
210
0.0
220
0.0
230
-1.0
  0
SOLID
  5
5A50
  8
DEFPOINTS
  6
CONTINUOUS
 10
-928.0904165397144
 20
14.207648350976109
 30
0.0
 11
-928.23892457420823
 21
14.207648350976109
 31
0.0
 12
-928.09051273769637
 22
14.016416323742069
 32
0.0
 13
-928.09051273769637
 23
14.016416323742069
 33
0.0
210
0.0
220
0.0
230
-1.0
  0
SOLID
  5
5A51
  8
DEFPOINTS
  6
CONTINUOUS
 10
942.16373741109589
 20
14.51083585097626
 30
0.0
 11
942.16373741109498
 21
14.207648350976109
 31
0.0
 12
942.80476241109568
 22
14.207648350976109
 32
0.0
 13
942.80476241109568
 23
14.207648350976109
 33
0.0
210
0.0
220
0.0
230
1.0
  0
SOLID
  5
5A52
  8
DEFPOINTS
  6
CONTINUOUS
 10
-942.16373741109589
 20
14.51083585097626
 30
0.0
 11
-942.80476241109523
 21
14.51083585097626
 31
0.0
 12
-942.80476241109568
 22
14.207648350976109
 32
0.0
 13
-942.80476241109568
 23
14.207648350976109
 33
0.0
210
0.0
220
0.0
230
-1.0
  0
SOLID
  5
5A53
  8
DEFPOINTS
  6
CONTINUOUS
 10
940.68533741109513
 20
14.51083585097626
 30
0.0
 11
940.68533741109604
 21
14.207648350976109
 31
0.0
 12
941.32636241109503
 22
14.207648350976109
 32
0.0
 13
941.32636241109503
 23
14.207648350976109
 33
0.0
210
0.0
220
0.0
230
1.0
  0
SOLID
  5
5A54
  8
DEFPOINTS
  6
CONTINUOUS
 10
-940.68533741109513
 20
14.51083585097626
 30
0.0
 11
-941.32636241109503
 21
14.51083585097626
 31
0.0
 12
-941.32636241109503
 22
14.207648350976109
 32
0.0
 13
-941.32636241109503
 23
14.207648350976109
 33
0.0
210
0.0
220
0.0
230
-1.0
  0
SOLID
  5
5A55
  8
DEFPOINTS
  6
CONTINUOUS
 10
939.21266370609555
 20
14.51083585097626
 30
0.0
 11
939.21266370609555
 21
14.207648350976109
 31
0.0
 12
939.85720241109561
 22
14.207648350976109
 32
0.0
 13
939.85720241109561
 23
14.207648350976109
 33
0.0
210
0.0
220
0.0
230
1.0
  0
SOLID
  5
5A56
  8
DEFPOINTS
  6
CONTINUOUS
 10
-939.21266370609555
 20
14.51083585097626
 30
0.0
 11
-939.85720241109584
 21
14.51083585097626
 31
0.0
 12
-939.85720241109561
 22
14.207648350976109
 32
0.0
 13
-939.85720241109561
 23
14.207648350976109
 33
0.0
210
0.0
220
0.0
230
-1.0
  0
SOLID
  5
5A57
  8
DEFPOINTS
  6
CONTINUOUS
 10
928.09021564232
 20
14.60701240458843
 30
0.0
 11
928.0904165397144
 21
14.207648350976109
 31
0.0
 12
928.23892457420823
 22
14.207648350976109
 32
0.0
 13
928.23892457420823
 23
14.207648350976109
 33
0.0
210
0.0
220
0.0
230
1.0
  0
SOLID
  5
5A58
  8
DEFPOINTS
  6
CONTINUOUS
 10
-928.09021564232
 20
14.60701240458843
 30
0.0
 11
-928.54886404141325
 21
14.60701240458843
 31
0.0
 12
-928.23892457420823
 22
14.207648350976109
 32
0.0
 13
-928.23892457420823
 23
14.207648350976109
 33
0.0
210
0.0
220
0.0
230
-1.0
  0
SOLID
  5
5A59
  8
DEFPOINTS
  6
CONTINUOUS
 10
939.21266370609555
 20
14.207648350976109
 30
0.0
 11
939.21266370609555
 21
14.00841085097613
 31
0.0
 12
942.80476241109591
 22
14.00841085097613
 32
0.0
 13
942.80476241109591
 23
14.00841085097613
 33
0.0
210
0.0
220
0.0
230
1.0
  0
SOLID
  5
5A5A
  8
DEFPOINTS
  6
CONTINUOUS
 10
-939.21266370609555
 20
14.207648350976109
 30
0.0
 11
-942.80476241109568
 21
14.207648350976109
 31
0.0
 12
-942.80476241109591
 22
14.00841085097613
 32
0.0
 13
-942.80476241109591
 23
14.00841085097613
 33
0.0
210
0.0
220
0.0
230
-1.0
  0
SOLID
  5
5A5B
  8
DEFPOINTS
  6
CONTINUOUS
 10
936.41326317309586
 20
14.25096085097584
 30
0.0
 11
936.49994497709599
 21
14.00841085097613
 31
0.0
 12
937.23055368009557
 22
14.00841085097613
 32
0.0
 13
937.23055368009557
 23
14.00841085097613
 33
0.0
  0
SOLID
  5
5A5C
  8
DEFPOINTS
  6
CONTINUOUS
 10
-936.41326317309586
 20
14.25096085097584
 30
0.0
 11
-937.23055368009557
 21
14.25096085097584
 31
0.0
 12
-937.23055368009557
 22
14.00841085097613
 32
0.0
 13
-937.23055368009557
 23
14.00841085097613
 33
0.0
210
0.0
220
0.0
230
-1.0
  0
SOLID
  5
5A5D
  8
DEFPOINTS
  6
CONTINUOUS
 10
935.27860368009624
 20
14.55451071597599
 30
0.0
 11
935.63834899109565
 21
14.00841085097613
 31
0.0
 12
936.21414562309565
 22
14.00841085097613
 32
0.0
 13
936.21414562309565
 23
14.00841085097613
 33
0.0
  0
SOLID
  5
5A5E
  8
DEFPOINTS
  6
CONTINUOUS
 10
-935.27860368009624
 20
14.55451071597599
 30
0.0
 11
-935.85440031128201
 21
14.55451071597599
 31
0.0
 12
-936.21414562309565
 22
14.00841085097613
 32
0.0
 13
-936.21414562309565
 23
14.00841085097613
 33
0.0
210
0.0
220
0.0
230
-1.0
  0
SOLID
  5
5A5F
  8
DEFPOINTS
  6
CONTINUOUS
 10
934.72969819894615
 20
14.55451071597599
 30
0.0
 11
934.4288115600948
 21
14.00841085097613
 31
0.0
 12
934.97771704167133
 22
14.00841085097613
 32
0.0
 13
934.97771704167133
 23
14.00841085097613
 33
0.0
210
0.0
220
0.0
230
1.0
  0
SOLID
  5
5A60
  8
DEFPOINTS
  6
CONTINUOUS
 10
-934.72969819894615
 20
14.55451071597599
 30
0.0
 11
-935.27860368009624
 21
14.55451071597599
 31
0.0
 12
-934.97771704167133
 22
14.00841085097613
 32
0.0
 13
-934.97771704167133
 23
14.00841085097613
 33
0.0
210
0.0
220
0.0
230
-1.0
  0
SOLID
  5
5A61
  8
DEFPOINTS
  6
CONTINUOUS
 10
933.93500917309575
 20
15.117210850976329
 30
0.0
 11
933.63579491109601
 21
14.00841085097613
 31
0.0
 12
934.20860564809561
 22
14.00841085097613
 32
0.0
 13
934.20860564809561
 23
14.00841085097613
 33
0.0
210
0.0
220
0.0
230
1.0
  0
SOLID
  5
5A62
  8
DEFPOINTS
  6
CONTINUOUS
 10
-933.93500917309575
 20
15.117210850976329
 30
0.0
 11
-934.50781991109488
 21
15.117210850976329
 31
0.0
 12
-934.20860564809561
 22
14.00841085097613
 32
0.0
 13
-934.20860564809561
 23
14.00841085097613
 33
0.0
210
0.0
220
0.0
230
-1.0
  0
SOLID
  5
5A63
  8
DEFPOINTS
  6
CONTINUOUS
 10
929.66549483009544
 20
14.25096085097584
 30
0.0
 11
929.66549483009544
 21
14.00841085097613
 31
0.0
 12
931.67288483009543
 22
14.00841085097613
 32
0.0
 13
931.67288483009543
 23
14.00841085097613
 33
0.0
210
0.0
220
0.0
230
1.0
  0
SOLID
  5
5A64
  8
DEFPOINTS
  6
CONTINUOUS
 10
-929.66549483009544
 20
14.25096085097584
 30
0.0
 11
-931.67288483009543
 21
14.25096085097584
 31
0.0
 12
-931.67288483009543
 22
14.00841085097613
 32
0.0
 13
-931.67288483009543
 23
14.00841085097613
 33
0.0
210
0.0
220
0.0
230
-1.0
  0
SOLID
  5
5A65
  8
DEFPOINTS
  6
CONTINUOUS
 10
928.55438483009436
 20
14.60701240458843
 30
0.0
 11
928.55438483009596
 21
14.00841085097613
 31
0.0
 12
929.17808483009503
 22
14.00841085097613
 32
0.0
 13
929.17808483009503
 23
14.00841085097613
 33
0.0
210
0.0
220
0.0
230
1.0
  0
SOLID
  5
5A66
  8
DEFPOINTS
  6
CONTINUOUS
 10
-928.55438483009436
 20
14.60701240458843
 30
0.0
 11
-929.17808483009537
 21
14.60701240458843
 31
0.0
 12
-929.17808483009503
 22
14.00841085097613
 32
0.0
 13
-929.17808483009503
 23
14.00841085097613
 33
0.0
210
0.0
220
0.0
230
-1.0
  0
SOLID
  5
5A67
  8
DEFPOINTS
  6
CONTINUOUS
 10
924.13187741109505
 20
14.25096085097584
 30
0.0
 11
924.13187741109505
 21
14.00841085097613
 31
0.0
 12
926.15601491109555
 22
14.00841085097613
 32
0.0
 13
926.15601491109555
 23
14.00841085097613
 33
0.0
210
0.0
220
0.0
230
1.0
  0
SOLID
  5
5A68
  8
DEFPOINTS
  6
CONTINUOUS
 10
-924.13187741109505
 20
14.25096085097584
 30
0.0
 11
-926.15601491109555
 21
14.25096085097584
 31
0.0
 12
-926.15601491109555
 22
14.00841085097613
 32
0.0
 13
-926.15601491109555
 23
14.00841085097613
 33
0.0
210
0.0
220
0.0
230
-1.0
  0
SOLID
  5
5A69
  8
DEFPOINTS
  6
CONTINUOUS
 10
922.59572741109548
 20
14.25096085097584
 30
0.0
 11
922.59572741109548
 21
14.00841085097613
 31
0.0
 12
923.99327741109585
 22
14.00841085097613
 32
0.0
 13
923.99327741109585
 23
14.00841085097613
 33
0.0
210
0.0
220
0.0
230
1.0
  0
SOLID
  5
5A6A
  8
DEFPOINTS
  6
CONTINUOUS
 10
-922.59572741109548
 20
14.25096085097584
 30
0.0
 11
-923.99327741109585
 21
14.25096085097584
 31
0.0
 12
-923.99327741109585
 22
14.00841085097613
 32
0.0
 13
-923.99327741109585
 23
14.00841085097613
 33
0.0
210
0.0
220
0.0
230
-1.0
  0
LINE
  5
5A6B
  8
DEFPOINTS
  6
CONTINUOUS
 10
939.34900241109563
 20
16.283760850976019
 30
0.0
 11
939.34900241109563
 21
16.064310850975971
 31
0.0
  0
LINE
  5
5A6C
  8
DEFPOINTS
  6
CONTINUOUS
 10
942.70196741109623
 20
16.283760850976019
 30
0.0
 11
942.70196741109601
 21
16.064310850975971
 31
0.0
  0
LINE
  5
5A6D
  8
DEFPOINTS
  6
CONTINUOUS
 10
934.61869991109506
 20
16.283760850976019
 30
0.0
 11
934.61869991109506
 21
16.064310850975971
 31
0.0
  0
LINE
  5
5A6E
  8
DEFPOINTS
  6
CONTINUOUS
 10
935.9261599110954
 20
16.283760850976019
 30
0.0
 11
935.9261599110954
 21
16.064310850975971
 31
0.0
  0
LINE
  5
5A6F
  8
DEFPOINTS
  6
CONTINUOUS
 10
933.63579491109522
 20
16.283760850976019
 30
0.0
 11
933.63579491109601
 21
16.064310850975971
 31
0.0
  0
LINE
  5
5A70
  8
DEFPOINTS
  6
CONTINUOUS
 10
934.50781991109545
 20
16.283760850976019
 30
0.0
 11
934.50781991109568
 21
16.064310850975971
 31
0.0
  0
LINE
  5
5A71
  8
DEFPOINTS
  6
CONTINUOUS
 10
929.66549483009544
 20
16.283760850976019
 30
0.0
 11
929.66549483009544
 21
16.064310850975971
 31
0.0
  0
LINE
  5
5A72
  8
DEFPOINTS
  6
CONTINUOUS
 10
931.67288483009543
 20
16.283760850976019
 30
0.0
 11
931.67288483009543
 21
16.064310850975971
 31
0.0
  0
LINE
  5
5A73
  8
DEFPOINTS
  6
CONTINUOUS
 10
928.08429983009535
 20
16.283760850976019
 30
0.0
 11
928.08429983009535
 21
16.064310850975971
 31
0.0
  0
LINE
  5
5A74
  8
DEFPOINTS
  6
CONTINUOUS
 10
929.53728983009523
 20
16.283760850976019
 30
0.0
 11
929.53728983009569
 21
16.064310850975971
 31
0.0
  0
LINE
  5
5A75
  8
DEFPOINTS
  6
CONTINUOUS
 10
924.13187741109505
 20
16.283760850976019
 30
0.0
 11
924.13187741109505
 21
16.064310850975971
 31
0.0
  0
LINE
  5
5A76
  8
DEFPOINTS
  6
CONTINUOUS
 10
926.15601491109555
 20
16.283760850976019
 30
0.0
 11
926.15601491109555
 21
16.064310850975971
 31
0.0
  0
LINE
  5
5A77
  8
DEFPOINTS
  6
CONTINUOUS
 10
922.59572741109548
 20
16.283760850976019
 30
0.0
 11
922.59572741109548
 21
16.064310850975971
 31
0.0
  0
LINE
  5
5A78
  8
DEFPOINTS
  6
CONTINUOUS
 10
923.99327741109585
 20
16.283760850976019
 30
0.0
 11
923.99327741109585
 21
16.064310850975971
 31
0.0
  0
LINE
  5
5A79
  8
DEFPOINTS
  6
CONTINUOUS
 10
942.0182074110952
 20
16.064310850975971
 30
0.0
 11
942.0182074110952
 21
15.859298350976131
 31
0.0
  0
LINE
  5
5A7A
  8
DEFPOINTS
  6
CONTINUOUS
 10
942.70196741109601
 20
16.064310850975971
 30
0.0
 11
942.70196741109578
 21
15.859298350976131
 31
0.0
  0
LINE
  5
5A7B
  8
DEFPOINTS
  6
CONTINUOUS
 10
940.68533741109513
 20
16.064310850975971
 30
0.0
 11
940.68533741109513
 21
15.859298350976131
 31
0.0
  0
LINE
  5
5A7C
  8
DEFPOINTS
  6
CONTINUOUS
 10
941.32636241109503
 20
16.064310850975971
 30
0.0
 11
941.32636241109594
 21
15.859298350976131
 31
0.0
  0
LINE
  5
5A7D
  8
DEFPOINTS
  6
CONTINUOUS
 10
939.34900241109563
 20
16.064310850975971
 30
0.0
 11
939.34900241109563
 21
15.859298350976131
 31
0.0
  0
LINE
  5
5A7E
  8
DEFPOINTS
  6
CONTINUOUS
 10
940.02814241109616
 20
16.064310850975971
 30
0.0
 11
940.02814241109616
 21
15.859298350976131
 31
0.0
  0
LINE
  5
5A7F
  8
DEFPOINTS
  6
CONTINUOUS
 10
935.38677491109593
 20
16.064310850975971
 30
0.0
 11
935.38677491109593
 21
15.73282585097604
 31
0.0
  0
LINE
  5
5A80
  8
DEFPOINTS
  6
CONTINUOUS
 10
935.9261599110954
 20
16.064310850975971
 30
0.0
 11
935.9261599110954
 21
15.73282585097604
 31
0.0
  0
LINE
  5
5A81
  8
DEFPOINTS
  6
CONTINUOUS
 10
934.61869991109506
 20
16.064310850975971
 30
0.0
 11
934.61869991109506
 21
15.73282585097604
 31
0.0
  0
LINE
  5
5A82
  8
DEFPOINTS
  6
CONTINUOUS
 10
935.1742549110952
 20
16.064310850975971
 30
0.0
 11
935.17425491109589
 21
15.73282585097604
 31
0.0
  0
LINE
  5
5A83
  8
DEFPOINTS
  6
CONTINUOUS
 10
928.55438483009505
 20
16.064310850975971
 30
0.0
 11
928.55438483009596
 21
15.73282585097604
 31
0.0
  0
LINE
  5
5A84
  8
DEFPOINTS
  6
CONTINUOUS
 10
929.17808483009549
 20
16.064310850975971
 30
0.0
 11
929.17808483009549
 21
15.73282585097604
 31
0.0
  0
LINE
  5
5A85
  8
DEFPOINTS
  6
CONTINUOUS
 10
939.34900241109563
 20
15.859298350976131
 30
0.0
 11
939.34900241109563
 21
15.63407335097622
 31
0.0
  0
LINE
  5
5A86
  8
DEFPOINTS
  6
CONTINUOUS
 10
942.70196741109578
 20
15.859298350976131
 30
0.0
 11
942.70196741109555
 21
15.63407335097622
 31
0.0
  0
LINE
  5
5A87
  8
DEFPOINTS
  6
CONTINUOUS
 10
934.61869991109506
 20
15.73282585097604
 30
0.0
 11
934.61869991109506
 21
15.50991085097621
 31
0.0
  0
LINE
  5
5A88
  8
DEFPOINTS
  6
CONTINUOUS
 10
935.9261599110954
 20
15.73282585097604
 30
0.0
 11
935.9261599110954
 21
15.50991085097621
 31
0.0
  0
LINE
  5
5A89
  8
DEFPOINTS
  6
CONTINUOUS
 10
933.63579491109601
 20
15.73282585097604
 30
0.0
 11
933.63579491109601
 21
15.50991085097621
 31
0.0
  0
LINE
  5
5A8A
  8
DEFPOINTS
  6
CONTINUOUS
 10
934.50781991109568
 20
15.73282585097604
 30
0.0
 11
934.50781991109545
 21
15.50991085097621
 31
0.0
  0
LINE
  5
5A8B
  8
DEFPOINTS
  6
CONTINUOUS
 10
928.08429983009535
 20
15.73282585097604
 30
0.0
 11
928.08429983009592
 21
15.50991085097621
 31
0.0
  0
LINE
  5
5A8C
  8
DEFPOINTS
  6
CONTINUOUS
 10
929.53728983009523
 20
15.73282585097604
 30
0.0
 11
929.53728983009523
 21
15.50991085097621
 31
0.0
  0
LINE
  5
5A8D
  8
DEFPOINTS
  6
CONTINUOUS
 10
925.51210241109595
 20
16.064310850975971
 30
0.0
 11
925.51233111109514
 21
15.46717585097622
 31
0.0
  0
LINE
  5
5A8E
  8
DEFPOINTS
  6
CONTINUOUS
 10
926.15601491109555
 20
16.064310850975971
 30
0.0
 11
926.15601491109555
 21
15.46717585097622
 31
0.0
  0
LINE
  5
5A8F
  8
DEFPOINTS
  6
CONTINUOUS
 10
925.51233111109514
 20
15.46717585097622
 30
0.0
 11
925.28826111109652
 21
15.45909085097605
 31
0.0
  0
LINE
  5
5A90
  8
DEFPOINTS
  6
CONTINUOUS
 10
926.15601491109555
 20
15.46717585097622
 30
0.0
 11
926.15601491109555
 21
15.45909085097605
 31
0.0
  0
LINE
  5
5A91
  8
DEFPOINTS
  6
CONTINUOUS
 10
939.34900241109563
 20
15.50991085097621
 30
0.0
 11
939.34900241109563
 21
15.29739085097617
 31
0.0
  0
LINE
  5
5A92
  8
DEFPOINTS
  6
CONTINUOUS
 10
942.70196741109555
 20
15.50991085097621
 30
0.0
 11
942.70196741109555
 21
15.29739085097617
 31
0.0
  0
LINE
  5
5A93
  8
DEFPOINTS
  6
CONTINUOUS
 10
928.55438483009505
 20
15.50991085097621
 30
0.0
 11
928.37510976484396
 21
15.27891085097599
 31
0.0
  0
LINE
  5
5A94
  8
DEFPOINTS
  6
CONTINUOUS
 10
929.17808483009549
 20
15.50991085097621
 30
0.0
 11
929.54189741109531
 21
15.27891085097599
 31
0.0
  0
LINE
  5
5A95
  8
DEFPOINTS
  6
CONTINUOUS
 10
935.38677491109547
 20
15.50991085097621
 30
0.0
 11
935.38677491109547
 21
15.269670850976119
 31
0.0
  0
LINE
  5
5A96
  8
DEFPOINTS
  6
CONTINUOUS
 10
935.9261599110954
 20
15.50991085097621
 30
0.0
 11
935.9261599110954
 21
15.269670850976119
 31
0.0
  0
LINE
  5
5A97
  8
DEFPOINTS
  6
CONTINUOUS
 10
934.61869991109506
 20
15.50991085097621
 30
0.0
 11
934.61869991109506
 21
15.269670850976119
 31
0.0
  0
LINE
  5
5A98
  8
DEFPOINTS
  6
CONTINUOUS
 10
935.17425491109532
 20
15.50991085097621
 30
0.0
 11
935.17425491109589
 21
15.269670850976119
 31
0.0
  0
LINE
  5
5A99
  8
DEFPOINTS
  6
CONTINUOUS
 10
923.4273274110966
 20
16.064310850975971
 30
0.0
 11
923.42732741109558
 21
15.269670850976119
 31
0.0
  0
LINE
  5
5A9A
  8
DEFPOINTS
  6
CONTINUOUS
 10
923.99327741109585
 20
16.064310850975971
 30
0.0
 11
923.99327741109585
 21
15.269670850976119
 31
0.0
  0
LINE
  5
5A9B
  8
DEFPOINTS
  6
CONTINUOUS
 10
922.59572741109548
 20
16.064310850975971
 30
0.0
 11
922.59572741109548
 21
15.269670850976119
 31
0.0
  0
LINE
  5
5A9C
  8
DEFPOINTS
  6
CONTINUOUS
 10
923.17207241109509
 20
16.064310850975971
 30
0.0
 11
923.17207241109509
 21
15.269670850976119
 31
0.0
  0
LINE
  5
5A9D
  8
DEFPOINTS
  6
CONTINUOUS
 10
925.28826111109652
 20
15.45909085097605
 30
0.0
 11
925.34693741109675
 21
15.22693585097613
 31
0.0
  0
LINE
  5
5A9E
  8
DEFPOINTS
  6
CONTINUOUS
 10
926.15601491109555
 20
15.45909085097605
 30
0.0
 11
926.15601491109555
 21
15.22693585097613
 31
0.0
  0
LINE
  5
5A9F
  8
DEFPOINTS
  6
CONTINUOUS
 10
924.52805483009524
 20
16.064310850975971
 30
0.0
 11
924.13187741109596
 21
15.22693585097613
 31
0.0
  0
LINE
  5
5AA0
  8
DEFPOINTS
  6
CONTINUOUS
 10
925.24877483009504
 20
16.064310850975971
 30
0.0
 11
924.85259741109473
 21
15.22693585097613
 31
0.0
  0
LINE
  5
5AA1
  8
DEFPOINTS
  6
CONTINUOUS
 10
940.68533741109513
 20
15.29739085097617
 30
0.0
 11
940.68533741109513
 21
15.09122335097595
 31
0.0
  0
LINE
  5
5AA2
  8
DEFPOINTS
  6
CONTINUOUS
 10
941.32636241109503
 20
15.29739085097617
 30
0.0
 11
941.32636241109503
 21
15.09122335097595
 31
0.0
  0
LINE
  5
5AA3
  8
DEFPOINTS
  6
CONTINUOUS
 10
934.61869991109506
 20
15.269670850976119
 30
0.0
 11
934.61869991109506
 21
15.030585850976189
 31
0.0
  0
LINE
  5
5AA4
  8
DEFPOINTS
  6
CONTINUOUS
 10
935.9261599110954
 20
15.269670850976119
 30
0.0
 11
935.9261599110954
 21
15.030585850976189
 31
0.0
  0
LINE
  5
5AA5
  8
DEFPOINTS
  6
CONTINUOUS
 10
922.59572741109548
 20
15.269670850976119
 30
0.0
 11
922.59572741109548
 21
15.030585850976189
 31
0.0
  0
LINE
  5
5AA6
  8
DEFPOINTS
  6
CONTINUOUS
 10
923.99327741109585
 20
15.269670850976119
 30
0.0
 11
923.99327741109585
 21
15.030585850976189
 31
0.0
  0
LINE
  5
5AA7
  8
DEFPOINTS
  6
CONTINUOUS
 10
928.37510976484396
 20
15.27891085097599
 30
0.0
 11
928.090062411095
 21
14.9116208509763
 31
0.0
  0
LINE
  5
5AA8
  8
DEFPOINTS
  6
CONTINUOUS
 10
929.54189741109531
 20
15.27891085097599
 30
0.0
 11
929.54218146666403
 21
14.9116208509763
 31
0.0
  0
LINE
  5
5AA9
  8
DEFPOINTS
  6
CONTINUOUS
 10
939.2126637060959
 20
15.09122335097595
 30
0.0
 11
939.2126637060959
 21
14.879858350975841
 31
0.0
  0
LINE
  5
5AAA
  8
DEFPOINTS
  6
CONTINUOUS
 10
942.804762411095
 20
15.09122335097595
 30
0.0
 11
942.804762411095
 21
14.879858350975841
 31
0.0
  0
LINE
  5
5AAB
  8
DEFPOINTS
  6
CONTINUOUS
 10
928.090062411095
 20
14.9116208509763
 30
0.0
 11
928.09009927335467
 21
14.838342342412711
 31
0.0
  0
LINE
  5
5AAC
  8
DEFPOINTS
  6
CONTINUOUS
 10
929.54218146666403
 20
14.9116208509763
 30
0.0
 11
929.54223813896238
 21
14.838342342412711
 31
0.0
  0
LINE
  5
5AAD
  8
DEFPOINTS
  6
CONTINUOUS
 10
935.38677491109547
 20
15.030585850976189
 30
0.0
 11
935.38677491109547
 21
14.800740850976119
 31
0.0
  0
LINE
  5
5AAE
  8
DEFPOINTS
  6
CONTINUOUS
 10
935.9261599110954
 20
15.030585850976189
 30
0.0
 11
935.9261599110954
 21
14.800740850976119
 31
0.0
  0
LINE
  5
5AAF
  8
DEFPOINTS
  6
CONTINUOUS
 10
934.61869991109506
 20
15.030585850976189
 30
0.0
 11
934.61869991109506
 21
14.800740850976119
 31
0.0
  0
LINE
  5
5AB0
  8
DEFPOINTS
  6
CONTINUOUS
 10
935.17425491109441
 20
15.030585850976189
 30
0.0
 11
935.17425491109532
 21
14.800740850976119
 31
0.0
  0
LINE
  5
5AB1
  8
DEFPOINTS
  6
CONTINUOUS
 10
924.13187741109505
 20
15.030585850976189
 30
0.0
 11
924.13187741109505
 21
14.7995858509762
 31
0.0
  0
LINE
  5
5AB2
  8
DEFPOINTS
  6
CONTINUOUS
 10
926.15601491109555
 20
15.030585850976189
 30
0.0
 11
926.15601491109555
 21
14.7995858509762
 31
0.0
  0
LINE
  5
5AB3
  8
DEFPOINTS
  6
CONTINUOUS
 10
929.5424115438517
 20
14.614126066384181
 30
0.0
 11
929.54241704543165
 21
14.60701240458843
 31
0.0
  0
LINE
  5
5AB4
  8
DEFPOINTS
  6
CONTINUOUS
 10
929.54241704543165
 20
14.60701240458843
 30
0.0
 11
929.53121341054725
 21
14.614126066384181
 31
0.0
  0
LINE
  5
5AB5
  8
DEFPOINTS
  6
CONTINUOUS
 10
929.17808483009549
 20
14.838342342412711
 30
0.0
 11
929.53121341054725
 21
14.614126066384181
 31
0.0
  0
LINE
  5
5AB6
  8
DEFPOINTS
  6
CONTINUOUS
 10
929.54223813896238
 20
14.838342342412711
 30
0.0
 11
929.5424115438517
 21
14.614126066384181
 31
0.0
  0
LINE
  5
5AB7
  8
DEFPOINTS
  6
CONTINUOUS
 10
928.09009927335467
 20
14.838342342412711
 30
0.0
 11
928.09021206384045
 21
14.614126066384181
 31
0.0
  0
LINE
  5
5AB8
  8
DEFPOINTS
  6
CONTINUOUS
 10
929.17808483009549
 20
14.838342342412711
 30
0.0
 11
929.17808483009537
 21
14.614126066384181
 31
0.0
  0
LINE
  5
5AB9
  8
DEFPOINTS
  6
CONTINUOUS
 10
929.17808483009537
 20
14.614126066384181
 30
0.0
 11
929.17808483009537
 21
14.60701240458843
 31
0.0
  0
LINE
  5
5ABA
  8
DEFPOINTS
  6
CONTINUOUS
 10
928.09021206384045
 20
14.614126066384181
 30
0.0
 11
928.09021564232
 21
14.60701240458843
 31
0.0
  0
LINE
  5
5ABB
  8
DEFPOINTS
  6
CONTINUOUS
 10
936.01162991109538
 20
16.283760850976019
 30
0.0
 11
936.01162991109538
 21
14.56165585097596
 31
0.0
  0
LINE
  5
5ABC
  8
DEFPOINTS
  6
CONTINUOUS
 10
936.53253491109592
 20
16.283760850976019
 30
0.0
 11
936.53253491109592
 21
14.56165585097596
 31
0.0
  0
LINE
  5
5ABD
  8
DEFPOINTS
  6
CONTINUOUS
 10
934.61869991109506
 20
14.800740850976119
 30
0.0
 11
934.61869991109506
 21
14.56165585097596
 31
0.0
  0
LINE
  5
5ABE
  8
DEFPOINTS
  6
CONTINUOUS
 10
935.9261599110954
 20
14.800740850976119
 30
0.0
 11
935.9261599110954
 21
14.56165585097596
 31
0.0
  0
LINE
  5
5ABF
  8
DEFPOINTS
  6
CONTINUOUS
 10
934.73363498009576
 20
14.56165585097596
 30
0.0
 11
934.72969819894615
 21
14.55451071597599
 31
0.0
  0
LINE
  5
5AC0
  8
DEFPOINTS
  6
CONTINUOUS
 10
935.8496934270961
 20
14.56165585097596
 30
0.0
 11
935.85440031128201
 21
14.55451071597599
 31
0.0
  0
LINE
  5
5AC1
  8
DEFPOINTS
  6
CONTINUOUS
 10
939.21266370609555
 20
14.71296085097606
 30
0.0
 11
939.21266370609555
 21
14.51083585097626
 31
0.0
  0
LINE
  5
5AC2
  8
DEFPOINTS
  6
CONTINUOUS
 10
942.804762411095
 20
14.71296085097606
 30
0.0
 11
942.80476241109523
 21
14.51083585097626
 31
0.0
  0
LINE
  5
5AC3
  8
DEFPOINTS
  6
CONTINUOUS
 10
936.67499868009497
 20
16.283760850976019
 30
0.0
 11
936.67499868009497
 21
14.25096085097584
 31
0.0
  0
LINE
  5
5AC4
  8
DEFPOINTS
  6
CONTINUOUS
 10
937.23055368009602
 20
16.283760850976019
 30
0.0
 11
937.23055368009557
 21
14.25096085097584
 31
0.0
  0
LINE
  5
5AC5
  8
DEFPOINTS
  6
CONTINUOUS
 10
931.00644983009613
 20
16.064310850975971
 30
0.0
 11
931.00644983009533
 21
14.25096085097584
 31
0.0
  0
LINE
  5
5AC6
  8
DEFPOINTS
  6
CONTINUOUS
 10
931.67288483009543
 20
16.064310850975971
 30
0.0
 11
931.67288483009543
 21
14.25096085097584
 31
0.0
  0
LINE
  5
5AC7
  8
DEFPOINTS
  6
CONTINUOUS
 10
929.66549483009544
 20
16.064310850975971
 30
0.0
 11
929.66549483009544
 21
14.25096085097584
 31
0.0
  0
LINE
  5
5AC8
  8
DEFPOINTS
  6
CONTINUOUS
 10
930.31460483009562
 20
16.064310850975971
 30
0.0
 11
930.31460483009585
 21
14.25096085097584
 31
0.0
  0
LINE
  5
5AC9
  8
DEFPOINTS
  6
CONTINUOUS
 10
925.51210241109595
 20
14.7995858509762
 30
0.0
 11
925.51210241109595
 21
14.25096085097584
 31
0.0
  0
LINE
  5
5ACA
  8
DEFPOINTS
  6
CONTINUOUS
 10
926.15601491109555
 20
14.7995858509762
 30
0.0
 11
926.15601491109555
 21
14.25096085097584
 31
0.0
  0
LINE
  5
5ACB
  8
DEFPOINTS
  6
CONTINUOUS
 10
924.13187741109505
 20
14.7995858509762
 30
0.0
 11
924.13187741109505
 21
14.25096085097584
 31
0.0
  0
LINE
  5
5ACC
  8
DEFPOINTS
  6
CONTINUOUS
 10
924.7931149110957
 20
14.7995858509762
 30
0.0
 11
924.79311491109593
 21
14.25096085097584
 31
0.0
  0
LINE
  5
5ACD
  8
DEFPOINTS
  6
CONTINUOUS
 10
923.42732741109558
 20
15.030585850976189
 30
0.0
 11
923.42732741109558
 21
14.25096085097584
 31
0.0
  0
LINE
  5
5ACE
  8
DEFPOINTS
  6
CONTINUOUS
 10
923.99327741109585
 20
15.030585850976189
 30
0.0
 11
923.99327741109585
 21
14.25096085097584
 31
0.0
  0
LINE
  5
5ACF
  8
DEFPOINTS
  6
CONTINUOUS
 10
922.59572741109548
 20
15.030585850976189
 30
0.0
 11
922.59572741109548
 21
14.25096085097584
 31
0.0
  0
LINE
  5
5AD0
  8
DEFPOINTS
  6
CONTINUOUS
 10
923.17207241109554
 20
15.030585850976189
 30
0.0
 11
923.17207241109554
 21
14.25096085097584
 31
0.0
  0
LINE
  5
5AD1
  8
DEFPOINTS
  6
CONTINUOUS
 10
928.23892457420823
 20
14.207648350976109
 30
0.0
 11
928.09051273769637
 21
14.016416323742069
 31
0.0
  0
LINE
  5
5AD2
  8
DEFPOINTS
  6
CONTINUOUS
 10
928.09051273769637
 20
14.016416323742069
 30
0.0
 11
928.0904165397144
 21
14.207648350976109
 31
0.0
  0
LINE
  5
5AD3
  8
DEFPOINTS
  6
CONTINUOUS
 10
942.16373741109589
 20
14.51083585097626
 30
0.0
 11
942.16373741109498
 21
14.207648350976109
 31
0.0
  0
LINE
  5
5AD4
  8
DEFPOINTS
  6
CONTINUOUS
 10
942.80476241109523
 20
14.51083585097626
 30
0.0
 11
942.80476241109568
 21
14.207648350976109
 31
0.0
  0
LINE
  5
5AD5
  8
DEFPOINTS
  6
CONTINUOUS
 10
940.68533741109513
 20
14.51083585097626
 30
0.0
 11
940.68533741109604
 21
14.207648350976109
 31
0.0
  0
LINE
  5
5AD6
  8
DEFPOINTS
  6
CONTINUOUS
 10
941.32636241109503
 20
14.51083585097626
 30
0.0
 11
941.32636241109503
 21
14.207648350976109
 31
0.0
  0
LINE
  5
5AD7
  8
DEFPOINTS
  6
CONTINUOUS
 10
939.21266370609555
 20
14.51083585097626
 30
0.0
 11
939.21266370609555
 21
14.207648350976109
 31
0.0
  0
LINE
  5
5AD8
  8
DEFPOINTS
  6
CONTINUOUS
 10
939.85720241109584
 20
14.51083585097626
 30
0.0
 11
939.85720241109561
 21
14.207648350976109
 31
0.0
  0
LINE
  5
5AD9
  8
DEFPOINTS
  6
CONTINUOUS
 10
928.09021564232
 20
14.60701240458843
 30
0.0
 11
928.0904165397144
 21
14.207648350976109
 31
0.0
  0
LINE
  5
5ADA
  8
DEFPOINTS
  6
CONTINUOUS
 10
928.54886404141325
 20
14.60701240458843
 30
0.0
 11
928.23892457420823
 21
14.207648350976109
 31
0.0
  0
LINE
  5
5ADB
  8
DEFPOINTS
  6
CONTINUOUS
 10
939.21266370609555
 20
14.207648350976109
 30
0.0
 11
939.21266370609555
 21
14.00841085097613
 31
0.0
  0
LINE
  5
5ADC
  8
DEFPOINTS
  6
CONTINUOUS
 10
942.80476241109568
 20
14.207648350976109
 30
0.0
 11
942.80476241109591
 21
14.00841085097613
 31
0.0
  0
LINE
  5
5ADD
  8
DEFPOINTS
  6
CONTINUOUS
 10
936.41326317309586
 20
14.25096085097584
 30
0.0
 11
936.49994497709599
 21
14.00841085097613
 31
0.0
  0
LINE
  5
5ADE
  8
DEFPOINTS
  6
CONTINUOUS
 10
937.23055368009557
 20
14.25096085097584
 30
0.0
 11
937.23055368009557
 21
14.00841085097613
 31
0.0
  0
LINE
  5
5ADF
  8
DEFPOINTS
  6
CONTINUOUS
 10
935.27860368009624
 20
14.55451071597599
 30
0.0
 11
935.63834899109565
 21
14.00841085097613
 31
0.0
  0
LINE
  5
5AE0
  8
DEFPOINTS
  6
CONTINUOUS
 10
935.85440031128201
 20
14.55451071597599
 30
0.0
 11
936.21414562309565
 21
14.00841085097613
 31
0.0
  0
LINE
  5
5AE1
  8
DEFPOINTS
  6
CONTINUOUS
 10
934.72969819894615
 20
14.55451071597599
 30
0.0
 11
934.4288115600948
 21
14.00841085097613
 31
0.0
  0
LINE
  5
5AE2
  8
DEFPOINTS
  6
CONTINUOUS
 10
935.27860368009624
 20
14.55451071597599
 30
0.0
 11
934.97771704167133
 21
14.00841085097613
 31
0.0
  0
LINE
  5
5AE3
  8
DEFPOINTS
  6
CONTINUOUS
 10
933.93500917309575
 20
15.117210850976329
 30
0.0
 11
933.63579491109601
 21
14.00841085097613
 31
0.0
  0
LINE
  5
5AE4
  8
DEFPOINTS
  6
CONTINUOUS
 10
934.50781991109488
 20
15.117210850976329
 30
0.0
 11
934.20860564809561
 21
14.00841085097613
 31
0.0
  0
LINE
  5
5AE5
  8
DEFPOINTS
  6
CONTINUOUS
 10
929.66549483009544
 20
14.25096085097584
 30
0.0
 11
929.66549483009544
 21
14.00841085097613
 31
0.0
  0
LINE
  5
5AE6
  8
DEFPOINTS
  6
CONTINUOUS
 10
931.67288483009543
 20
14.25096085097584
 30
0.0
 11
931.67288483009543
 21
14.00841085097613
 31
0.0
  0
LINE
  5
5AE7
  8
DEFPOINTS
  6
CONTINUOUS
 10
928.55438483009436
 20
14.60701240458843
 30
0.0
 11
928.55438483009596
 21
14.00841085097613
 31
0.0
  0
LINE
  5
5AE8
  8
DEFPOINTS
  6
CONTINUOUS
 10
929.17808483009537
 20
14.60701240458843
 30
0.0
 11
929.17808483009503
 21
14.00841085097613
 31
0.0
  0
LINE
  5
5AE9
  8
DEFPOINTS
  6
CONTINUOUS
 10
924.13187741109505
 20
14.25096085097584
 30
0.0
 11
924.13187741109505
 21
14.00841085097613
 31
0.0
  0
LINE
  5
5AEA
  8
DEFPOINTS
  6
CONTINUOUS
 10
926.15601491109555
 20
14.25096085097584
 30
0.0
 11
926.15601491109555
 21
14.00841085097613
 31
0.0
  0
LINE
  5
5AEB
  8
DEFPOINTS
  6
CONTINUOUS
 10
922.59572741109548
 20
14.25096085097584
 30
0.0
 11
922.59572741109548
 21
14.00841085097613
 31
0.0
  0
LINE
  5
5AEC
  8
DEFPOINTS
  6
CONTINUOUS
 10
923.99327741109585
 20
14.25096085097584
 30
0.0
 11
923.99327741109585
 21
14.00841085097613
 31
0.0
  0
ENDBLK
  5
5AEE
  8
0
  0
BLOCK
  8
0
  2
*U24
 70
     1
 10
0.0
 20
0.0
 30
0.0
  3
*U24
  1

  0
TEXT
  5
5B69
  8
002寸法
 62
     2
 10
7.1499999999999986
 20
7.9282032302754706
 30
0.0
 40
3.0
  1
G
 41
0.9
  0
ENDBLK
  5
5B6B
  8
0
  0
BLOCK
  8
0
  2
*U25
 70
     1
 10
0.0
 20
0.0
 30
0.0
  3
*U25
  1

  0
TEXT
  5
5B78
  8
003注釈
 10
953.0
 20
33.999999999999908
 30
0.0
 40
3.0
  1
外観図
 41
0.9
  0
ENDBLK
  5
5B7A
  8
0
  0
BLOCK
  8
0
  2
*U26
 70
     1
 10
0.0
 20
0.0
 30
0.0
  3
*U26
  1

  0
TEXT
  5
5B7C
  8
003注釈
 10
952.61428571428576
 20
12.0
 30
0.0
 40
3.0
  1
C-0412-A2
 41
0.9
  0
ENDBLK
  5
5B7E
  8
0
  0
BLOCK
  8
0
  2
*U27
 70
     1
 10
0.0
 20
0.0
 30
0.0
  3
*U27
  1

  0
TEXT
  5
5B80
  8
003注釈
 10
952.48571428571415
 20
22.999999999999911
 30
0.0
 40
3.0
  1
DBU-□N
 41
0.9
  0
ENDBLK
  5
5B82
  8
0
  0
BLOCK
  8
0
  2
*U28
 70
     1
 10
0.0
 20
0.0
 30
0.0
  3
*U28
  1

  0
TEXT
  5
5B84
  8
003注釈
 10
936.18571428571431
 20
36.666666666666437
 30
0.0
 40
2.0
  1
2016.
 41
0.9
  0
TEXT
  5
5B85
  8
003注釈
 10
936.14285714285722
 20
33.333333333333101
 30
0.0
 40
2.0
  1
08.23
 41
0.9
  0
ENDBLK
  5
5B87
  8
0
  0
BLOCK
  8
0
  2
*U29
 70
     1
 10
0.0
 20
0.0
 30
0.0
  3
*U29
  1

  0
TEXT
  5
5B89
  8
003注釈
 10
870.92142857142846
 20
23.499999999999769
 30
0.0
 40
3.0
  1
1  1
 41
0.9
  0
ENDBLK
  5
5B8B
  8
0
  0
BLOCK
  8
0
  2
*U30
 70
     1
 10
0.0
 20
0.0
 30
0.0
  3
*U30
  1

  0
TEXT
  5
5B8D
  8
003注釈
 10
937.11999999999989
 20
23.499999999999769
 30
0.0
 40
3.0
  1
益子
 41
0.9
  0
ENDBLK
  5
5B8F
  8
0
  0
BLOCK
  8
0
  2
*U31
 70
     1
 10
0.0
 20
0.0
 30
0.0
  3
*U31
  1

  0
TEXT
  5
5BBB
  8
003注釈
 10
915.52857142857135
 20
273.0
 30
0.0
 40
3.0
  1
(+)
 41
0.9
  7
注釈
  0
ENDBLK
  5
5BBD
  8
0
  0
BLOCK
  8
0
  2
*U32
 70
     1
 10
0.0
 20
0.0
 30
0.0
  3
*U32
  1

  0
TEXT
  5
5BBF
  8
003注釈
 10
915.52857142857135
 20
256.42857142857139
 30
0.0
 40
3.0
  1
(-)
 41
0.9
  7
注釈
  0
ENDBLK
  5
5BC1
  8
0
  0
BLOCK
  8
0
  2
*U33
 70
     1
 10
0.0
 20
0.0
 30
0.0
  3
*U33
  1

  0
TEXT
  5
5BC3
  8
003注釈
 10
901.94000000000005
 20
264.5
 30
0.0
 40
3.0
  1
荷重方向
 41
0.9
  7
注釈
  0
ENDBLK
  5
5BC5
  8
0
  0
BLOCK
  8
0
  2
*U34
 70
     1
 10
0.0
 20
0.0
 30
0.0
  3
*U34
  1

  0
TEXT
  5
5BC7
  8
002寸法
 62
     2
 10
787.5
 20
184.9285714285715
 30
0.0
 40
3.0
  1
40
 50
90.0
 41
0.9
  0
ENDBLK
  5
5BC9
  8
0
  0
BLOCK
  8
0
  2
*U35
 70
     1
 10
0.0
 20
0.0
 30
0.0
  3
*U35
  1

  0
TEXT
  5
5BCB
  8
002寸法
 62
     2
 10
797.5
 20
154.25000000000011
 30
0.0
 40
3.0
  1
57.5
 50
90.0
 41
0.9
  0
ENDBLK
  5
5BCD
  8
0
  0
BLOCK
  8
0
  2
*U36
 70
     1
 10
0.0
 20
0.0
 30
0.0
  3
*U36
  1

  0
TEXT
  5
5BCF
  8
002寸法
 62
     2
 10
735.92857142857144
 20
246.5
 30
0.0
 40
3.0
  1
69
 41
0.9
  0
ENDBLK
  5
5BD1
  8
0
  0
BLOCK
  8
0
  2
*U37
 70
     1
 10
0.0
 20
0.0
 30
0.0
  3
*U37
  1

  0
TEXT
  5
5BD3
  8
002寸法
 62
     2
 10
914.73142857142852
 20
105.5
 30
0.0
 40
3.0
  1
\U+03C688
 41
0.9
  0
ENDBLK
  5
5BD5
  8
0
  0
BLOCK
  8
0
  2
*U38
 70
     1
 10
0.0
 20
0.0
 30
0.0
  3
*U38
  1

  0
TEXT
  5
5BD7
  8
002寸法
 62
     2
 10
914.73142857142852
 20
115.5
 30
0.0
 40
3.0
  1
\U+03C650
 41
0.9
  0
ENDBLK
  5
5BD9
  8
0
  0
BLOCK
  8
0
  2
*U39
 70
     1
 10
0.0
 20
0.0
 30
0.0
  3
*U39
  1

  0
TEXT
  5
5BDB
  8
002寸法
 62
     2
 10
914.73142857142852
 20
246.5
 30
0.0
 40
3.0
  1
\U+03C618
 41
0.9
  0
ENDBLK
  5
5BDD
  8
0
  0
BLOCK
  8
0
  2
*U40
 70
     1
 10
0.0
 20
0.0
 30
0.0
  3
*U40
  1

  0
TEXT
  5
5BDF
  8
002寸法
 62
     2
 10
977.5
 20
177.88571428571441
 30
0.0
 40
3.0
  1
104
 50
90.0
 41
0.9
  0
ENDBLK
  5
5BE1
  8
0
  0
BLOCK
  8
0
  2
*U41
 70
     1
 10
0.0
 20
0.0
 30
0.0
  3
*U41
  1

  0
TEXT
  5
5BE3
  8
002寸法
 62
     2
 10
987.5
 20
178.9500000000001
 30
0.0
 40
3.0
  1
106
 50
90.0
 41
0.9
  0
ENDBLK
  5
5BE5
  8
0
  0
BLOCK
  8
0
  2
*U42
 70
     1
 10
0.0
 20
0.0
 30
0.0
  3
*U42
  1

  0
TEXT
  5
5BF0
  8
002寸法
 62
     2
 10
863.62857142857138
 20
214.0
 30
0.0
 40
3.0
  1
(32)
 41
0.9
  0
ENDBLK
  5
5BF2
  8
0
  0
BLOCK
  8
0
  2
*U43
 70
     1
 10
0.0
 20
0.0
 30
0.0
  3
*U43
  1

  0
TEXT
  5
5BF6
  8
002寸法
 62
     2
 10
847.68679656440372
 20
247.7132034355964
 30
0.0
 40
3.0
  1
2-M12\U+00D71.75ねじ深さ15
 41
0.9
  0
POLYLINE
  5
5BF7
  8
002寸法
  6
BYBLOCK
 66
     1
 10
0.0
 20
0.0
 30
0.0
  0
VERTEX
  5
5BF8
  8
002寸法
  6
BYBLOCK
 10
911.23223304703356
 20
227.66776695296639
 30
0.0
  0
VERTEX
  5
5BF9
  8
002寸法
  6
BYBLOCK
 10
891.78679656440363
 20
247.1132034355964
 30
0.0
  0
SEQEND
  5
5BFA
  8
002寸法
  6
BYBLOCK
  0
INSERT
  5
5BFB
  8
002寸法
  2
_OPEN
 10
913.0
 20
225.90000000000001
 30
0.0
 41
2.5
 42
2.5
 43
2.5
 50
314.99999999999989
  0
POLYLINE
  5
5BFC
  8
002寸法
  6
BYBLOCK
 66
     1
 10
0.0
 20
0.0
 30
0.0
  0
VERTEX
  5
5BFD
  8
002寸法
  6
BYBLOCK
 10
848.07251085011785
 20
247.1132034355964
 30
0.0
  0
VERTEX
  5
5BFE
  8
002寸法
  6
BYBLOCK
 10
891.78679656440363
 20
247.1132034355964
 30
0.0
  0
SEQEND
  5
5BFF
  8
002寸法
  6
BYBLOCK
  0
ENDBLK
  5
5C01
  8
0
  0
BLOCK
  8
0
  2
*U44
 70
     1
 10
0.0
 20
0.0
 30
0.0
  3
*U44
  1

  0
TEXT
  5
5C03
  8
003注釈
 10
933.61428571428576
 20
72.0
 30
0.0
 40
3.0
  1
50,100,200,500 N,1,2,5 kN
 41
0.9
  0
ENDBLK
  5
5C05
  8
0
  0
BLOCK
  8
0
  2
*U45
 70
     1
 10
0.0
 20
0.0
 30
0.0
  3
*U45
  1

  0
TEXT
  5
5C07
  8
002寸法
 62
     2
 10
638.87848215723932
 20
41.99039392630911
 30
0.0
 40
3.0
  1
P.C.D.40
 50
350.00000000000023
 41
0.9
  0
ENDBLK
  5
5C09
  8
0
  0
BLOCK
  8
0
  2
*U46
 70
     1
 10
0.0
 20
0.0
 30
0.0
  3
*U46
  1

  0
TEXT
  5
5C0D
  8
002寸法
 62
     2
 10
652.78795971502541
 20
83.379168675293698
 30
0.0
 40
3.0
  1
4-M4ねじ深さ8
 41
0.9
  0
POLYLINE
  5
5C0E
  8
002寸法
  6
BYBLOCK
 66
     1
 10
0.0
 20
0.0
 30
0.0
  0
VERTEX
  5
5C0F
  8
002寸法
  6
BYBLOCK
 10
688.69317867322252
 20
48.488801842350071
 30
0.0
  0
VERTEX
  5
5C10
  8
002寸法
  6
BYBLOCK
 10
679.5051025721682
 20
82.779168675293704
 30
0.0
  0
SEQEND
  5
5C11
  8
002寸法
  6
BYBLOCK
  0
INSERT
  5
5C12
  8
002寸法
  2
_OPEN
 10
689.34022628597882
 20
46.073987276627392
 30
0.0
 41
2.5
 42
2.5
 43
2.5
 50
285.00000000000023
  0
POLYLINE
  5
5C13
  8
002寸法
  6
BYBLOCK
 66
     1
 10
0.0
 20
0.0
 30
0.0
  0
VERTEX
  5
5C14
  8
002寸法
  6
BYBLOCK
 10
653.17367400073965
 20
82.779168675293704
 30
0.0
  0
VERTEX
  5
5C15
  8
002寸法
  6
BYBLOCK
 10
679.5051025721682
 20
82.779168675293704
 30
0.0
  0
SEQEND
  5
5C16
  8
002寸法
  6
BYBLOCK
  0
ENDBLK
  5
5C18
  8
0
  0
ENDSEC
  0
SECTION
  2
ENTITIES
  0
POLYLINE
  5
51C
  8
DEFPOINTS
 66
     1
 10
0.0
 20
0.0
 30
0.0
 70
     1
  0
VERTEX
  5
59D9
  8
DEFPOINTS
 10
594.0
 20
0.0
 30
0.0
  0
VERTEX
  5
59DA
  8
DEFPOINTS
 10
1014.0
 20
0.0
 30
0.0
  0
VERTEX
  5
59DB
  8
DEFPOINTS
 10
1014.0
 20
297.0
 30
0.0
  0
VERTEX
  5
59DC
  8
DEFPOINTS
 10
594.0
 20
297.0
 30
0.0
  0
SEQEND
  5
59DD
  8
DEFPOINTS
  0
POLYLINE
  5
51E
  8
DEFPOINTS
 66
     1
 10
0.0
 20
0.0
 30
0.0
 70
     1
  0
VERTEX
  5
59DE
  8
DEFPOINTS
 10
618.5
 20
10.0
 30
0.0
  0
VERTEX
  5
59DF
  8
DEFPOINTS
 10
1003.5
 20
10.0
 30
0.0
  0
VERTEX
  5
59E0
  8
DEFPOINTS
 10
1003.5
 20
287.0
 30
0.0
  0
VERTEX
  5
59E1
  8
DEFPOINTS
 10
618.5
 20
287.0
 30
0.0
  0
SEQEND
  5
59E2
  8
DEFPOINTS
  0
TEXT
  5
564
  8
DEFPOINTS
 10
885.67484246066442
 20
12.33342050470014
 30
0.0
 40
7.5
  1
Ａ３
 41
0.7222222220000001
  7
表題
  0
LINE
  5
565
  8
DEFPOINTS
 10
827.0
 20
59.0
 30
0.0
 11
1003.5
 21
59.0
 31
0.0
  0
LINE
  5
566
  8
DEFPOINTS
 10
827.0
 20
51.0
 30
0.0
 11
1003.5
 21
51.0
 31
0.0
  0
POLYLINE
  5
567
  8
DEFPOINTS
 66
     1
 10
0.0
 20
0.0
 30
0.0
 70
     1
  0
VERTEX
  5
59E3
  8
DEFPOINTS
 10
827.0
 20
67.0
 30
0.0
  0
VERTEX
  5
59E4
  8
DEFPOINTS
 10
1003.5
 20
67.0
 30
0.0
  0
VERTEX
  5
59E5
  8
DEFPOINTS
 10
1003.5
 20
10.0
 30
0.0
  0
VERTEX
  5
59E6
  8
DEFPOINTS
 10
827.0
 20
10.0
 30
0.0
  0
SEQEND
  5
59E7
  8
DEFPOINTS
  0
LINE
  5
568
  8
DEFPOINTS
 10
868.0
 20
20.999999999999769
 30
0.0
 11
1003.5
 21
21.0
 31
0.0
  0
LINE
  5
569
  8
DEFPOINTS
 10
868.0
 20
31.999999999999769
 30
0.0
 11
1003.5
 21
32.0
 31
0.0
  0
LINE
  5
56A
  8
DEFPOINTS
 10
867.99999999999966
 20
42.999999999999773
 30
0.0
 11
1003.5
 21
43.0
 31
0.0
  0
TEXT
  5
56C
  8
DEFPOINTS
 10
932.31316843730963
 20
40.499999999999773
 30
0.0
 40
2.0
  1
作成日付
  7
表題
 72
     1
 11
937.59151895277364
 21
40.499999999999773
 31
0.0
  0
INSERT
  5
56D
  8
DEFPOINTS
  6
CONTINUOUS
  2
*U23
 10
0.0
 20
0.0
 30
0.0
1001
ACAD
1002
{
1000
R14_HATCH_DATA
1000
56D
1011
1.0
1021
0.0
1031
0.0
1021
0.0
1031
0.0
1011
0.0
1021
0.0
1031
0.0
1021
1.0
1031
0.0
1011
0.0
1021
0.0
1031
0.0
1021
0.0
1031
1.0
1040
0.0
1010
0.0
1020
0.0
1030
1.0
1000
SOLID,_O
1070
     1
1070
     0
1071
       25
1071
        7
1070
     0
1070
     1
1071
        4
1040
923.99327741109585
1040
16.28376085097625
1040
922.59572741109548
1040
16.28376085097625
1040
922.59572741109548
1040
14.00841085097613
1040
923.99327741109585
1040
14.00841085097613
1071
        0
1071
       22
1070
     0
1070
     1
1071
        4
1040
923.42732741109558
1040
15.030585850976189
1040
923.42732741109558
1040
14.250960850976069
1040
923.17207241109554
1040
14.250960850976069
1040
923.17207241109554
1040
15.030585850976189
1071
        0
1071
       22
1070
     0
1070
     1
1071
        4
1040
923.42732741109558
1040
15.269670850976119
1040
923.17207241109509
1040
15.269670850976119
1040
923.17207241109509
1040
16.064310850975971
1040
923.4273274110966
1040
16.064310850976199
1071
        0
1071
        7
1070
     0
1070
     1
1071
        4
1040
926.15601491109555
1040
15.030585850976189
1040
924.13187741109505
1040
15.030585850976189
1040
924.13187741109505
1040
14.00841085097613
1040
926.15601491109555
1040
14.00841085097613
1071
        0
1071
       22
1070
     0
1070
     1
1071
        4
1040
924.7931149110957
1040
14.7995858509762
1040
925.51210241109595
1040
14.7995858509762
1040
925.51210241109595
1040
14.250960850976069
1040
924.79311491109593
1040
14.250960850976069
1071
        0
1071
        7
1070
     0
1070
     1
1071
       12
1040
925.24877483009504
1040
16.064310850975971
1040
925.51210241109595
1040
16.064310850975971
1040
925.51233111109514
1040
15.46717585097622
1040
925.28826111109652
1040
15.45909085097605
1040
925.34693741109675
1040
15.226935850976361
1040
926.15601491109555
1040
15.22693585097613
1040
926.15601491109555
1040
16.28376085097625
1040
924.13187741109505
1040
16.28376085097625
1040
924.13187741109505
1040
16.064310850976199
1040
924.52805483009524
1040
16.064310850975971
1040
924.13187741109596
1040
15.22693585097613
1040
924.85259741109485
1040
15.226935850976361
1071
        0
1071
        7
1070
     0
1070
     1
1071
       22
1040
929.54189741109531
1040
15.27891085097599
1040
929.17808483009549
1040
15.50991085097621
1040
929.53728983009523
1040
15.50991085097621
1040
929.53728983009523
1040
15.73282585097604
1040
929.17808483009549
1040
15.73282585097604
1040
929.17808483009549
1040
16.064310850976199
1040
929.53728983009569
1040
16.064310850975971
1040
929.53728983009523
1040
16.28376085097625
1040
928.08429983009535
1040
16.28376085097625
1040
928.08429983009535
1040
16.064310850975971
1040
928.55438483009505
1040
16.064310850976199
1040
928.55438483009596
1040
15.73282585097604
1040
928.08429983009535
1040
15.73282585097604
1040
928.08429983009592
1040
15.50991085097621
1040
928.55438483009505
1040
15.50991085097621
1040
928.090062411095
1040
14.9116208509763
1040
928.09051273769637
1040
14.016416323742069
1040
928.55438483009436
1040
14.614126066384181
1040
928.55438483009596
1040
14.00841085097613
1040
929.17808483009503
1040
14.00841085097613
1040
929.17808483009549
1040
14.838342342412711
1040
929.54241704543165
1040
14.60701240458843
1071
        0
1071
        7
1070
     0
1070
     1
1071
        4
1040
931.67288483009543
1040
16.28376085097625
1040
929.66549483009544
1040
16.28376085097625
1040
929.66549483009544
1040
14.00841085097613
1040
931.67288483009543
1040
14.00841085097613
1071
        0
1071
       22
1070
     0
1070
     1
1071
        4
1040
930.31460483009562
1040
16.064310850975971
1040
931.00644983009613
1040
16.064310850975971
1040
931.00644983009533
1040
14.2509608509763
1040
930.31460483009585
1040
14.25096085097584
1071
        0
1071
        7
1070
     0
1070
     1
1071
        4
1040
934.50781991109545
1040
16.283760850976019
1040
933.63579491109522
1040
16.283760850976019
1040
933.63579491109601
1040
16.064310850976199
1040
934.50781991109568
1040
16.064310850975971
1071
        0
1071
        7
1070
     0
1070
     1
1071
        4
1040
934.50781991109568
1040
15.73282585097604
1040
933.63579491109601
1040
15.73282585097604
1040
933.63579491109601
1040
15.50991085097621
1040
934.50781991109545
1040
15.50991085097621
1071
        0
1071
        7
1070
     0
1070
     1
1071
        4
1040
934.50781991109488
1040
15.117210850976329
1040
933.93500917309575
1040
15.117210850976329
1040
933.63579491109601
1040
14.00841085097613
1040
934.20860564809561
1040
14.00841085097613
1071
        0
1071
        7
1070
     0
1070
     1
1071
       11
1040
935.9261599110954
1040
16.28376085097625
1040
934.61869991109506
1040
16.28376085097625
1040
934.61869991109506
1040
14.56165585097596
1040
934.73363498009576
1040
14.56165585097596
1040
934.4288115600948
1040
14.00841085097613
1040
934.97771704167133
1040
14.00841085097613
1040
935.27860368009624
1040
14.55451071597599
1040
935.63834899109565
1040
14.00841085097613
1040
936.21414562309565
1040
14.00841085097613
1040
935.8496934270961
1040
14.56165585097596
1040
935.9261599110954
1040
14.56165585097596
1071
        0
1071
       22
1070
     0
1070
     1
1071
        4
1040
935.17425491109441
1040
15.030585850976189
1040
935.38677491109547
1040
15.030585850976189
1040
935.38677491109547
1040
14.800740850976119
1040
935.17425491109532
1040
14.80074085097635
1071
        0
1071
       22
1070
     0
1070
     1
1071
        4
1040
935.17425491109589
1040
15.269670850976119
1040
935.17425491109532
1040
15.50991085097621
1040
935.38677491109547
1040
15.50991085097621
1040
935.38677491109547
1040
15.269670850976119
1071
        0
1071
       22
1070
     0
1070
     1
1071
        4
1040
935.17425491109589
1040
15.732825850976271
1040
935.1742549110952
1040
16.064310850976199
1040
935.38677491109593
1040
16.064310850975971
1040
935.38677491109593
1040
15.73282585097604
1071
        0
1071
        7
1070
     0
1070
     1
1071
        4
1040
936.53253491109592
1040
16.28376085097625
1040
936.01162991109538
1040
16.28376085097625
1040
936.01162991109538
1040
14.56165585097596
1040
936.53253491109592
1040
14.56165585097596
1071
        0
1071
        7
1070
     0
1070
     1
1071
        6
1040
937.23055368009602
1040
16.28376085097625
1040
936.67499868009497
1040
16.28376085097625
1040
936.67499868009497
1040
14.25096085097584
1040
936.41326317309586
1040
14.25096085097584
1040
936.49994497709599
1040
14.00841085097613
1040
937.23055368009557
1040
14.00841085097613
1071
        0
1071
        7
1070
     0
1070
     1
1071
        4
1040
942.804762411095
1040
14.712960850976289
1040
939.21266370609555
1040
14.71296085097606
1040
939.21266370609555
1040
14.00841085097613
1040
942.80476241109591
1040
14.00841085097613
1071
        0
1071
       22
1070
     0
1070
     1
1071
        4
1040
941.32636241109503
1040
14.510835850976489
1040
942.16373741109589
1040
14.510835850976489
1040
942.16373741109498
1040
14.207648350976109
1040
941.32636241109503
1040
14.207648350976109
1071
        0
1071
       22
1070
     0
1070
     1
1071
        4
1040
940.68533741109604
1040
14.207648350976109
1040
939.85720241109561
1040
14.207648350976109
1040
939.85720241109584
1040
14.51083585097626
1040
940.68533741109513
1040
14.51083585097626
1071
        0
1071
        7
1070
     0
1070
     1
1071
       12
1040
942.804762411095
1040
15.09122335097595
1040
941.32636241109503
1040
15.09122335097595
1040
941.32636241109503
1040
15.29739085097617
1040
942.70196741109555
1040
15.29739085097617
1040
942.70196741109555
1040
15.50991085097621
1040
939.34900241109563
1040
15.50991085097621
1040
939.34900241109563
1040
15.29739085097617
1040
940.68533741109513
1040
15.29739085097617
1040
940.68533741109513
1040
15.09122335097595
1040
939.2126637060959
1040
15.09122335097595
1040
939.2126637060959
1040
14.879858350975841
1040
942.804762411095
1040
14.879858350975841
1071
        0
1071
        7
1070
     0
1070
     1
1071
        4
1040
942.70196741109623
1040
16.28376085097625
1040
939.34900241109563
1040
16.28376085097625
1040
939.34900241109563
1040
15.63407335097622
1040
942.70196741109555
1040
15.63407335097622
1071
        0
1071
       22
1070
     0
1070
     1
1071
        4
1040
941.32636241109594
1040
15.859298350976131
1040
941.32636241109503
1040
16.064310850975971
1040
942.0182074110952
1040
16.064310850975971
1040
942.0182074110952
1040
15.859298350976131
1071
        0
1071
       22
1070
     0
1070
     1
1071
        4
1040
940.68533741109513
1040
15.859298350976131
1040
940.02814241109616
1040
15.859298350976131
1040
940.02814241109616
1040
16.064310850976199
1040
940.68533741109513
1040
16.064310850976199
1071
        0
1070
     1
1070
     1
1040
0.0129395892018505
1071
       25
1040
923.68532805692257
1040
15.105764824061909
1040
0.0
1040
923.68532805692257
1040
15.105764824061909
1040
0.0
1040
923.68532805692257
1040
15.105764824061909
1040
0.0
1040
924.48386773246921
1040
14.640068192843501
1040
0.0
1040
924.48386773246921
1040
14.640068192843501
1040
0.0
1040
924.45058910692751
1040
15.57146950312722
1040
0.0
1040
929.00889642641118
1040
15.07250307835943
1040
0.0
1040
930.07361599380647
1040
15.07250307835943
1040
0.0
1040
930.07361599380647
1040
15.07250307835943
1040
0.0
1040
934.15025744530215
1040
16.211852670088089
1040
0.0
1040
934.19122708731504
1040
15.597431852905849
1040
0.0
1040
934.10927798079126
1040
14.682625200168779
1040
0.0
1040
934.81944463567424
1040
14.96935384180756
1040
0.0
1040
934.81944463567424
1040
14.96935384180756
1040
0.0
1040
934.81944463567424
1040
14.96935384180756
1040
0.0
1040
934.81944463567424
1040
14.96935384180756
1040
0.0
1040
936.34903359830969
1040
15.297046017350789
1040
0.0
1040
937.07285352636416
1040
15.36531589124183
1040
0.0
1040
941.08695512873635
1040
14.405932221942971
1040
0.0
1040
941.08695512873635
1040
14.405932221942971
1040
0.0
1040
941.08695512873635
1040
14.405932221942971
1040
0.0
1040
940.99498707355338
1040
15.07082912648252
1040
0.0
1040
941.04451211192065
1040
15.820614705997061
1040
0.0
1040
941.04451211192065
1040
15.820614705997061
1040
0.0
1040
941.04451211192065
1040
15.820614705997061
1040
0.0
1002
}
  0
TEXT
  5
56E
  8
DEFPOINTS
 10
932.38465612364155
 20
29.499999999999769
 30
0.0
 40
2.0
  1
製図
  7
表題
 72
     2
 11
937.66300663910556
 21
29.499999999999769
 31
0.0
  0
LINE
  5
570
  8
DEFPOINTS
 10
827.0
 20
17.0
 30
0.0
 11
868.0
 21
17.0
 31
0.0
  0
LINE
  5
571
  8
DEFPOINTS
 10
827.0
 20
39.0
 30
0.0
 11
868.0
 21
39.0
 31
0.0
  0
LINE
  5
572
  8
DEFPOINTS
 10
868.0
 20
67.0
 30
0.0
 11
868.0
 21
10.0
 31
0.0
  0
TEXT
  5
573
  8
DEFPOINTS
 10
868.73067010309296
 20
29.45288240222931
 30
0.0
 40
2.0
  1
尺度
  7
表題
 72
     2
 11
874.00902061855675
 21
29.45288240222931
 31
0.0
  0
TEXT
  5
574
  8
DEFPOINTS
 10
869.01690676486362
 20
40.499999999999773
 30
0.0
 40
2.0
  1
熱処理
  7
表題
 72
     2
 11
876.93443253805935
 21
40.499999999999773
 31
0.0
  0
LINE
  5
576
  8
DEFPOINTS
 10
834.0
 20
67.0
 30
0.0
 11
834.0
 21
10.0
 31
0.0
  0
LINE
  5
577
  8
DEFPOINTS
 10
841.0
 20
67.0
 30
0.0
 11
841.0
 21
10.0
 31
0.0
  0
LINE
  5
578
  8
DEFPOINTS
 10
855.0
 20
67.0
 30
0.0
 11
855.0
 21
10.0
 31
0.0
  0
LINE
  5
579
  8
DEFPOINTS
 10
848.0
 20
67.0
 30
0.0
 11
848.0
 21
10.0
 31
0.0
  0
LINE
  5
57A
  8
DEFPOINTS
 10
862.0
 20
67.0
 30
0.0
 11
862.0
 21
10.0
 31
0.0
  0
TEXT
  5
57B
  8
DEFPOINTS
 10
866.5
 20
40.164948453608019
 30
0.0
 40
2.0
  1
年 月 日
 50
90.0
  7
表題
 72
     1
 11
866.5
 21
44.999999999999773
 31
0.0
  0
TEXT
  5
57C
  8
DEFPOINTS
 10
866.5
 20
18.762886597937911
 30
0.0
 40
2.0
  1
来歴　改訂記事
 50
90.0
  7
表題
 72
     1
 11
866.5
 21
27.99999999999978
 31
0.0
  0
TEXT
  5
57D
  8
DEFPOINTS
 10
866.5
 20
10.76177143809012
 30
0.0
 40
2.0
  1
記号
 50
90.0
  7
表題
 72
     2
 11
866.5
 21
16.040121953554031
 31
0.0
  0
TEXT
  5
57E
  8
DEFPOINTS
 10
866.5
 20
52.360824742267809
 30
0.0
 40
2.0
  1
氏名
 50
90.0
  7
表題
 72
     1
 11
866.5
 21
54.999999999999773
 31
0.0
  0
TEXT
  5
57F
  8
DEFPOINTS
 10
866.5
 20
60.360824742267809
 30
0.0
 40
2.0
  1
承認
 50
90.0
  7
表題
 72
     1
 11
866.5
 21
62.999999999999773
 31
0.0
  0
LINE
  5
580
  8
DEFPOINTS
 10
878.0
 20
67.0
 30
0.0
 11
878.0
 21
42.999999999999773
 31
0.0
  0
TEXT
  5
581
  8
DEFPOINTS
 10
900.5319030500782
 20
29.499999999999769
 30
0.0
 40
2.0
  1
検図
  7
表題
 72
     2
 11
905.81025356554198
 21
29.499999999999769
 31
0.0
  0
LINE
  5
582
  8
DEFPOINTS
 10
892.0
 20
42.999999999999773
 30
0.0
 11
892.0
 21
32.0
 31
0.0
  0
TEXT
  5
583
  8
DEFPOINTS
 10
892.63490587132992
 20
40.499999999999773
 30
0.0
 40
2.0
  1
表面処理
  7
表題
 72
     2
 11
903.1916069022576
 21
40.499999999999773
 31
0.0
  0
LINE
  5
584
  8
DEFPOINTS
 10
900.0
 20
32.0
 30
0.0
 11
900.0
 21
10.0
 31
0.0
  0
LINE
  5
585
  8
DEFPOINTS
 10
884.0
 20
32.0
 30
0.0
 11
884.0
 21
10.0
 31
0.0
  0
TEXT
  5
586
  8
DEFPOINTS
 10
884.36082474226805
 20
29.499999999999769
 30
0.0
 40
2.0
  1
承認
  7
表題
 72
     1
 11
887.0
 21
29.499999999999769
 31
0.0
  0
LINE
  5
587
  8
DEFPOINTS
 10
932.0
 20
42.999999999999773
 30
0.0
 11
932.0
 21
20.999999999999769
 31
0.0
  0
TEXT
  5
588
  8
DEFPOINTS
 10
916.36082474226839
 20
40.499999999999773
 30
0.0
 40
2.0
  1
台数
  7
表題
 72
     1
 11
919.00000000000045
 21
40.499999999999773
 31
0.0
  0
TEXT
  5
589
  8
DEFPOINTS
 10
909.91140649504769
 20
14.1590196952402
 30
0.0
 40
2.5
  1
株式会社
  0
TEXT
  5
596
  8
DEFPOINTS
 10
916.79237211386294
 20
29.499999999999769
 30
0.0
 40
2.0
  1
設計
  7
表題
 72
     2
 11
922.07072262932695
 21
29.499999999999769
 31
0.0
  0
LINE
  5
597
  8
DEFPOINTS
 10
916.0
 20
42.999999999999851
 30
0.0
 11
916.0
 21
21.0
 31
0.0
  0
LINE
  5
598
  8
DEFPOINTS
 10
914.0
 20
67.0
 30
0.0
 11
914.0
 21
42.999999999999773
 31
0.0
  0
LINE
  5
59A
  8
DEFPOINTS
 10
948.0
 20
67.0
 30
0.0
 11
948.0
 21
10.0
 31
0.0
  0
TEXT
  5
59D
  8
DEFPOINTS
 10
948.77608897670109
 20
40.499999999999773
 30
0.0
 40
2.0
  1
名称
  7
表題
 72
     2
 11
954.0544394921651
 21
40.499999999999773
 31
0.0
  0
TEXT
  5
59E
  8
DEFPOINTS
 10
948.95010532057574
 20
18.499999999999769
 30
0.0
 40
2.0
  1
図面番号
  7
表題
 72
     2
 11
959.50680635150366
 21
18.499999999999769
 31
0.0
  0
LINE
  5
59F
  8
DEFPOINTS
 10
938.0
 20
67.0
 30
0.0
 11
938.0
 21
42.999999999999773
 31
0.0
  0
LINE
  5
5A0
  8
DEFPOINTS
 10
958.0
 20
67.0
 30
0.0
 11
958.0
 21
42.999999999999773
 31
0.0
  0
LINE
  5
5A1
  8
DEFPOINTS
 10
968.0
 20
67.0
 30
0.0
 11
968.0
 21
42.999999999999773
 31
0.0
  0
TEXT
  5
5A2
  8
DEFPOINTS
 10
871.05905396973776
 20
11.62621607604683
 30
0.0
 40
3.75
  1
角法
  7
表題
  0
TEXT
  5
5A4
  8
DEFPOINTS
 10
871.05905396973776
 20
16.62621607604683
 30
0.0
 40
3.75
  1
第３
  7
表題
  0
TEXT
  5
102B
  8
DEFPOINTS
 10
887.30412371133991
 20
45.569587628865669
 30
0.0
 40
3.0
  1
部　品　名
  7
表題
  0
TEXT
  5
102C
  8
DEFPOINTS
 10
919.5
 20
46.0
 30
0.0
 40
3.0
  1
材　 質
  7
表題
  0
TEXT
  5
102D
  8
DEFPOINTS
 10
971.99999999999977
 20
45.500000000000007
 30
0.0
 40
3.0
  1
　摘　　　要
  7
表題
 72
     1
 11
983.87628865979366
 21
45.500000000000007
 31
0.0
  0
TEXT
  5
102E
  8
DEFPOINTS
 10
948.28674003161768
 20
47.403387471079192
 30
0.0
 40
1.5
  1
1セット分
  7
表題
 72
     2
 11
957.67333796976186
 21
47.403387471079192
 31
0.0
  0
TEXT
  5
102F
  8
DEFPOINTS
 10
951.20452801860813
 20
44.83508233017502
 30
0.0
 40
1.5
  1
個数
  7
表題
 72
     2
 11
955.16329090520594
 21
44.83508233017502
 31
0.0
  0
TEXT
  5
1030
  8
DEFPOINTS
 10
939.82202096952301
 20
47.40338747107932
 30
0.0
 40
1.5
  1
1台分
  7
表題
 72
     2
 11
945.24985602106938
 21
47.40338747107932
 31
0.0
  0
TEXT
  5
1031
  8
DEFPOINTS
 10
940.70452801860779
 20
44.835082330175148
 30
0.0
 40
1.5
  1
個数
  7
表題
 72
     2
 11
944.66329090520571
 21
44.835082330175148
 31
0.0
  0
TEXT
  5
1032
  8
DEFPOINTS
 10
959.49999999999977
 20
45.500000000000007
 30
0.0
 40
3.0
  1
総数
  7
表題
  0
TEXT
  5
1033
  8
DEFPOINTS
 10
869.12628865979354
 20
45.733380952813832
 30
0.0
 40
3.0
  1
番号
  7
表題
  0
INSERT
  5
2DA2
  8
DEFPOINTS
  2
A$C0C1533B0
 10
904.14640649504724
 20
13.14901969524044
 30
0.0
  0
LINE
  5
45FC
  8
DEFPOINTS
 10
993.5
 20
21.0
 30
0.0
 11
993.5
 21
10.0
 31
0.0
  0
INSERT
  5
4647
  8
011形状
  2
*U25
 10
0.0
 20
0.0
 30
0.0
  0
INSERT
  5
4648
  8
011形状
  2
*U26
 10
0.0
 20
0.0
 30
0.0
  0
INSERT
  5
4649
  8
011形状
  2
*U27
 10
0.0
 20
0.0
 30
0.0
  0
INSERT
  5
4681
  8
011形状
  2
*U28
 10
0.0
 20
0.0
 30
0.0
  0
INSERT
  5
4682
  8
011形状
  2
*U29
 10
0.0
 20
0.0
 30
0.0
  0
INSERT
  5
4683
  8
011形状
  2
*U30
 10
0.0
 20
0.0
 30
0.0
  0
LINE
  5
5667
  8
011形状
 10
773.0
 20
65.0
 30
0.1
 11
730.66458325200006
 21
65.0
 31
0.1
  0
CIRCLE
  5
5668
  8
011形状
 62
     1
 10
718.14213562400005
 20
44.142135623999991
 30
0.0
 40
2.0
  0
CIRCLE
  5
566A
  8
011形状
 10
718.14213562400005
 20
44.142135623999991
 30
0.0
 40
1.7
  0
CIRCLE
  5
566B
  8
011形状
 62
     1
 10
689.85786437599995
 20
44.142135623999991
 30
0.0
 40
2.0
  0
CIRCLE
  5
566D
  8
011形状
 10
689.85786437599995
 20
44.142135623999991
 30
0.0
 40
1.7
  0
LINE
  5
566E
  8
011形状
 10
743.0
 20
89.25
 30
0.0
 11
743.0
 21
65.0
 31
0.0
  0
LINE
  5
566F
  8
011形状
 10
763.0
 20
65.0
 30
0.0
 11
763.0
 21
89.25
 31
0.0
  0
LINE
  5
5670
  8
011形状
 10
743.75
 20
90.0
 30
0.0
 11
743.0
 21
89.25
 31
0.0
  0
LINE
  5
5671
  8
011形状
 10
762.25
 20
90.0
 30
0.0
 11
743.75
 21
90.0
 31
0.0
  0
LINE
  5
5672
  8
011形状
 10
763.0
 20
89.25
 30
0.0
 11
762.25
 21
90.0
 31
0.0
  0
LINE
  5
5673
  8
011形状
 10
743.0
 20
89.25
 30
0.0
 11
763.0
 21
89.25
 31
0.0
  0
LINE
  5
5674
  8
011形状
 10
744.5
 20
97.0
 30
0.0
 11
761.5
 21
97.0
 31
0.0
  0
POINT
  5
5675
  8
011形状
 10
757.99999865099994
 20
97.0
 30
0.0
  0
LINE
  5
5676
  8
011形状
 10
745.0
 20
92.0
 30
0.0
 11
745.0
 21
93.0
 31
0.0
  0
LINE
  5
5677
  8
011形状
 10
761.0
 20
92.0
 30
0.0
 11
761.0
 21
93.0
 31
0.0
  0
LINE
  5
5678
  8
011形状
 10
761.5
 20
92.0
 30
0.0
 11
744.5
 21
92.0
 31
0.0
  0
LINE
  5
5679
  8
011形状
 10
744.5
 20
90.0
 30
0.0
 11
744.5
 21
92.0
 31
0.0
  0
LINE
  5
567A
  8
011形状
 62
     1
 10
745.0
 20
90.0
 30
0.0
 11
745.0
 21
92.0
 31
0.0
  0
LINE
  5
567B
  8
011形状
 62
     1
 10
761.0
 20
90.0
 30
0.0
 11
761.0
 21
92.0
 31
0.0
  0
LINE
  5
567C
  8
011形状
 10
761.5
 20
90.0
 30
0.0
 11
761.5
 21
92.0
 31
0.0
  0
LINE
  5
567D
  8
011形状
 10
744.5
 20
93.0
 30
0.0
 11
744.5
 21
97.0
 31
0.0
  0
LINE
  5
567E
  8
011形状
 10
761.5
 20
93.0
 30
0.0
 11
761.5
 21
97.0
 31
0.0
  0
ARC
  5
567F
  8
011形状
 10
748.74999999999989
 20
84.724493362000004
 30
0.0
 40
12.275506638
 50
69.743841999999773
 51
110.2561580000002
  0
ARC
  5
5680
  8
011形状
 10
757.24999999999989
 20
84.724493362000004
 30
0.0
 40
12.275506638
 50
69.743841999999773
 51
110.2561580000002
  0
ARC
  5
5681
  8
011形状
 10
750.49999865099994
 20
105.666666667
 30
0.0
 40
2.8333333330000001
 50
28.072486936001539
 51
151.92751306399839
  0
LINE
  5
5682
  8
011形状
 10
748.0
 20
97.0
 30
0.0
 11
747.99999865099994
 21
107.0
 31
0.0
  0
LINE
  5
5683
  8
011形状
 10
748.99999865099994
 20
108.07036751699999
 30
0.0
 11
749.0
 21
113.07036751699999
 31
0.0
  0
ARC
  5
5684
  8
011形状
 10
751.0
 20
111.57036751699999
 30
0.0
 40
2.5
 50
36.86989764600019
 51
143.1301023539998
  0
LINE
  5
5685
  8
011形状
 10
757.99999865099994
 20
107.0
 30
0.0
 11
758.0
 21
97.0
 31
0.0
  0
ARC
  5
5686
  8
011形状
 10
755.49999865099994
 20
108.333333333
 30
0.0
 40
2.8333333330000001
 50
208.07248693600121
 51
331.92751306399839
  0
ARC
  5
5687
  8
011形状
 10
755.49999865099994
 20
105.666666667
 30
0.0
 40
2.8333333330000001
 50
28.072486936001539
 51
58.034281248998283
  0
ARC
  5
5688
  8
011形状
 10
754.99999865099994
 20
108.5
 30
0.0
 40
2.5
 50
216.8698976460002
 51
323.1301023539998
  0
LINE
  5
5689
  8
011形状
 10
756.99999836300003
 20
107.0
 30
0.0
 11
757.0
 21
113.07036751699999
 31
0.0
  0
ARC
  5
568A
  8
011形状
 10
755.0
 20
111.57036751699999
 30
0.0
 40
2.5
 50
36.86989764600019
 51
143.1301023539998
  0
ARC
  5
568B
  8
011形状
 10
755.0
 20
114.57036751699999
 30
0.0
 40
2.5
 50
216.8698976460002
 51
323.1301023539998
  0
LINE
  5
568C
  8
011形状
 10
744.5
 20
93.0
 30
0.0
 11
761.5
 21
93.0
 31
0.0
  0
LINE
  5
568D
  8
011形状
 10
753.0
 20
96.240810621000008
 30
0.0
 11
753.0
 21
93.0
 31
0.0
  0
ARC
  5
568E
  8
011形状
 62
     1
 10
704.0
 20
30.0
 30
0.0
 40
6.0
 50
0.0
 51
180.0
  0
ARC
  5
5690
  8
011形状
 10
704.0
 20
30.0
 30
0.0
 40
5.0999999999999988
 50
0.0
 51
180.0
  0
LINE
  5
5692
  8
011形状
 10
773.0
 20
65.0
 30
0.0
 11
773.0
 21
30.0
 31
0.0
  0
LINE
  5
5693
  8
011形状
 10
768.0
 20
65.0
 30
0.0
 11
768.0
 21
30.0
 31
0.0
  0
LINE
  5
5694
  8
001センタ
 10
778.0
 20
30.0
 30
0.0
 11
655.0
 21
30.0
 31
0.0
  0
LINE
  5
5695
  8
001センタ
 10
704.0
 20
25.0
 30
0.0
 11
704.0
 21
79.0
 31
0.0
  0
ARC
  5
5696
  8
011形状
 10
704.0
 20
30.0
 30
0.0
 40
25.0
 50
0.0
 51
180.0
  0
ARC
  5
5697
  8
011形状
 10
704.0
 20
30.0
 30
0.0
 40
27.0
 50
0.0
 51
180.0
  0
ARC
  5
5698
  8
011形状
 10
704.0
 20
30.0
 30
0.0
 40
44.0
 50
0.0
 51
180.0
  0
ARC
  5
5699
  8
001センタ
 10
704.0
 20
30.0
 30
0.0
 40
20.0
 50
345.96375653199988
 51
194.03624346800009
  0
LINE
  5
569A
  8
011形状
 10
660.0
 20
132.0
 30
0.0
 11
748.0
 21
132.0
 31
0.0
  0
LINE
  5
569B
  8
011形状
 10
677.0
 20
132.0
 30
0.0
 11
679.0
 21
130.0
 31
0.0
  0
LINE
  5
569C
  8
011形状
 10
679.0
 20
130.0
 30
0.0
 11
729.0
 21
130.0
 31
0.0
  0
LINE
  5
569D
  8
011形状
 10
729.0
 20
130.0
 30
0.0
 11
731.0
 21
132.0
 31
0.0
  0
LINE
  5
569E
  8
011形状
 10
660.0
 20
233.09999999999999
 30
0.0
 11
748.0
 21
233.09999999999999
 31
0.0
  0
LINE
  5
569F
  8
011形状
 10
748.0
 20
231.90000000000001
 30
0.0
 11
660.0
 21
231.90000000000001
 31
0.0
  0
LINE
  5
56A0
  8
011形状
 10
660.0
 20
229.90000000000001
 30
0.0
 11
748.0
 21
229.90000000000001
 31
0.0
  0
LINE
  5
56A1
  8
011形状
 10
661.5
 20
229.90000000000001
 30
0.0
 11
661.5
 21
231.40000000000001
 31
0.0
  0
LINE
  5
56A2
  8
011形状
 10
660.0
 20
231.90000000000001
 30
0.0
 11
661.5
 21
231.40000000000001
 31
0.0
  0
LINE
  5
56A3
  8
011形状
 10
746.49999999999989
 20
229.90000000000001
 30
0.0
 11
746.49999999999989
 21
231.40000000000001
 31
0.0
  0
LINE
  5
56A4
  8
011形状
 10
746.49999999999989
 20
231.40000000000001
 30
0.0
 11
748.0
 21
231.90000000000001
 31
0.0
  0
LINE
  5
56A5
  8
011形状
 10
746.49999999999989
 20
231.40000000000001
 30
0.0
 11
661.5
 21
231.40000000000001
 31
0.0
  0
LINE
  5
56A6
  8
011形状
 10
660.0
 20
233.09999999999999
 30
0.0
 11
666.5
 21
234.0
 31
0.0
  0
LINE
  5
56A7
  8
011形状
 10
748.0
 20
233.09999999999999
 30
0.0
 11
741.5
 21
234.0
 31
0.0
  0
LINE
  5
56A8
  8
011形状
 10
748.0
 20
231.90000000000001
 30
0.0
 11
748.0
 21
233.09999999999999
 31
0.0
  0
LINE
  5
56A9
  8
011形状
 10
666.5
 20
234.0
 30
0.0
 11
741.5
 21
234.0
 31
0.0
  0
LINE
  5
56AA
  8
011形状
 10
660.0
 20
233.09999999999999
 30
0.0
 11
660.0
 21
231.90000000000001
 31
0.0
  0
LINE
  5
56AB
  8
011形状
 10
660.0
 20
153.90000000000001
 30
0.0
 11
748.0
 21
153.90000000000001
 31
0.0
  0
LINE
  5
56AC
  8
011形状
 10
660.0
 20
157.40000000000001
 30
0.0
 11
748.0
 21
157.40000000000001
 31
0.0
  0
LINE
  5
56AD
  8
011形状
 10
660.0
 20
158.40000000000001
 30
0.0
 11
748.0
 21
158.40000000000001
 31
0.0
  0
LINE
  5
56AE
  8
011形状
 10
748.0
 20
161.40000000000001
 30
0.0
 11
660.0
 21
161.40000000000001
 31
0.0
  0
LINE
  5
56AF
  8
011形状
 10
660.0
 20
160.40000000000001
 30
0.0
 11
748.0
 21
160.40000000000001
 31
0.0
  0
LINE
  5
56B0
  8
011形状
 10
661.0
 20
161.40000000000001
 30
0.0
 11
661.0
 21
160.40000000000001
 31
0.0
  0
LINE
  5
56B1
  8
011形状
 10
661.0
 20
158.40000000000001
 30
0.0
 11
661.0
 21
157.40000000000001
 31
0.0
  0
LINE
  5
56B2
  8
011形状
 10
660.0
 20
229.90000000000001
 30
0.0
 11
660.0
 21
161.40000000000001
 31
0.0
  0
LINE
  5
56B3
  8
011形状
 10
660.0
 20
157.40000000000001
 30
0.0
 11
660.0
 21
132.0
 31
0.0
  0
LINE
  5
56B4
  8
011形状
 10
660.0
 20
160.40000000000001
 30
0.0
 11
660.0
 21
158.40000000000001
 31
0.0
  0
LINE
  5
56B5
  8
011形状
 10
748.0
 20
158.40000000000001
 30
0.0
 11
748.0
 21
160.40000000000001
 31
0.0
  0
LINE
  5
56B6
  8
011形状
 10
748.0
 20
132.0
 30
0.0
 11
748.0
 21
157.40000000000001
 31
0.0
  0
LINE
  5
56B7
  8
011形状
 10
747.0
 20
161.40000000000001
 30
0.0
 11
747.0
 21
160.40000000000001
 31
0.0
  0
LINE
  5
56B8
  8
011形状
 10
747.0
 20
158.40000000000001
 30
0.0
 11
747.0
 21
157.40000000000001
 31
0.0
  0
LINE
  5
56B9
  8
011形状
 10
773.0
 20
167.5
 30
0.0
 11
773.0
 21
207.5
 31
0.0
  0
LINE
  5
56BA
  8
011形状
 10
773.0
 20
207.5
 30
0.0
 11
730.49999999999989
 21
207.5
 31
0.0
  0
LINE
  5
56BB
  8
011形状
 10
730.49999999999989
 20
167.5
 30
0.0
 11
773.0
 21
167.5
 31
0.0
  0
LINE
  5
56BC
  8
011形状
 10
748.0
 20
207.5
 30
0.0
 11
748.0
 21
229.90000000000001
 31
0.0
  0
LINE
  5
56BD
  8
011形状
 10
748.0
 20
161.40000000000001
 30
0.0
 11
748.0
 21
167.5
 31
0.0
  0
LINE
  5
56BE
  8
011形状
 10
730.49999999999989
 20
168.5
 30
0.0
 11
730.49999999999989
 21
206.5
 31
0.0
  0
LINE
  5
56BF
  8
011形状
 10
768.0
 20
207.5
 30
0.0
 11
768.0
 21
167.5
 31
0.0
  0
CIRCLE
  5
56C0
  8
011形状
 10
753.0
 20
187.5
 30
0.0
 40
10.0
  0
POLYLINE
  5
56C1
  8
011形状
 66
     1
 10
0.0
 20
0.0
 30
0.0
 70
     1
  0
VERTEX
  5
5BA8
  8
011形状
 10
753.0
 20
197.31495457599999
 30
0.0
  0
VERTEX
  5
5BA9
  8
011形状
 10
744.5
 20
192.407477288
 30
0.0
  0
VERTEX
  5
5BAA
  8
011形状
 10
744.5
 20
182.592522712
 30
0.0
  0
VERTEX
  5
5BAB
  8
011形状
 10
753.0
 20
177.68504542400001
 30
0.0
  0
VERTEX
  5
5BAC
  8
011形状
 10
761.5
 20
182.592522712
 30
0.0
  0
VERTEX
  5
5BAD
  8
011形状
 10
761.5
 20
192.407477288
 30
0.0
  0
SEQEND
  5
5BAE
  8
011形状
  0
CIRCLE
  5
56C2
  8
011形状
 10
753.0
 20
187.5
 30
0.0
 40
8.5
  0
CIRCLE
  5
56C3
  8
011形状
 10
753.0
 20
187.5
 30
0.0
 40
5.0999999999999988
  0
CIRCLE
  5
56C4
  8
011形状
 10
753.0
 20
187.5
 30
0.0
 40
6.0999999999999988
  0
ARC
  5
56C5
  8
011形状
 10
753.0
 20
187.5
 30
0.0
 40
9.25
 50
96.768543495002874
 51
143.2314565050018
  0
ARC
  5
56C6
  8
011形状
 10
753.0
 20
187.5
 30
0.0
 40
9.25
 50
156.76854349499979
 51
203.2314565049999
  0
ARC
  5
56C7
  8
011形状
 10
753.0
 20
187.5
 30
0.0
 40
9.25
 50
216.7685434949982
 51
263.23145650499708
  0
ARC
  5
56C8
  8
011形状
 10
753.0
 20
187.5
 30
0.0
 40
9.25
 50
276.76854349500292
 51
323.2314565050018
  0
ARC
  5
56C9
  8
011形状
 10
753.0
 20
187.5
 30
0.0
 40
9.25
 50
36.768543494998177
 51
83.231456504997084
  0
ARC
  5
56CA
  8
011形状
 10
753.0
 20
187.5
 30
0.0
 40
9.25
 50
336.7685434949999
 51
23.231456505000111
  0
CIRCLE
  5
56CB
  8
011形状
 10
753.0
 20
187.5
 30
0.0
 40
4.0
  0
LINE
  5
56CC
  8
011形状
  6
DASHED
 62
     1
 10
698.0
 20
220.90000000000001
 30
0.0
 11
710.0
 21
220.90000000000001
 31
0.0
  0
LINE
  5
56CD
  8
011形状
  6
DASHED
 62
     1
 10
698.0
 20
222.90000000000001
 30
0.0
 11
710.0
 21
222.90000000000001
 31
0.0
  0
LINE
  5
56CE
  8
001センタ
 10
725.49999999999989
 20
187.5
 30
0.0
 11
778.0
 21
187.5
 31
0.0
  0
LINE
  5
56CF
  8
001センタ
 10
753.0
 20
172.5
 30
0.0
 11
753.0
 21
202.5
 31
0.0
  0
LINE
  5
56D0
  8
011形状
 10
695.0
 20
236.0
 30
0.1
 11
713.0
 21
236.0
 31
0.1
  0
LINE
  5
56D1
  8
011形状
 10
695.0
 20
234.0
 30
0.0
 11
695.0
 21
236.0
 31
0.0
  0
LINE
  5
56D2
  8
011形状
 10
713.0
 20
236.0
 30
0.0
 11
713.0
 21
234.0
 31
0.0
  0
LINE
  5
56D3
  8
011形状
  6
DASHED
 62
     1
 10
698.0
 20
236.0
 30
0.0
 11
698.0
 21
220.90000000000001
 31
0.0
  0
LINE
  5
56D4
  8
011形状
  6
DASHED
 62
     1
 10
710.0
 20
220.90000000000001
 30
0.0
 11
710.0
 21
236.0
 31
0.0
  0
LINE
  5
56D5
  8
011形状
  6
DASHED
 62
     1
 10
698.89999999999986
 20
236.0
 30
0.0
 11
698.89999999999986
 21
222.90000000000001
 31
0.0
  0
LINE
  5
56D6
  8
011形状
  6
DASHED
 62
     1
 10
708.89999999999986
 20
222.90000000000001
 30
0.0
 11
708.89999999999986
 21
236.0
 31
0.0
  0
LINE
  5
56D7
  8
001センタ
 10
704.0
 20
241.0
 30
0.0
 11
704.0
 21
125.0
 31
0.0
  0
LINE
  5
56D8
  8
011形状
 10
875.0
 20
132.0
 30
0.1
 11
963.0
 21
132.0
 31
0.1
  0
LINE
  5
56D9
  8
011形状
 10
892.0
 20
132.0
 30
0.0
 11
894.0
 21
130.0
 31
0.0
  0
LINE
  5
56DA
  8
011形状
 10
894.0
 20
130.0
 30
0.0
 11
944.0
 21
130.0
 31
0.0
  0
LINE
  5
56DB
  8
011形状
 10
944.0
 20
130.0
 30
0.0
 11
946.0
 21
132.0
 31
0.0
  0
LINE
  5
56DC
  8
011形状
 10
875.0
 20
233.09999999999999
 30
0.0
 11
963.0
 21
233.09999999999999
 31
0.0
  0
LINE
  5
56DD
  8
011形状
 10
963.0
 20
231.90000000000001
 30
0.0
 11
875.0
 21
231.90000000000001
 31
0.0
  0
LINE
  5
56DE
  8
011形状
 10
875.0
 20
229.90000000000001
 30
0.0
 11
963.0
 21
229.90000000000001
 31
0.0
  0
LINE
  5
56DF
  8
011形状
 10
876.5
 20
229.90000000000001
 30
0.0
 11
876.5
 21
231.40000000000001
 31
0.0
  0
LINE
  5
56E0
  8
011形状
 10
875.0
 20
231.90000000000001
 30
0.0
 11
876.5
 21
231.40000000000001
 31
0.0
  0
LINE
  5
56E1
  8
011形状
 10
961.5
 20
229.90000000000001
 30
0.0
 11
961.5
 21
231.40000000000001
 31
0.0
  0
LINE
  5
56E2
  8
011形状
 10
961.5
 20
231.40000000000001
 30
0.0
 11
963.0
 21
231.90000000000001
 31
0.0
  0
LINE
  5
56E3
  8
011形状
 10
961.5
 20
231.40000000000001
 30
0.0
 11
876.5
 21
231.40000000000001
 31
0.0
  0
LINE
  5
56E4
  8
011形状
 10
875.0
 20
233.09999999999999
 30
0.0
 11
881.49999999999989
 21
234.0
 31
0.0
  0
LINE
  5
56E5
  8
011形状
 10
963.0
 20
233.09999999999999
 30
0.0
 11
956.49999999999989
 21
234.0
 31
0.0
  0
LINE
  5
56E6
  8
011形状
 10
963.0
 20
231.90000000000001
 30
0.0
 11
963.0
 21
233.09999999999999
 31
0.0
  0
LINE
  5
56E7
  8
011形状
 10
881.49999999999989
 20
234.0
 30
0.0
 11
956.49999999999989
 21
234.0
 31
0.0
  0
LINE
  5
56E8
  8
011形状
 10
875.0
 20
233.09999999999999
 30
0.0
 11
875.0
 21
231.90000000000001
 31
0.0
  0
LINE
  5
56E9
  8
011形状
 10
875.0
 20
153.90000000000001
 30
0.0
 11
963.0
 21
153.90000000000001
 31
0.0
  0
LINE
  5
56EA
  8
011形状
 10
875.0
 20
157.40000000000001
 30
0.0
 11
963.0
 21
157.40000000000001
 31
0.0
  0
LINE
  5
56EB
  8
011形状
 10
875.0
 20
158.40000000000001
 30
0.0
 11
963.0
 21
158.40000000000001
 31
0.0
  0
LINE
  5
56EC
  8
011形状
 10
963.0
 20
161.40000000000001
 30
0.0
 11
875.0
 21
161.40000000000001
 31
0.0
  0
LINE
  5
56ED
  8
011形状
 10
875.0
 20
160.40000000000001
 30
0.0
 11
963.0
 21
160.40000000000001
 31
0.0
  0
LINE
  5
56EE
  8
011形状
 10
876.0
 20
161.40000000000001
 30
0.0
 11
876.0
 21
160.40000000000001
 31
0.0
  0
LINE
  5
56EF
  8
011形状
 10
876.0
 20
158.40000000000001
 30
0.0
 11
876.0
 21
157.40000000000001
 31
0.0
  0
LINE
  5
56F0
  8
011形状
 10
875.0
 20
157.40000000000001
 30
0.0
 11
875.0
 21
132.0
 31
0.0
  0
LINE
  5
56F1
  8
011形状
 10
875.0
 20
160.40000000000001
 30
0.0
 11
875.0
 21
158.40000000000001
 31
0.0
  0
LINE
  5
56F2
  8
011形状
 10
963.0
 20
158.40000000000001
 30
0.0
 11
963.0
 21
160.40000000000001
 31
0.0
  0
LINE
  5
56F3
  8
011形状
 10
963.0
 20
132.0
 30
0.0
 11
963.0
 21
157.40000000000001
 31
0.0
  0
LINE
  5
56F4
  8
011形状
 10
962.0
 20
161.40000000000001
 30
0.0
 11
962.0
 21
160.40000000000001
 31
0.0
  0
LINE
  5
56F5
  8
011形状
 10
962.0
 20
158.40000000000001
 30
0.0
 11
962.0
 21
157.40000000000001
 31
0.0
  0
LINE
  5
56F6
  8
011形状
  6
DASHED
 62
     1
 10
913.0
 20
220.90000000000001
 30
0.0
 11
925.0
 21
220.90000000000001
 31
0.0
  0
LINE
  5
56F7
  8
011形状
  6
DASHED
 62
     1
 10
913.0
 20
222.90000000000001
 30
0.0
 11
925.0
 21
222.90000000000001
 31
0.0
  0
LINE
  5
56F8
  8
011形状
 10
963.0
 20
161.40000000000001
 30
0.0
 11
963.0
 21
229.90000000000001
 31
0.0
  0
ARC
  5
56F9
  8
011形状
 10
952.0
 20
169.5
 30
0.0
 40
2.0
 50
270.0
 51
0.0
  0
LINE
  5
56FA
  8
011形状
 10
886.0
 20
167.5
 30
0.0
 11
952.0
 21
167.5
 31
0.0
  0
ARC
  5
56FB
  8
011形状
 10
886.0
 20
169.5
 30
0.0
 40
2.0
 50
180.0
 51
270.0
  0
LINE
  5
56FC
  8
011形状
 10
954.0
 20
205.5
 30
0.0
 11
954.0
 21
169.5
 31
0.0
  0
ARC
  5
56FD
  8
011形状
 10
952.0
 20
205.5
 30
0.0
 40
2.0
 50
0.0
 51
90.0
  0
LINE
  5
56FE
  8
011形状
 10
884.0
 20
205.5
 30
0.0
 11
884.0
 21
169.5
 31
0.0
  0
LINE
  5
56FF
  8
011形状
 10
886.0
 20
207.5
 30
0.0
 11
952.0
 21
207.5
 31
0.0
  0
ARC
  5
5700
  8
011形状
 10
886.0
 20
205.5
 30
0.0
 40
2.0
 50
90.0
 51
180.0
  0
CIRCLE
  5
5701
  8
011形状
 10
888.49999999999989
 20
203.0
 30
0.0
 40
3.25
  0
CIRCLE
  5
5702
  8
011形状
 10
888.49999999999989
 20
203.0
 30
0.0
 40
2.7999999999999989
  0
LINE
  5
5703
  8
011形状
 10
889.79999999999995
 20
203.80000000000001
 30
0.0
 11
888.49999999999989
 21
204.5
 31
0.0
  0
LINE
  5
5704
  8
011形状
 10
888.49999999999989
 20
204.5
 30
0.0
 11
887.19999999999993
 21
203.80000000000001
 31
0.0
  0
LINE
  5
5705
  8
011形状
 10
887.19999999999993
 20
203.80000000000001
 30
0.0
 11
887.19999999999993
 21
202.19999999999999
 31
0.0
  0
LINE
  5
5706
  8
011形状
 10
887.19999999999993
 20
202.19999999999999
 30
0.0
 11
888.49999999999989
 21
201.5
 31
0.0
  0
LINE
  5
5707
  8
011形状
 10
888.49999999999989
 20
201.5
 30
0.0
 11
889.79999999999995
 21
202.19999999999999
 31
0.0
  0
LINE
  5
5708
  8
011形状
 10
889.79999999999995
 20
202.19999999999999
 30
0.0
 11
889.79999999999995
 21
203.80000000000001
 31
0.0
  0
LINE
  5
5709
  8
001センタ
 10
888.49999999999989
 20
207.30000000000001
 30
0.0
 11
888.49999999999989
 21
198.69999999999999
 31
0.0
  0
LINE
  5
570A
  8
001センタ
 10
884.20000000000005
 20
203.0
 30
0.0
 11
892.79999999999995
 21
203.0
 31
0.0
  0
CIRCLE
  5
570B
  8
011形状
 10
888.49999999999989
 20
203.0
 30
0.0
 40
2.5
  0
CIRCLE
  5
570C
  8
011形状
 10
949.5
 20
203.0
 30
0.0
 40
3.25
  0
CIRCLE
  5
570D
  8
011形状
 10
949.5
 20
203.0
 30
0.0
 40
2.7999999999999989
  0
LINE
  5
570E
  8
011形状
 10
948.20000000000005
 20
203.80000000000001
 30
0.0
 11
949.5
 21
204.5
 31
0.0
  0
LINE
  5
570F
  8
011形状
 10
949.5
 20
204.5
 30
0.0
 11
950.79999999999995
 21
203.80000000000001
 31
0.0
  0
LINE
  5
5710
  8
011形状
 10
950.79999999999995
 20
203.80000000000001
 30
0.0
 11
950.79999999999995
 21
202.19999999999999
 31
0.0
  0
LINE
  5
5711
  8
011形状
 10
950.79999999999995
 20
202.19999999999999
 30
0.0
 11
949.5
 21
201.5
 31
0.0
  0
LINE
  5
5712
  8
011形状
 10
949.5
 20
201.5
 30
0.0
 11
948.20000000000005
 21
202.19999999999999
 31
0.0
  0
LINE
  5
5713
  8
011形状
 10
948.20000000000005
 20
202.19999999999999
 30
0.0
 11
948.20000000000005
 21
203.80000000000001
 31
0.0
  0
LINE
  5
5714
  8
001センタ
 10
949.5
 20
207.30000000000001
 30
0.0
 11
949.5
 21
198.69999999999999
 31
0.0
  0
LINE
  5
5715
  8
001センタ
 10
953.79999999999995
 20
203.0
 30
0.0
 11
945.19999999999993
 21
203.0
 31
0.0
  0
CIRCLE
  5
5716
  8
011形状
 10
949.5
 20
203.0
 30
0.0
 40
2.5
  0
CIRCLE
  5
5717
  8
011形状
 10
888.49999999999989
 20
172.0
 30
0.0
 40
3.25
  0
CIRCLE
  5
5718
  8
011形状
 10
888.49999999999989
 20
172.0
 30
0.0
 40
2.7999999999999989
  0
LINE
  5
5719
  8
011形状
 10
889.79999999999995
 20
171.19999999999999
 30
0.0
 11
888.49999999999989
 21
170.5
 31
0.0
  0
LINE
  5
571A
  8
011形状
 10
888.49999999999989
 20
170.5
 30
0.0
 11
887.19999999999993
 21
171.19999999999999
 31
0.0
  0
LINE
  5
571B
  8
011形状
 10
887.19999999999993
 20
171.19999999999999
 30
0.0
 11
887.19999999999993
 21
172.80000000000001
 31
0.0
  0
LINE
  5
571C
  8
011形状
 10
887.19999999999993
 20
172.80000000000001
 30
0.0
 11
888.49999999999989
 21
173.5
 31
0.0
  0
LINE
  5
571D
  8
011形状
 10
888.49999999999989
 20
173.5
 30
0.0
 11
889.79999999999995
 21
172.80000000000001
 31
0.0
  0
LINE
  5
571E
  8
011形状
 10
889.79999999999995
 20
172.80000000000001
 30
0.0
 11
889.79999999999995
 21
171.19999999999999
 31
0.0
  0
LINE
  5
571F
  8
001センタ
 10
888.49999999999989
 20
167.69999999999999
 30
0.0
 11
888.49999999999989
 21
176.30000000000001
 31
0.0
  0
LINE
  5
5720
  8
001センタ
 10
884.20000000000005
 20
172.0
 30
0.0
 11
892.79999999999995
 21
172.0
 31
0.0
  0
CIRCLE
  5
5721
  8
011形状
 10
888.49999999999989
 20
172.0
 30
0.0
 40
2.5
  0
CIRCLE
  5
5722
  8
011形状
 10
949.5
 20
172.0
 30
0.0
 40
3.25
  0
CIRCLE
  5
5723
  8
011形状
 10
949.5
 20
172.0
 30
0.0
 40
2.7999999999999989
  0
LINE
  5
5724
  8
011形状
 10
948.20000000000005
 20
171.19999999999999
 30
0.0
 11
949.5
 21
170.5
 31
0.0
  0
LINE
  5
5725
  8
011形状
 10
949.5
 20
170.5
 30
0.0
 11
950.79999999999995
 21
171.19999999999999
 31
0.0
  0
LINE
  5
5726
  8
011形状
 10
950.79999999999995
 20
171.19999999999999
 30
0.0
 11
950.79999999999995
 21
172.80000000000001
 31
0.0
  0
LINE
  5
5727
  8
011形状
 10
950.79999999999995
 20
172.80000000000001
 30
0.0
 11
949.5
 21
173.5
 31
0.0
  0
LINE
  5
5728
  8
011形状
 10
949.5
 20
173.5
 30
0.0
 11
948.20000000000005
 21
172.80000000000001
 31
0.0
  0
LINE
  5
5729
  8
011形状
 10
948.20000000000005
 20
172.80000000000001
 30
0.0
 11
948.20000000000005
 21
171.19999999999999
 31
0.0
  0
LINE
  5
572A
  8
001センタ
 10
949.5
 20
167.69999999999999
 30
0.0
 11
949.5
 21
176.30000000000001
 31
0.0
  0
LINE
  5
572B
  8
001センタ
 10
953.79999999999995
 20
172.0
 30
0.0
 11
945.19999999999993
 21
172.0
 31
0.0
  0
CIRCLE
  5
572C
  8
011形状
 10
949.5
 20
172.0
 30
0.0
 40
2.5
  0
LINE
  5
572D
  8
011形状
 10
859.75
 20
177.5
 30
0.0
 11
884.0
 21
177.5
 31
0.0
  0
LINE
  5
572E
  8
011形状
 10
859.0
 20
178.25
 30
0.0
 11
859.75
 21
177.5
 31
0.0
  0
LINE
  5
572F
  8
011形状
 10
884.0
 20
197.5
 30
0.0
 11
859.75
 21
197.5
 31
0.0
  0
LINE
  5
5730
  8
011形状
 10
859.0
 20
196.75
 30
0.0
 11
859.0
 21
178.25
 31
0.0
  0
LINE
  5
5731
  8
011形状
 10
859.75
 20
197.5
 30
0.0
 11
859.0
 21
196.75
 31
0.0
  0
LINE
  5
5732
  8
011形状
 10
859.75
 20
177.5
 30
0.0
 11
859.75
 21
197.5
 31
0.0
  0
LINE
  5
5733
  8
011形状
 10
852.75918937899985
 20
177.68504542400001
 30
0.0
 11
856.0
 21
177.68504542400001
 31
0.0
  0
LINE
  5
5734
  8
011形状
 10
852.0
 20
179.0
 30
0.0
 11
852.75918937899985
 21
177.68504542400001
 31
0.0
  0
ARC
  5
5735
  8
011形状
 10
856.344898672
 20
180.13878406800001
 30
0.0
 40
4.3448986720000002
 50
145.6157525319982
 51
214.3842474680018
  0
LINE
  5
5736
  8
011形状
 10
852.75918937899985
 20
182.592522712
 30
0.0
 11
856.0
 21
182.592522712
 31
0.0
  0
LINE
  5
5737
  8
011形状
 10
852.75918937899985
 20
197.31495457599999
 30
0.0
 11
856.0
 21
197.31495457599999
 31
0.0
  0
LINE
  5
5738
  8
011形状
 10
852.0
 20
196.0
 30
0.0
 11
852.75918937899985
 21
197.31495457599999
 31
0.0
  0
ARC
  5
5739
  8
011形状
 10
856.344898672
 20
194.86121593199999
 30
0.0
 40
4.3448986720000002
 50
145.6157525319982
 51
214.3842474680018
  0
LINE
  5
573A
  8
011形状
 10
852.75918937899985
 20
192.407477288
 30
0.0
 11
856.0
 21
192.407477288
 31
0.0
  0
LINE
  5
573B
  8
011形状
 10
852.0
 20
179.0
 30
0.0
 11
852.0
 21
196.0
 31
0.0
  0
ARC
  5
573C
  8
011形状
 10
868.24081062100015
 20
187.5
 30
0.0
 40
16.240810621000001
 50
162.4120462259994
 51
197.5879537740004
  0
LINE
  5
573D
  8
011形状
 10
852.0
 20
182.499998651
 30
0.0
 11
825.0
 21
182.499998651
 31
0.0
  0
LINE
  5
573E
  8
011形状
 10
825.0
 20
182.499998651
 30
0.0
 11
825.0
 21
192.499998651
 31
0.0
  0
LINE
  5
573F
  8
011形状
 10
825.0
 20
192.499998651
 30
0.0
 11
852.0
 21
192.499998651
 31
0.0
  0
POINT
  5
5740
  8
011形状
 10
852.0
 20
192.499998651
 30
0.0
  0
LINE
  5
5741
  8
011形状
 10
825.0
 20
183.499998651
 30
0.0
 11
810.0
 21
183.499998651
 31
0.0
  0
LINE
  5
5742
  8
011形状
 10
825.0
 20
191.499998651
 30
0.0
 11
810.0
 21
191.499998651
 31
0.0
  0
ARC
  5
5743
  8
011形状
 10
811.5
 20
185.499998651
 30
0.0
 40
2.5
 50
126.8698976460003
 51
233.1301023539996
  0
ARC
  5
5744
  8
011形状
 10
811.5
 20
189.499998651
 30
0.0
 40
2.5
 50
126.8698976460003
 51
233.1301023539996
  0
ARC
  5
5745
  8
011形状
 10
808.5
 20
189.499998651
 30
0.0
 40
2.5
 50
306.86989764600042
 51
53.130102353999639
  0
LINE
  5
5746
  8
011形状
 10
857.0
 20
179.5
 30
0.0
 11
856.0
 21
179.5
 31
0.0
  0
LINE
  5
5747
  8
011形状
 10
857.0
 20
195.5
 30
0.0
 11
856.0
 21
195.5
 31
0.0
  0
LINE
  5
5748
  8
011形状
 10
857.0
 20
196.0
 30
0.0
 11
857.0
 21
179.0
 31
0.0
  0
LINE
  5
5749
  8
011形状
 10
859.0
 20
179.0
 30
0.0
 11
857.0
 21
179.0
 31
0.0
  0
LINE
  5
574A
  8
011形状
 62
     1
 10
859.0
 20
179.5
 30
0.0
 11
857.0
 21
179.5
 31
0.0
  0
LINE
  5
574B
  8
011形状
 62
     1
 10
859.0
 20
195.5
 30
0.0
 11
857.0
 21
195.5
 31
0.0
  0
LINE
  5
574C
  8
011形状
 10
859.0
 20
196.0
 30
0.0
 11
857.0
 21
196.0
 31
0.0
  0
LINE
  5
574D
  8
011形状
 10
856.0
 20
177.68504542400001
 30
0.0
 11
856.0
 21
197.31495457599999
 31
0.0
  0
LINE
  5
574E
  8
011形状
 10
875.0
 20
177.5
 30
0.0
 11
875.0
 21
161.40000000000001
 31
0.0
  0
LINE
  5
574F
  8
011形状
 10
875.0
 20
229.90000000000001
 30
0.0
 11
875.0
 21
197.5
 31
0.0
  0
LINE
  5
5750
  8
001センタ
 10
959.0
 20
187.5
 30
0.0
 11
805.0
 21
187.5
 31
0.0
  0
LINE
  5
5751
  8
011形状
 10
910.0
 20
236.0
 30
0.1
 11
928.0
 21
236.0
 31
0.1
  0
LINE
  5
5752
  8
011形状
 10
910.0
 20
234.0
 30
0.0
 11
910.0
 21
236.0
 31
0.0
  0
LINE
  5
5753
  8
011形状
 10
928.0
 20
236.0
 30
0.0
 11
928.0
 21
234.0
 31
0.0
  0
LINE
  5
5754
  8
011形状
  6
DASHED
 62
     1
 10
913.0
 20
236.0
 30
0.0
 11
913.0
 21
220.90000000000001
 31
0.0
  0
LINE
  5
5755
  8
011形状
  6
DASHED
 62
     1
 10
925.0
 20
220.90000000000001
 30
0.0
 11
925.0
 21
236.0
 31
0.0
  0
LINE
  5
5756
  8
011形状
  6
DASHED
 62
     1
 10
913.89999999999986
 20
236.0
 30
0.0
 11
913.89999999999986
 21
222.90000000000001
 31
0.0
  0
LINE
  5
5757
  8
011形状
  6
DASHED
 62
     1
 10
923.89999999999998
 20
222.90000000000001
 30
0.0
 11
923.89999999999998
 21
236.0
 31
0.0
  0
LINE
  5
5758
  8
001センタ
 10
919.0
 20
241.0
 30
0.0
 11
919.0
 21
125.0
 31
0.0
  0
LINE
  5
5759
  8
011形状
  6
DASHED
 62
     1
 10
710.0
 20
145.09999999999999
 30
0.1
 11
698.0
 21
145.09999999999999
 31
0.1
  0
LINE
  5
575A
  8
011形状
  6
DASHED
 62
     1
 10
710.0
 20
143.09999999999999
 30
0.0
 11
698.0
 21
143.09999999999999
 31
0.0
  0
LINE
  5
575B
  8
011形状
  6
DASHED
 62
     1
 10
710.0
 20
130.0
 30
0.0
 11
710.0
 21
145.09999999999999
 31
0.0
  0
LINE
  5
575C
  8
011形状
  6
DASHED
 62
     1
 10
698.0
 20
145.09999999999999
 30
0.0
 11
698.0
 21
130.0
 31
0.0
  0
LINE
  5
575D
  8
011形状
  6
DASHED
 62
     1
 10
709.10000000000002
 20
130.0
 30
0.0
 11
709.10000000000002
 21
143.09999999999999
 31
0.0
  0
LINE
  5
575E
  8
011形状
  6
DASHED
 62
     1
 10
699.10000000000002
 20
143.09999999999999
 30
0.0
 11
699.10000000000002
 21
130.0
 31
0.0
  0
LINE
  5
575F
  8
011形状
  6
DASHED
 62
     1
 10
925.0
 20
145.09999999999999
 30
0.0
 11
913.0
 21
145.09999999999999
 31
0.0
  0
LINE
  5
5760
  8
011形状
  6
DASHED
 62
     1
 10
925.0
 20
143.09999999999999
 30
0.0
 11
913.0
 21
143.09999999999999
 31
0.0
  0
LINE
  5
5761
  8
011形状
  6
DASHED
 62
     1
 10
925.0
 20
130.0
 30
0.0
 11
925.0
 21
145.09999999999999
 31
0.0
  0
LINE
  5
5762
  8
011形状
  6
DASHED
 62
     1
 10
913.0
 20
145.09999999999999
 30
0.0
 11
913.0
 21
130.0
 31
0.0
  0
LINE
  5
5763
  8
011形状
  6
DASHED
 62
     1
 10
924.09999999999991
 20
130.0
 30
0.0
 11
924.09999999999991
 21
143.09999999999999
 31
0.0
  0
LINE
  5
5764
  8
011形状
  6
DASHED
 62
     1
 10
914.10000000000002
 20
143.09999999999999
 30
0.0
 11
914.10000000000002
 21
130.0
 31
0.0
  0
LINE
  5
5765
  8
001センタ
 10
753.0
 20
118.07036751699999
 30
0.0
 11
753.0
 21
60.0
 31
0.0
  0
POLYLINE
  5
5772
  8
003注釈
 66
     1
 10
0.0
 20
0.0
 30
0.0
 70
     1
  0
VERTEX
  5
5BAF
  8
003注釈
 10
917.75
 20
263.5
 30
0.0
  0
VERTEX
  5
5BB0
  8
003注釈
 10
917.75
 20
268.5
 30
0.0
  0
VERTEX
  5
5BB1
  8
003注釈
 10
916.5
 20
268.5
 30
0.0
  0
VERTEX
  5
5BB2
  8
003注釈
 10
919.0
 20
271.0
 30
0.0
  0
VERTEX
  5
5BB3
  8
003注釈
 10
921.49999999999989
 20
268.5
 30
0.0
  0
VERTEX
  5
5BB4
  8
003注釈
 10
920.25
 20
268.5
 30
0.0
  0
VERTEX
  5
5BB5
  8
003注釈
 10
920.25
 20
263.5
 30
0.0
  0
VERTEX
  5
5BB6
  8
003注釈
 10
921.49999999999989
 20
263.5
 30
0.0
  0
VERTEX
  5
5BB7
  8
003注釈
 10
919.0
 20
261.0
 30
0.0
  0
VERTEX
  5
5BB8
  8
003注釈
 10
916.5
 20
263.5
 30
0.0
  0
SEQEND
  5
5BB9
  8
003注釈
  0
INSERT
  5
5773
  8
011形状
  2
*U31
 10
0.0
 20
0.0
 30
0.0
  0
INSERT
  5
5774
  8
011形状
  2
*U32
 10
0.0
 20
0.0
 30
0.0
  0
INSERT
  5
5775
  8
011形状
  2
*U33
 10
0.0
 20
0.0
 30
0.0
  0
LINE
  5
577E
  8
001センタ
 10
686.67588386066052
 20
47.32411613933948
 30
0.0
 11
693.03984489133927
 21
40.960155108660523
 31
0.0
  0
LINE
  5
5780
  8
001センタ
 10
721.32411613933937
 20
47.32411613933948
 30
0.0
 11
714.96015510866062
 21
40.960155108660523
 31
0.0
  0
DIMENSION
  5
578F
  8
002寸法
  2
*D12
 10
788.0
 20
207.5
 30
0.0
 11
786.0
 21
187.50000000000011
 31
0.0
 70
     0
 13
773.0
 23
167.5
 33
0.0
 14
773.0
 24
207.5
 34
0.0
 50
90.0
  0
DIMENSION
  5
57A7
  8
002寸法
  2
*D13
 10
798.0
 20
187.5
 30
0.0
 11
796.0
 21
158.75000000000011
 31
0.0
 70
     0
 13
729.0
 23
130.0
 33
0.0
 14
773.0
 24
187.5
 34
0.0
 50
90.0
  0
DIMENSION
  5
57BF
  8
002寸法
  2
*D14
 10
773.0
 20
246.0
 30
0.0
 11
738.49999999999989
 21
248.0
 31
0.0
 70
     0
 13
704.0
 23
236.0
 33
0.1
 14
773.0
 24
207.5
 34
0.0
  0
DIMENSION
  5
57D7
  8
002寸法
  2
*D15
 10
928.0
 20
246.0
 30
0.0
 11
919.0
 21
248.0
 31
0.0
 70
     0
 13
910.0
 23
236.0
 33
0.0
 14
928.0
 24
236.0
 34
0.0
1001
ACAD
1000
DSTYLE
1002
{
1070
     3
1000
\U+03C6<>
1002
}
  0
DIMENSION
  5
57EF
  8
002寸法
  2
*D16
 10
944.0
 20
115.0
 30
0.0
 11
919.0
 21
117.0
 31
0.0
 70
     0
 13
894.0
 23
130.0
 33
0.0
 14
944.0
 24
130.0
 34
0.0
1001
ACAD
1000
DSTYLE
1002
{
1070
     3
1000
\U+03C6<>
1002
}
  0
DIMENSION
  5
5807
  8
002寸法
  2
*D17
 10
963.0
 20
105.0
 30
0.0
 11
919.0
 21
107.0
 31
0.0
 70
     0
 13
875.0
 23
132.0
 33
0.0
 14
963.0
 24
132.0
 34
0.0
1001
ACAD
1000
DSTYLE
1002
{
1070
     3
1000
\U+03C6<>
1002
}
  0
DIMENSION
  5
583A
  8
002寸法
  2
*D18
 10
978.0
 20
234.0
 30
0.0
 11
976.0
 21
182.00000000000011
 31
0.0
 70
     0
 13
944.0
 23
130.0
 33
0.0
 14
956.49999999999989
 24
234.0
 34
0.0
 50
90.0
  0
DIMENSION
  5
5852
  8
002寸法
  2
*D19
 10
988.0
 20
236.0
 30
0.0
 11
986.0
 21
183.00000000000011
 31
0.0
 70
     0
 13
944.0
 23
130.0
 33
0.0
 14
928.0
 24
236.0
 34
0.0
 50
90.0
  0
DIMENSION
  5
586A
  8
002寸法
  2
*D20
 10
884.0
 20
212.5
 30
0.0
 11
868.0
 21
215.28571428571431
 31
0.0
 70
     0
  1
(<>)
 13
852.0
 23
196.0
 33
0.0
 14
884.0
 24
205.5
 34
0.0
  0
DIMENSION
  5
5882
  8
002寸法
  2
*D21
 10
954.0
 20
212.5
 30
0.0
 11
914.0
 21
212.5
 31
0.0
 70
   128
 13
884.0
 23
205.5
 33
0.0
 14
954.0
 24
205.5
 34
0.0
1001
ACAD
1000
DSTYLE
1002
{
1070
   287
1070
     4
1070
   279
1070
     1
1002
}
  0
INSERT
  5
58CC
  8
011形状
  2
*U43
 10
0.0
 20
0.0
 30
0.0
1001
ACAD_MLEADERVER
1070
     2
  0
INSERT
  5
58DD
  8
011形状
  2
*U44
 10
0.0
 20
0.0
 30
0.0
  0
DIMENSION
  5
58EC
  8
002寸法
  2
*D22
 10
723.69615506024434
 20
26.527036446661459
 30
0.0
 11
647.27507342649665
 21
40.002135033615041
 31
0.0
 70
   131
 15
684.30384493975589
 25
33.472963553338587
 35
0.0
 40
0.0
1001
ACAD
1000
DSTYLE
1002
{
1070
     3
1000
P.C.D.<>
1070
   288
1070
     1
1002
}
1001
ACAD_DSTYLE_DIMRADIAL_EXTENSION
1070
   387
1070
     1
1070
   388
1040
6.0382066440514359
1070
   390
1040
3.3865713167179421
  0
INSERT
  5
5962
  8
011形状
  2
*U46
 10
0.0
 20
0.0
 30
0.0
1001
ACAD_MLEADERVER
1070
     2
  0
VIEWPORT
  5
71
 67
     1
  8
0
 10
624.30697861446504
 20
307.75602246587403
 30
0.0
 40
994.76769694267671
 41
769.77311836716035
 68
     1
 69
     1
1001
ACAD
1000
MVIEW
1002
{
1070
    16
1010
0.0
1020
0.0
1030
0.0
1010
0.0
1020
0.0
1030
1.0
1040
0.0
1040
769.77311836716035
1040
624.30697861446504
1040
307.75602246587403
1040
50.0
1040
0.0
1040
0.0
1070
     0
1070
   100
1070
     1
1070
     1
1070
     1
1070
     0
1070
     0
1070
     0
1040
0.0
1040
0.0
1040
0.0
1040
0.5
1040
0.5
1040
10.0
1040
10.0
1070
     0
1002
{
1002
}
1002
}
  0
VIEWPORT
  5
73
 67
     1
  8
0
 10
693.0
 20
140.5
 30
0.0
 40
419.99999999999989
 41
297.0
 68
     2
 69
     2
1001
ACAD
1000
MVIEW
1002
{
1070
    16
1010
0.0
1020
0.0
1030
0.0
1010
0.0
1020
0.0
1030
1.0
1040
0.0
1040
297.0
1040
804.0
1040
148.5
1040
50.0
1040
0.0
1040
0.0
1070
     0
1070
   100
1070
     1
1070
     3
1070
     0
1070
     0
1070
     0
1070
     0
1040
0.0
1040
0.0
1040
0.0
1040
10.0
1040
10.0
1040
10.0
1040
10.0
1070
     0
1002
{
1002
}
1002
}
  0
ENDSEC
  0
EOF
