  0
SECTION
  2
HEADER
  9
$ACADVER
  1
AC1009
  9
$INSBASE
 10
0.0
 20
0.0
 30
0.0
  9
$EXTMIN
 10
594.0
 20
0.0
 30
0.0
  9
$EXTMAX
 10
1434.0
 20
594.0
 30
0.0
  9
$LIMMIN
 10
0.0
 20
0.0
  9
$LIMMAX
 10
420.0
 20
297.0
  9
$ORTHOMODE
 70
     0
  9
$REGENMODE
 70
     1
  9
$FILLMODE
 70
     1
  9
$QTEXTMODE
 70
     0
  9
$MIRRTEXT
 70
     1
  9
$DRAGMODE
 70
     2
  9
$LTSCALE
 40
2.0
  9
$OSMODE
 70
    39
  9
$ATTMODE
 70
     1
  9
$TEXTSIZE
 40
3.0
  9
$TRACEWID
 40
1.0
  9
$TEXTSTYLE
  7
STANDARD
  9
$CLAYER
  8
011形状
  9
$CELTYPE
  6
BYLAYER
  9
$CECOLOR
 62
   256
  9
$DIMSCALE
 40
1.0
  9
$DIMASZ
 40
5.0
  9
$DIMEXO
 40
1.0
  9
$DIMDLI
 40
3.75
  9
$DIMRND
 40
0.0
  9
$DIMDLE
 40
0.0
  9
$DIMEXE
 40
1.5
  9
$DIMTP
 40
0.0
  9
$DIMTM
 40
0.0
  9
$DIMTXT
 40
6.0
  9
$DIMCEN
 40
2.5
  9
$DIMTSZ
 40
0.0
  9
$DIMTOL
 70
     0
  9
$DIMLIM
 70
     0
  9
$DIMTIH
 70
     0
  9
$DIMTOH
 70
     0
  9
$DIMSE1
 70
     0
  9
$DIMSE2
 70
     0
  9
$DIMTAD
 70
     3
  9
$DIMZIN
 70
     8
  9
$DIMBLK
  1

  9
$DIMASO
 70
     1
  9
$DIMSHO
 70
     1
  9
$DIMPOST
  1

  9
$DIMAPOST
  1

  9
$DIMALT
 70
     0
  9
$DIMALTD
 70
     4
  9
$DIMALTF
 40
0.0394
  9
$DIMLFAC
 40
1.0
  9
$DIMTOFL
 70
     1
  9
$DIMTVP
 40
0.0
  9
$DIMTIX
 70
     0
  9
$DIMSOXD
 70
     0
  9
$DIMSAH
 70
     1
  9
$DIMBLK1
  1
OPEN
  9
$DIMBLK2
  1
OPEN
  9
$DIMSTYLE
  2
通常X1_2
  9
$DIMCLRD
 70
   256
  9
$DIMCLRE
 70
   256
  9
$DIMCLRT
 70
     2
  9
$DIMTFAC
 40
0.5
  9
$DIMGAP
 40
1.0
  9
$LUNITS
 70
     2
  9
$LUPREC
 70
     8
  9
$SKETCHINC
 40
1.0
  9
$FILLETRAD
 40
10.0
  9
$AUNITS
 70
     0
  9
$AUPREC
 70
     6
  9
$MENU
  1
.
  9
$ELEVATION
 40
0.0
  9
$PELEVATION
 40
0.0
  9
$THICKNESS
 40
0.0
  9
$LIMCHECK
 70
     0
  9
$BLIPMODE
 70
     0
  9
$CHAMFERA
 40
10.0
  9
$CHAMFERB
 40
10.0
  9
$SKPOLY
 70
     0
  9
$TDCREATE
 40
2453536.500536378
  9
$TDUPDATE
 40
2457947.7223085882
  9
$TDINDWG
 40
1.0664458449000001
  9
$TDUSRTIMER
 40
1.0664458449000001
  9
$USRTIMER
 70
     1
  9
$ANGBASE
 50
0.0
  9
$ANGDIR
 70
     0
  9
$PDMODE
 70
     0
  9
$PDSIZE
 40
0.0
  9
$PLINEWID
 40
0.0
  9
$COORDS
 70
     1
  9
$SPLFRAME
 70
     0
  9
$SPLINETYPE
 70
     6
  9
$SPLINESEGS
 70
     8
  9
$ATTDIA
 70
     1
  9
$ATTREQ
 70
     1
  9
$HANDLING
 70
     1
  9
$HANDSEED
  5
8101
  9
$SURFTAB1
 70
     6
  9
$SURFTAB2
 70
     6
  9
$SURFTYPE
 70
     6
  9
$SURFU
 70
     6
  9
$SURFV
 70
     6
  9
$UCSNAME
  2

  9
$UCSORG
 10
594.0
 20
0.0
 30
0.0
  9
$UCSXDIR
 10
1.0
 20
0.0
 30
0.0
  9
$UCSYDIR
 10
0.0
 20
1.0
 30
0.0
  9
$PUCSNAME
  2

  9
$PUCSORG
 10
0.0
 20
0.0
 30
0.0
  9
$PUCSXDIR
 10
1.0
 20
0.0
 30
0.0
  9
$PUCSYDIR
 10
0.0
 20
1.0
 30
0.0
  9
$USERI1
 70
     0
  9
$USERI2
 70
     0
  9
$USERI3
 70
     0
  9
$USERI4
 70
     0
  9
$USERI5
 70
     0
  9
$USERR1
 40
0.0
  9
$USERR2
 40
0.0
  9
$USERR3
 40
0.0
  9
$USERR4
 40
0.0
  9
$USERR5
 40
0.0
  9
$WORLDVIEW
 70
     1
  9
$SHADEDGE
 70
     3
  9
$SHADEDIF
 70
    70
  9
$TILEMODE
 70
     1
  9
$MAXACTVP
 70
    48
  9
$PLIMCHECK
 70
     0
  9
$PEXTMIN
 10
211.5
 20
-8.0
 30
0.0
  9
$PEXTMAX
 10
903.5
 20
300.0
 30
0.0
  9
$PLIMMIN
 10
483.02948910854462
 20
-8.1501641204820885
  9
$PLIMMAX
 10
903.01847226284156
 20
288.8181586334241
  9
$UNITMODE
 70
     0
  9
$VISRETAIN
 70
     1
  9
$PLINEGEN
 70
     0
  9
$PSLTSCALE
 70
     1
  0
ENDSEC
  0
SECTION
  2
TABLES
  0
TABLE
  2
VPORT
 70
     1
  0
VPORT
  2
*ACTIVE
 70
     0
 10
0.0
 20
0.0
 11
1.0
 21
1.0
 12
1013.988469224602
 22
309.88780454852889
 13
0.0
 23
0.0
 14
10.0
 24
10.0
 15
10.0
 25
10.0
 16
0.0
 26
0.0
 36
1.0
 17
0.0
 27
0.0
 37
0.0
 40
604.27964521834201
 41
1.481638418079096
 42
50.0
 43
0.0
 44
0.0
 50
0.0
 51
0.0
 71
     0
 72
   100
 73
     1
 74
     3
 75
     0
 76
     1
 77
     0
 78
     0
  0
ENDTAB
  0
TABLE
  2
LTYPE
 70
    10
  0
LTYPE
  2
CONTINUOUS
 70
     0
  3
Solid line
 72
    65
 73
     0
 40
0.0
  0
LTYPE
  2
CENTER
 70
     0
  3
Center ____ _ ____ _ ____ _ ____ _ ____ _ ____
 72
    65
 73
     4
 40
2.0
 49
1.25
 49
-0.25
 49
0.25
 49
-0.25
  0
LTYPE
  2
CENTER2
 70
     0
  3
Center (.5x) ___ _ ___ _ ___ _ ___ _ ___ _ ___
 72
    65
 73
     4
 40
1.125
 49
0.75
 49
-0.125
 49
0.125
 49
-0.125
  0
LTYPE
  2
DASHED
 70
     0
  3
Dashed __ __ __ __ __ __ __ __ __ __ __ __ __ _
 72
    65
 73
     2
 40
0.75
 49
0.5
 49
-0.25
  0
LTYPE
  2
DASHED2
 70
     0
  3
Dashed (.5x) _ _ _ _ _ _ _ _ _ _ _ _ _ _ _ _ _
 72
    65
 73
     2
 40
0.375
 49
0.25
 49
-0.125
  0
LTYPE
  2
PHANTOM2
 70
     0
  3
Phantom (.5x) ___ _ _ ___ _ _ ___ _ _ ___ _ _
 72
    65
 73
     6
 40
1.25
 49
0.625
 49
-0.125
 49
0.125
 49
-0.125
 49
0.125
 49
-0.125
  0
LTYPE
  2
CENTERX2
 70
     0
  3
Center (2x) ________  __  ________  __  _____
 72
    65
 73
     4
 40
4.0
 49
2.5
 49
-0.5
 49
0.5
 49
-0.5
  0
LTYPE
  2
DASHEDX2
 70
     0
  3
Dashed (2x) ____  ____  ____  ____  ____  ___
 72
    65
 73
     2
 40
1.5
 49
1.0
 49
-0.5
  0
LTYPE
  2
PHANTOM
 70
     0
  3
Phantom ______  __  __  ______  __  __  ______
 72
    65
 73
     6
 40
2.5
 49
1.25
 49
-0.25
 49
0.25
 49
-0.25
 49
0.25
 49
-0.25
  0
LTYPE
  2
PHANTOMX2
 70
     0
  3
Phantom (2x) ____________    ____    ____   _
 72
    65
 73
     6
 40
5.0
 49
2.5
 49
-0.5
 49
0.5
 49
-0.5
 49
0.5
 49
-0.5
  0
ENDTAB
  0
TABLE
  2
LAYER
 70
     9
  0
LAYER
  2
0
 70
     0
 62
     7
  6
CONTINUOUS
  0
LAYER
  2
DEFPOINTS
 70
     0
 62
     7
  6
CONTINUOUS
  0
LAYER
  2
002寸法
 70
     0
 62
     1
  6
CONTINUOUS
  0
LAYER
  2
001センタ
 70
     0
 62
     1
  6
CENTER
  0
LAYER
  2
011形状
 70
     0
 62
     3
  6
CONTINUOUS
  0
LAYER
  2
003注釈
 70
     0
 62
     2
  6
CONTINUOUS
  0
LAYER
  2
051共通部品
 70
     0
 62
     3
  6
CONTINUOUS
  0
LAYER
  2
101購入品
 70
     0
 62
     3
  6
CONTINUOUS
  0
LAYER
  2
111治具
 70
     0
 62
     3
  6
CONTINUOUS
  0
ENDTAB
  0
TABLE
  2
STYLE
 70
     4
  0
STYLE
  2
STANDARD
 70
     0
 40
0.0
 41
0.9
 50
0.0
 71
     0
 42
3.0
  3
romans.shx
  4
extfont2.shx
  0
STYLE
  2
表題
 70
     0
 40
0.0
 41
1.0
 50
0.0
 71
     0
 42
2.5
  3
txt
  4

  0
STYLE
  2

 70
     1
 40
0.0
 41
1.0
 50
0.0
 71
     0
 42
2.5
  3
ltypeshp.shx
  4

  0
STYLE
  2
注釈
 70
     0
 40
3.0
 41
0.9
 50
0.0
 71
     0
 42
3.0
  3
romans.shx
  4
extfont2.shx
  0
ENDTAB
  0
TABLE
  2
VIEW
 70
     0
  0
ENDTAB
  0
TABLE
  2
UCS
 70
     0
  0
ENDTAB
  0
TABLE
  2
APPID
 70
    17
  0
APPID
  2
ACAD
 70
     0
  0
APPID
  2
ACAD_NAV_VCDISPLAY
 70
     0
  0
APPID
  2
ACAD_EXEMPT_FROM_CAD_STANDARDS
 70
     0
  0
APPID
  2
ACAUTHENVIRON
 70
     0
  0
APPID
  2
ACDBDYNAMICBLOCKTRUENAME
 70
     0
  0
APPID
  2
ACDBDYNAMICBLOCKGUID
 70
     0
  0
APPID
  2
ACADANNOPO
 70
     0
  0
APPID
  2
ACAECLAYERSTANDARD
 70
     0
  0
APPID
  2
ACCMTRANSPARENCY
 70
     0
  0
APPID
  2
ACAD_PSEXT
 70
     0
  0
APPID
  2
ACAD_DSTYLE_DIMJAG
 70
     0
  0
APPID
  2
ACAD_DSTYLE_DIMTALN
 70
     0
  0
APPID
  2
ACAD_DSTYLE_DIMRADIAL_EXTENSION
 70
     0
  0
APPID
  2
ACAD_MLEADERVER
 70
     0
  0
APPID
  2
CONTENTBLOCKDESCRIPTION
 70
     0
  0
APPID
  2
CONTENTBLOCKICON
 70
     0
  0
APPID
  2
AcDbAttr
 70
     0
  0
ENDTAB
  0
TABLE
  2
DIMSTYLE
 70
    19
  0
DIMSTYLE
  2
通常X1_0
 70
     0
  3

  4

  5

  6
OPEN
  7
OPEN
 40
1.0
 41
2.5
 42
0.5
 43
3.75
 44
0.75
 45
0.0
 46
0.0
 47
0.0
 48
0.000000001
140
3.0
141
2.5
142
0.0
143
0.0394
144
1.0
145
0.0
146
0.5
147
0.5
 71
     0
 72
     0
 73
     0
 74
     0
 75
     0
 76
     0
 77
     3
 78
     8
170
     0
171
     4
172
     1
173
     1
174
     0
175
     0
176
   256
177
   256
178
     2
  0
DIMSTYLE
  2
通常X3_0
 70
     0
  3

  4

  5

  6
OPEN
  7
OPEN
 40
0.0
 41
0.833
 42
0.167
 43
3.75
 44
0.25
 45
0.0
 46
0.0
 47
0.0
 48
0.000000001
140
1.0
141
2.5
142
0.0
143
0.0394
144
1.0
145
0.0
146
0.5
147
0.167
 71
     0
 72
     0
 73
     0
 74
     0
 75
     0
 76
     0
 77
     3
 78
     8
170
     0
171
     4
172
     1
173
     1
174
     0
175
     0
176
   256
177
   256
178
     2
  0
DIMSTYLE
  2
通常X2_0
 70
     0
  3

  4

  5

  6
OPEN
  7
OPEN
 40
0.0
 41
1.25
 42
0.25
 43
3.75
 44
0.375
 45
0.0
 46
0.0
 47
0.0
 48
0.000000001
140
1.5
141
2.5
142
0.0
143
0.0394
144
1.0
145
0.0
146
0.5
147
0.25
 71
     0
 72
     0
 73
     0
 74
     0
 75
     0
 76
     0
 77
     3
 78
     8
170
     0
171
     4
172
     1
173
     1
174
     0
175
     0
176
   256
177
   256
178
     2
  0
DIMSTYLE
  2
通常X2_3
 70
     0
  3

  4

  5

  6
OPEN
  7
OPEN
 40
1.0
 41
3.75
 42
0.75
 43
3.75
 44
1.125
 45
0.0
 46
0.0
 47
0.0
 48
0.0
140
4.5
141
2.5
142
0.0
143
0.0394
144
1.0
145
0.0
146
0.5
147
0.75
 71
     0
 72
     0
 73
     0
 74
     0
 75
     0
 76
     0
 77
     3
 78
     8
170
     0
171
     4
172
     1
173
     1
174
     0
175
     0
176
   256
177
   256
178
     2
  0
DIMSTYLE
  2
通常X3_4
 70
     0
  3

  4

  5

  6
OPEN
  7
OPEN
 40
1.0
 41
3.3330000000000002
 42
0.667
 43
3.75
 44
1.0
 45
0.0
 46
0.0
 47
0.0
 48
0.000000001
140
4.0
141
2.5
142
0.0
143
0.0394
144
1.0
145
0.0
146
0.5
147
0.667
 71
     0
 72
     0
 73
     0
 74
     0
 75
     0
 76
     0
 77
     3
 78
     8
170
     0
171
     4
172
     1
173
     1
174
     0
175
     0
176
   256
177
   256
178
     2
  0
DIMSTYLE
  2
通常X1_3
 70
     0
  3

  4

  5

  6
OPEN
  7
OPEN
 40
1.0
 41
7.5
 42
1.5
 43
3.75
 44
2.25
 45
0.0
 46
0.0
 47
0.0
 48
0.000000001
140
9.0
141
2.5
142
0.0
143
0.0394
144
1.0
145
0.0
146
0.5
147
1.5
 71
     0
 72
     0
 73
     0
 74
     0
 75
     0
 76
     0
 77
     3
 78
     8
170
     0
171
     4
172
     1
173
     1
174
     0
175
     0
176
   256
177
   256
178
     2
  0
DIMSTYLE
  2
通常X1_2
 70
     0
  3

  4

  5

  6
OPEN
  7
OPEN
 40
1.0
 41
5.0
 42
1.0
 43
3.75
 44
1.5
 45
0.0
 46
0.0
 47
0.0
 48
0.0
140
6.0
141
2.5
142
0.0
143
0.0394
144
1.0
145
0.0
146
0.5
147
1.0
 71
     0
 72
     0
 73
     0
 74
     0
 75
     0
 76
     0
 77
     3
 78
     8
170
     0
171
     4
172
     1
173
     1
174
     0
175
     0
176
   256
177
   256
178
     2
  0
DIMSTYLE
  2
通常X1_0$3
 70
     0
  3

  4

  5

  6
OPEN
  7
OPEN
 40
1.0
 41
2.5
 42
0.5
 43
3.75
 44
0.75
 45
0.0
 46
0.0
 47
0.0
 48
0.000000001
140
3.0
141
2.5
142
0.0
143
0.0394
144
1.0
145
0.0
146
0.5
147
0.5
 71
     0
 72
     0
 73
     0
 74
     0
 75
     0
 76
     0
 77
     3
 78
     8
170
     0
171
     4
172
     1
173
     1
174
     0
175
     0
176
   256
177
   256
178
     2
  0
DIMSTYLE
  2
通常X1_3$3
 70
     0
  3

  4

  5

  6
OPEN
  7
OPEN
 40
1.0
 41
7.5
 42
1.5
 43
3.75
 44
2.25
 45
0.0
 46
0.0
 47
0.0
 48
0.000000001
140
9.0
141
2.5
142
0.0
143
0.0394
144
1.0
145
0.0
146
0.5
147
1.5
 71
     0
 72
     0
 73
     0
 74
     0
 75
     0
 76
     0
 77
     3
 78
     8
170
     0
171
     4
172
     1
173
     1
174
     0
175
     0
176
   256
177
   256
178
     2
  0
DIMSTYLE
  2
通常X1_2$3
 70
     0
  3

  4

  5

  6
OPEN
  7
OPEN
 40
1.0
 41
5.0
 42
1.0
 43
3.75
 44
1.5
 45
0.0
 46
0.0
 47
0.0
 48
0.0
140
6.0
141
2.5
142
0.0
143
0.0394
144
1.0
145
0.0
146
0.5
147
1.0
 71
     0
 72
     0
 73
     0
 74
     0
 75
     0
 76
     0
 77
     3
 78
     8
170
     0
171
     4
172
     1
173
     1
174
     0
175
     0
176
   256
177
   256
178
     2
  0
DIMSTYLE
  2
通常X2_3$3
 70
     0
  3

  4

  5

  6
OPEN
  7
OPEN
 40
1.0
 41
3.75
 42
0.75
 43
3.75
 44
1.125
 45
0.0
 46
0.0
 47
0.0
 48
0.0
140
4.5
141
2.5
142
0.0
143
0.0394
144
1.0
145
0.0
146
0.5
147
0.75
 71
     0
 72
     0
 73
     0
 74
     0
 75
     0
 76
     0
 77
     3
 78
     8
170
     0
171
     4
172
     1
173
     1
174
     0
175
     0
176
   256
177
   256
178
     2
  0
DIMSTYLE
  2
通常X3_4$3
 70
     0
  3

  4

  5

  6
OPEN
  7
OPEN
 40
1.0
 41
3.3330000000000002
 42
0.667
 43
3.75
 44
1.0
 45
0.0
 46
0.0
 47
0.0
 48
0.000000001
140
4.0
141
10.0
142
0.0
143
0.0394
144
1.0
145
0.0
146
0.5
147
0.667
 71
     0
 72
     0
 73
     0
 74
     0
 75
     0
 76
     0
 77
     3
 78
     8
170
     0
171
     4
172
     1
173
     1
174
     0
175
     0
176
   256
177
   256
178
     2
  0
DIMSTYLE
  2
通常X2_0$3
 70
     0
  3

  4

  5

  6
OPEN
  7
OPEN
 40
0.0
 41
1.25
 42
0.25
 43
3.75
 44
0.5
 45
0.0
 46
0.0
 47
0.0
 48
0.000000001
140
1.5
141
2.5
142
0.0
143
0.0394
144
1.0
145
0.0
146
0.5
147
0.5
 71
     0
 72
     0
 73
     0
 74
     0
 75
     0
 76
     0
 77
     3
 78
     8
170
     0
171
     4
172
     1
173
     1
174
     0
175
     0
176
   256
177
   256
178
     2
  0
DIMSTYLE
  2
通常X3_0$3
 70
     0
  3

  4

  5

  6
OPEN
  7
OPEN
 40
0.0
 41
0.833
 42
0.167
 43
3.75
 44
0.4
 45
0.0
 46
0.0
 47
0.0
 48
0.000000001
140
1.0
141
2.5
142
0.0
143
0.0394
144
1.0
145
0.0
146
0.5
147
0.4
 71
     0
 72
     0
 73
     0
 74
     0
 75
     0
 76
     0
 77
     3
 78
     8
170
     0
171
     4
172
     1
173
     1
174
     0
175
     0
176
   256
177
   256
178
     2
  0
DIMSTYLE
  2
通常X1_5
 70
     0
  3

  4

  5

  6
OPEN
  7
OPEN
 40
1.0
 41
1.6669999999999989
 42
0.33
 43
3.75
 44
0.5
 45
0.0
 46
0.0
 47
0.0
 48
0.000000001
140
2.0
141
2.5
142
0.0
143
0.0394
144
1.0
145
0.0
146
0.5
147
0.33
 71
     0
 72
     0
 73
     0
 74
     0
 75
     0
 76
     0
 77
     3
 78
     9
170
     0
171
     4
172
     1
173
     1
174
     0
175
     0
176
   256
177
   256
178
     2
  0
DIMSTYLE
  2
通常X3_5
 70
     0
  3

  4

  5

  6
OPEN
  7
OPEN
 40
1.0
 41
4.1669999999999989
 42
0.833
 43
3.75
 44
1.25
 45
0.0
 46
0.0
 47
0.0
 48
0.000000001
140
5.0
141
2.5
142
0.0
143
0.0394
144
1.0
145
0.0
146
0.5
147
0.833
 71
     0
 72
     0
 73
     0
 74
     0
 75
     0
 76
     0
 77
     3
 78
     8
170
     0
171
     4
172
     1
173
     1
174
     0
175
     0
176
   256
177
   256
178
     2
  0
DIMSTYLE
  2
通常X3_5$3
 70
     0
  3

  4

  5

  6
OPEN
  7
OPEN
 40
1.0
 41
4.1669999999999989
 42
0.833
 43
3.75
 44
1.25
 45
0.0
 46
0.0
 47
0.0
 48
0.000000001
140
5.0
141
2.5
142
0.0
143
0.0394
144
1.0
145
0.0
146
0.5
147
0.833
 71
     0
 72
     0
 73
     0
 74
     0
 75
     0
 76
     0
 77
     3
 78
     8
170
     0
171
     4
172
     1
173
     1
174
     0
175
     0
176
   256
177
   256
178
     2
  0
DIMSTYLE
  2
通常X1_5$3
 70
     0
  3

  4

  5

  6
OPEN
  7
OPEN
 40
1.0
 41
1.6669999999999989
 42
0.33
 43
3.75
 44
0.5
 45
0.0
 46
0.0
 47
0.0
 48
0.000000001
140
2.0
141
2.5
142
0.0
143
0.0394
144
1.0
145
0.0
146
0.5
147
0.33
 71
     0
 72
     0
 73
     0
 74
     0
 75
     0
 76
     0
 77
     3
 78
     9
170
     0
171
     4
172
     1
173
     1
174
     0
175
     0
176
   256
177
   256
178
     2
  0
DIMSTYLE
  2
STANDARD
 70
     0
  3

  4

  5

  6

  7

 40
1.0
 41
0.18
 42
0.0625
 43
0.38
 44
0.18
 45
0.0
 46
0.0
 47
0.0
 48
0.0
140
0.18
141
0.09
142
0.0
143
25.399999999999999
144
1.0
145
0.0
146
1.0
147
0.09
 71
     0
 72
     0
 73
     1
 74
     1
 75
     0
 76
     0
 77
     0
 78
     0
170
     0
171
     2
172
     0
173
     0
174
     0
175
     0
176
     0
177
     0
178
     0
  0
ENDTAB
  0
ENDSEC
  0
SECTION
  2
BLOCKS
  0
BLOCK
  8
0
  2
$MODEL_SPACE
 70
     0
 10
0.0
 20
0.0
 30
0.0
  3
$MODEL_SPACE
  1

  0
ENDBLK
  5
21
  8
0
  0
BLOCK
 67
     1
  8
0
  2
$PAPER_SPACE
 70
     0
 10
0.0
 20
0.0
 30
0.0
  3
$PAPER_SPACE
  1

  0
ENDBLK
  5
58
 67
     1
  8
0
  0
BLOCK
  8
0
  2
_OPEN
 70
     0
 10
0.0
 20
0.0
 30
0.0
  3
_OPEN
  1

  0
LINE
  5
87
  8
0
  6
BYBLOCK
 62
     0
 10
-1.0
 20
0.1666666666666666
 30
0.0
 11
0.0
 21
0.0
 31
0.0
  0
LINE
  5
88
  8
0
  6
BYBLOCK
 62
     0
 10
0.0
 20
0.0
 30
0.0
 11
-1.0
 21
-0.1666666666666666
 31
0.0
  0
LINE
  5
89
  8
0
  6
BYBLOCK
 62
     0
 10
0.0
 20
0.0
 30
0.0
 11
-1.0
 21
0.0
 31
0.0
  0
ENDBLK
  5
8B
  8
0
  0
BLOCK
  8
0
  2
A$C0C1533B0
 70
     0
 10
0.0
 20
0.0
 30
0.0
  3
A$C0C1533B0
  1

  0
LINE
  5
2C54
  8
0
 10
5.2469999999998427
 20
5.2469999999998427
 30
0.0
 11
0.0
 21
5.2469999999998427
 31
0.0
  0
LINE
  5
2C55
  8
0
 10
5.0984999999996026
 20
5.0984999999996026
 30
0.0
 11
0.1484999999997854
 21
5.0984999999996026
 31
0.0
  0
LINE
  5
2C56
  8
0
 10
3.415500000000065
 20
4.6529999999988831
 30
0.0
 11
3.11850000000004
 21
4.6529999999988831
 31
0.0
  0
LINE
  5
2C57
  8
0
 10
3.11850000000004
 20
4.6529999999988831
 30
0.0
 11
3.11850000000004
 21
3.266999999998915
 31
0.0
  0
LINE
  5
2C58
  8
0
 10
1.7325000000000721
 20
4.6529999999988831
 30
0.0
 11
1.7325000000000721
 21
3.266999999998915
 31
0.0
  0
LINE
  5
2C59
  8
0
 10
1.7325000000000721
 20
4.6529999999988831
 30
0.0
 11
1.336499999999887
 21
4.6529999999988831
 31
0.0
  0
LINE
  5
2C5A
  8
0
 10
2.0324722099007881
 20
1.0250351407994449
 30
0.0
 11
2.0390851008005479
 21
1.0150218869994201
 31
0.0
  0
LINE
  5
2C5B
  8
0
 10
2.1496148443002312
 20
0.9334853956993356
 30
0.0
 11
2.1694535159003858
 21
0.9221561139995628
 31
0.0
  0
LINE
  5
2C5C
  8
0
 10
2.0277487164003101
 20
1.03516283089948
 30
0.0
 11
2.0324722099007881
 21
1.0250351407994449
 31
0.0
  0
LINE
  5
2C5D
  8
0
 10
2.1694535159003858
 20
0.9221561139995628
 30
0.0
 11
2.1892921875009961
 21
0.9115134566995948
 31
0.0
  0
LINE
  5
2C5E
  8
0
 10
2.024914620300478
 20
1.045404958399331
 30
0.0
 11
2.0277487164003101
 21
1.03516283089948
 31
0.0
  0
LINE
  5
2C5F
  8
0
 10
2.1892921875009961
 20
0.9115134566995948
 30
0.0
 11
2.209130859099786
 21
0.9015574215995911
 31
0.0
  0
LINE
  5
2C60
  8
0
 10
2.0239699215999281
 20
1.0557615232992239
 30
0.0
 11
2.024914620300478
 21
1.045404958399331
 31
0.0
  0
LINE
  5
2C61
  8
0
 10
2.209130859099786
 20
0.9015574215995911
 30
0.0
 11
2.2293069238003218
 21
0.8904570157997113
 31
0.0
  0
LINE
  5
2C62
  8
0
 10
2.0245772283005858
 20
1.065202591199067
 30
0.0
 11
2.0239699215999281
 21
1.0557615232992239
 31
0.0
  0
LINE
  5
2C63
  8
0
 10
2.2293069238003218
 20
0.8904570157997113
 30
0.0
 11
2.2463789776998051
 21
0.8779833622995739
 31
0.0
  0
LINE
  5
2C64
  8
0
 10
2.0263991472997982
 20
1.0743003468994621
 30
0.0
 11
2.0245772283005858
 21
1.065202591199067
 31
0.0
  0
LINE
  5
2C65
  8
0
 10
2.2463789776998051
 20
0.8779833622995739
 30
0.0
 11
2.260347023000576
 21
0.8641364632994736
 31
0.0
  0
LINE
  5
2C66
  8
0
 10
2.0294356786002932
 20
1.0830547914995341
 30
0.0
 11
2.0263991472997982
 21
1.0743003468994621
 31
0.0
  0
LINE
  5
2C67
  8
0
 10
2.260347023000576
 20
0.8641364632994736
 30
0.0
 11
2.2712110574998401
 21
0.8489163187991835
 31
0.0
  0
LINE
  5
2C68
  8
0
 10
2.0336868222002522
 20
1.091465923899249
 30
0.0
 11
2.0294356786002932
 21
1.0830547914995341
 31
0.0
  0
LINE
  5
2C69
  8
0
 10
2.2712110574998401
 20
0.8489163187991835
 30
0.0
 11
2.2789710822999041
 21
0.8323229276991241
 31
0.0
  0
LINE
  5
2C6A
  8
0
 10
2.039152579200163
 20
1.099533745199551
 30
0.0
 11
2.0336868222002522
 21
1.091465923899249
 31
0.0
  0
LINE
  5
2C6B
  8
0
 10
2.2789710822999041
 20
0.8323229276991241
 30
0.0
 11
2.2836270963007328
 21
0.8143562899992957
 31
0.0
  0
LINE
  5
2C6C
  8
0
 10
2.0458329485004461
 20
1.1072582553993009
 30
0.0
 11
2.039152579200163
 21
1.099533745199551
 31
0.0
  0
LINE
  5
2C6D
  8
0
 10
2.2836270963007328
 20
0.8143562899992957
 30
0.0
 11
2.2851791017001228
 21
0.7950164067992774
 31
0.0
  0
LINE
  5
2C6E
  8
0
 10
2.0537279301006488
 20
1.1146394533993771
 30
0.0
 11
2.0458329485004461
 21
1.1072582553993009
 31
0.0
  0
LINE
  5
2C6F
  8
0
 10
2.2851791017001228
 20
0.7950164067992774
 30
0.0
 11
2.2841669245999578
 21
0.7755620850994092
 31
0.0
  0
LINE
  5
2C70
  8
0
 10
2.0605432561997068
 20
1.119846345199448
 30
0.0
 11
2.0537279301006488
 21
1.1146394533993771
 31
0.0
  0
LINE
  5
2C71
  8
0
 10
2.2841669245999578
 20
0.7755620850994092
 30
0.0
 11
2.2811303933003719
 21
0.7572521362992575
 31
0.0
  0
LINE
  5
2C72
  8
0
 10
2.067763452700091
 20
1.124252176299251
 30
0.0
 11
2.0605432561997068
 21
1.119846345199448
 31
0.0
  0
LINE
  5
2C73
  8
0
 10
2.2811303933003719
 20
0.7572521362992575
 30
0.0
 11
2.2760695078000022
 21
0.7400865592994707
 31
0.0
  0
LINE
  5
2C74
  8
0
 10
2.075388520700471
 20
1.127856947799045
 30
0.0
 11
2.067763452700091
 21
1.124252176299251
 31
0.0
  0
LINE
  5
2C75
  8
0
 10
2.2760695078000022
 20
0.7400865592994707
 30
0.0
 11
2.2689842670001781
 21
0.7240653540995936
 31
0.0
  0
LINE
  5
2C76
  8
0
 10
2.0834184591003568
 20
1.1306606585994809
 30
0.0
 11
2.075388520700471
 21
1.127856947799045
 31
0.0
  0
LINE
  5
2C77
  8
0
 10
2.2689842670001781
 20
0.7240653540995936
 30
0.0
 11
2.259874673100057
 21
0.709188520699172
 31
0.0
  0
LINE
  5
2C78
  8
0
 10
2.091853268999329
 20
1.1326633086991931
 30
0.0
 11
2.0834184591003568
 21
1.1306606585994809
 31
0.0
  0
LINE
  5
2C79
  8
0
 10
2.259874673100057
 20
0.709188520699172
 30
0.0
 11
2.2487407250000611
 21
0.6954560590995698
 31
0.0
  0
LINE
  5
2C7A
  8
0
 10
2.1006929493005368
 20
1.1338648991993521
 30
0.0
 11
2.091853268999329
 21
1.1326633086991931
 31
0.0
  0
LINE
  5
2C7B
  8
0
 10
2.2487407250000611
 20
0.6954560590995698
 30
0.0
 11
2.2355824216001561
 21
0.6828679681989343
 31
0.0
  0
LINE
  5
2C7C
  8
0
 10
2.1099374999998868
 20
1.1342654300992761
 30
0.0
 11
2.1006929493005368
 21
1.1338648991993521
 31
0.0
  0
LINE
  5
2C7D
  8
0
 10
2.2355824216001561
 20
0.6828679681989343
 30
0.0
 11
2.2216143774003281
 21
0.6724541856992801
 31
0.0
  0
LINE
  5
2C7E
  8
0
 10
2.1191820507006009
 20
1.1338648991993521
 30
0.0
 11
2.1099374999998868
 21
1.1342654300992761
 31
0.0
  0
LINE
  5
2C7F
  8
0
 10
2.2216143774003281
 20
0.6724541856992801
 30
0.0
 11
2.2061618061998161
 21
0.6636425223994138
 31
0.0
  0
LINE
  5
2C80
  8
0
 10
2.1280217310004441
 20
1.1326633086991931
 30
0.0
 11
2.1191820507006009
 21
1.1338648991993521
 31
0.0
  0
LINE
  5
2C81
  8
0
 10
2.2061618061998161
 20
0.6636425223994138
 30
0.0
 11
2.1892247091000172
 21
0.656432979399142
 31
0.0
  0
LINE
  5
2C82
  8
0
 10
2.1364565409003262
 20
1.1306606585994809
 30
0.0
 11
2.1280217310004441
 21
1.1326633086991931
 31
0.0
  0
LINE
  5
2C83
  8
0
 10
2.1892247091000172
 20
0.656432979399142
 30
0.0
 11
2.1708030849999882
 21
0.6508255577991804
 31
0.0
  0
LINE
  5
2C84
  8
0
 10
2.1444864793006668
 20
1.127856947799045
 30
0.0
 11
2.1364565409003262
 21
1.1306606585994809
 31
0.0
  0
LINE
  5
2C85
  8
0
 10
2.1708030849999882
 20
0.6508255577991804
 30
0.0
 11
2.1508969349997642
 21
0.6468202564994954
 31
0.0
  0
LINE
  5
2C86
  8
0
 10
2.1521115473001369
 20
1.124252176299251
 30
0.0
 11
2.1444864793006668
 21
1.127856947799045
 31
0.0
  0
LINE
  5
2C87
  8
0
 10
2.1508969349997642
 20
0.6468202564994954
 30
0.0
 11
2.1295062580002191
 21
0.6444170754994048
 31
0.0
  0
LINE
  5
2C88
  8
0
 10
2.159331743799612
 20
1.119846345199448
 30
0.0
 11
2.1521115473001369
 21
1.124252176299251
 31
0.0
  0
LINE
  5
2C89
  8
0
 10
2.1295062580002191
 20
0.6444170754994048
 30
0.0
 11
2.1066310551004781
 21
0.6436160158991698
 31
0.0
  0
LINE
  5
2C8A
  8
0
 10
2.1661470699009442
 20
1.1146394533993771
 30
0.0
 11
2.159331743799612
 21
1.119846345199448
 31
0.0
  0
LINE
  5
2C8B
  8
0
 10
2.1066310551004781
 20
0.6436160158991698
 30
0.0
 11
2.0847005497998898
 21
0.6443598567993832
 31
0.0
  0
LINE
  5
2C8C
  8
0
 10
2.1747843150005788
 20
1.1062283198991729
 30
0.0
 11
2.1661470699009442
 21
1.1146394533993771
 31
0.0
  0
LINE
  5
2C8D
  8
0
 10
2.0847005497998898
 20
0.6443598567993832
 30
0.0
 11
2.064254571499986
 21
0.6465913827996701
 31
0.0
  0
LINE
  5
2C8E
  8
0
 10
2.1818020763007548
 20
1.0970161267991889
 30
0.0
 11
2.1747843150005788
 21
1.1062283198991729
 31
0.0
  0
LINE
  5
2C8F
  8
0
 10
2.064254571499986
 20
0.6465913827996701
 30
0.0
 11
2.0452931201998581
 21
0.650310590599247
 31
0.0
  0
LINE
  5
2C90
  8
0
 10
2.1872003549001411
 20
1.0870028740991979
 30
0.0
 11
2.1818020763007548
 21
1.0970161267991889
 31
0.0
  0
LINE
  5
2C91
  8
0
 10
2.0452931201998581
 20
0.650310590599247
 30
0.0
 11
2.0278161947999251
 21
0.6555174823993184
 31
0.0
  0
LINE
  5
2C92
  8
0
 10
2.1909791497000688
 20
1.0761885606989381
 30
0.0
 11
2.1872003549001411
 21
1.0870028740991979
 31
0.0
  0
LINE
  5
2C93
  8
0
 10
2.0278161947999251
 20
0.6555174823993184
 30
0.0
 11
2.0118237963997672
 21
0.6622120570993957
 31
0.0
  0
LINE
  5
2C94
  8
0
 10
2.193138460700538
 20
1.0645731865990911
 30
0.0
 11
2.1909791497000688
 21
1.0761885606989381
 31
0.0
  0
LINE
  5
2C95
  8
0
 10
2.0118237963997672
 20
0.6622120570993957
 30
0.0
 11
1.9973159238998051
 21
0.6703943157995127
 31
0.0
  0
LINE
  5
2C96
  8
0
 10
2.193678287900183
 20
1.052156751799429
 30
0.0
 11
2.193138460700538
 21
1.0645731865990911
 31
0.0
  0
LINE
  5
2C97
  8
0
 10
1.9973159238998051
 20
0.6703943157995127
 30
0.0
 11
1.984292578400527
 21
0.6800642573994084
 31
0.0
  0
LINE
  5
2C98
  8
0
 10
2.1925986323999491
 20
1.038939257398851
 30
0.0
 11
2.193678287900183
 21
1.052156751799429
 31
0.0
  0
LINE
  5
2C99
  8
0
 10
1.984292578400527
 20
0.6800642573994084
 30
0.0
 11
1.970257054700596
 21
0.6932245330992828
 31
0.0
  0
LINE
  5
2C9A
  8
0
 10
2.2686468749998312
 20
1.038939257398851
 30
0.0
 11
2.1925986323999491
 21
1.038939257398851
 31
0.0
  0
LINE
  5
2C9B
  8
0
 10
1.970257054700596
 20
0.6932245330992828
 30
0.0
 11
1.9583808431002581
 21
0.707071432099383
 31
0.0
  0
LINE
  5
2C9C
  8
0
 10
2.2685119182001472
 20
1.0598812619996349
 30
0.0
 11
2.2686468749998312
 21
1.038939257398851
 31
0.0
  0
LINE
  5
2C9D
  8
0
 10
1.9583808431002581
 20
0.707071432099383
 30
0.0
 11
1.948663942499933
 21
0.7216049543994814
 31
0.0
  0
LINE
  5
2C9E
  8
0
 10
2.2662176504004492
 20
1.0794500199992849
 30
0.0
 11
2.2685119182001472
 21
1.0598812619996349
 31
0.0
  0
LINE
  5
2C9F
  8
0
 10
1.948663942499933
 20
0.7216049543994814
 30
0.0
 11
1.9411063540001121
 21
0.7368250999993508
 31
0.0
  0
LINE
  5
2CA0
  8
0
 10
2.2617640705002482
 20
1.097645531399166
 30
0.0
 11
2.2662176504004492
 21
1.0794500199992849
 31
0.0
  0
LINE
  5
2CA1
  8
0
 10
1.9411063540001121
 20
0.7368250999993508
 30
0.0
 11
1.935708075400725
 21
0.7527318677994117
 31
0.0
  0
LINE
  5
2CA2
  8
0
 10
2.2551511796004879
 20
1.114467797299312
 30
0.0
 11
2.2617640705002482
 21
1.097645531399166
 31
0.0
  0
LINE
  5
2CA3
  8
0
 10
1.935708075400725
 20
0.7527318677994117
 30
0.0
 11
1.9324691088995669
 21
0.7693252588992438
 31
0.0
  0
LINE
  5
2CA4
  8
0
 10
2.2463789776998051
 20
1.1299168165992339
 30
0.0
 11
2.2551511796004879
 21
1.114467797299312
 31
0.0
  0
LINE
  5
2CA5
  8
0
 10
1.9324691088995669
 20
0.7693252588992438
 30
0.0
 11
1.931389453400697
 21
0.7866052732993012
 31
0.0
  0
LINE
  5
2CA6
  8
0
 10
2.2354474648000169
 20
1.143992590399193
 30
0.0
 11
2.2463789776998051
 21
1.1299168165992339
 31
0.0
  0
LINE
  5
2CA7
  8
0
 10
1.931389453400697
 20
0.7866052732993012
 30
0.0
 11
1.931389453400697
 21
0.81464238239937
 31
0.0
  0
LINE
  5
2CA8
  8
0
 10
2.222356640900216
 20
1.1566951175993829
 30
0.0
 11
2.2354474648000169
 21
1.143992590399193
 31
0.0
  0
LINE
  5
2CA9
  8
0
 10
1.931389453400697
 20
0.81464238239937
 30
0.0
 11
2.0074376948996351
 21
0.81464238239937
 31
0.0
  0
LINE
  5
2CAA
  8
0
 10
2.21034547140016
 20
1.165621217199259
 30
0.0
 11
2.222356640900216
 21
1.1566951175993829
 31
0.0
  0
LINE
  5
2CAB
  8
0
 10
2.0074376948996351
 20
0.81464238239937
 30
0.0
 11
2.0074376948996351
 21
0.789408984099282
 31
0.0
  0
LINE
  5
2CAC
  8
0
 10
2.1969847339000799
 20
1.173174071299399
 30
0.0
 11
2.21034547140016
 21
1.165621217199259
 31
0.0
  0
LINE
  5
2CAD
  8
0
 10
2.0074376948996351
 20
0.789408984099282
 30
0.0
 11
2.0079775232006791
 21
0.7770497690994489
 31
0.0
  0
LINE
  5
2CAE
  8
0
 10
2.1822744262003648
 20
1.1793536787995429
 30
0.0
 11
2.1969847339000799
 21
1.173174071299399
 31
0.0
  0
LINE
  5
2CAF
  8
0
 10
2.0079775232006791
 20
0.7770497690994489
 30
0.0
 11
2.0095970069996829
 21
0.765606051099212
 31
0.0
  0
LINE
  5
2CB0
  8
0
 10
2.1662145483005579
 20
1.184160040799497
 30
0.0
 11
2.1822744262003648
 21
1.1793536787995429
 31
0.0
  0
LINE
  5
2CB1
  8
0
 10
2.0095970069996829
 20
0.765606051099212
 30
0.0
 11
2.012296145199798
 21
0.7550778300992534
 31
0.0
  0
LINE
  5
2CB2
  8
0
 10
2.1488051023998191
 20
1.1875931561990001
 30
0.0
 11
2.1662145483005579
 21
1.184160040799497
 31
0.0
  0
LINE
  5
2CB3
  8
0
 10
2.012296145199798
 20
0.7550778300992534
 30
0.0
 11
2.0160749400001801
 21
0.7454651071996068
 31
0.0
  0
LINE
  5
2CB4
  8
0
 10
2.1300460862994441
 20
1.1896530249991879
 30
0.0
 11
2.1488051023998191
 21
1.1875931561990001
 31
0.0
  0
LINE
  5
2CB5
  8
0
 10
2.0160749400001801
 20
0.7454651071996068
 30
0.0
 11
2.0209333903003421
 21
0.7367678812993291
 31
0.0
  0
LINE
  5
2CB6
  8
0
 10
2.1099374999998868
 20
1.1903396482994131
 30
0.0
 11
2.1300460862994441
 21
1.1896530249991879
 31
0.0
  0
LINE
  5
2CB7
  8
0
 10
2.0209333903003421
 20
0.7367678812993291
 30
0.0
 11
2.0268714961002838
 21
0.7289861523991023
 31
0.0
  0
LINE
  5
2CB8
  8
0
 10
2.093135359700681
 20
1.1895385886991781
 30
0.0
 11
2.1099374999998868
 21
1.1903396482994131
 31
0.0
  0
LINE
  5
2CB9
  8
0
 10
2.0268714961002838
 20
0.7289861523991023
 30
0.0
 11
2.0338892574004599
 21
0.7221199215994149
 31
0.0
  0
LINE
  5
2CBA
  8
0
 10
2.076738089799619
 20
1.187135407699315
 30
0.0
 11
2.093135359700681
 21
1.1895385886991781
 31
0.0
  0
LINE
  5
2CBB
  8
0
 10
2.0338892574004599
 20
0.7221199215994149
 30
0.0
 11
2.0417167606001381
 21
0.7161691888993574
 31
0.0
  0
LINE
  5
2CBC
  8
0
 10
2.0607456914003701
 20
1.1831301063994031
 30
0.0
 11
2.076738089799619
 21
1.187135407699315
 31
0.0
  0
LINE
  5
2CBD
  8
0
 10
2.0417167606001381
 20
0.7161691888993574
 30
0.0
 11
2.050084092099496
 21
0.7111339520995444
 31
0.0
  0
LINE
  5
2CBE
  8
0
 10
2.0451581633997189
 20
1.1775226836991799
 30
0.0
 11
2.0607456914003701
 21
1.1831301063994031
 31
0.0
  0
LINE
  5
2CBF
  8
0
 10
2.050084092099496
 20
0.7111339520995444
 30
0.0
 11
2.0589912508003181
 21
0.7070142144991678
 31
0.0
  0
LINE
  5
2CC0
  8
0
 10
2.0299755057999391
 20
1.170313141799169
 30
0.0
 11
2.0451581633997189
 21
1.1775226836991799
 31
0.0
  0
LINE
  5
2CC1
  8
0
 10
2.0589912508003181
 20
0.7070142144991678
 30
0.0
 11
2.0684382377994548
 21
0.7038099727990357
 31
0.0
  0
LINE
  5
2CC2
  8
0
 10
2.0151977197001538
 20
1.161501478499303
 30
0.0
 11
2.0299755057999391
 21
1.170313141799169
 31
0.0
  0
LINE
  5
2CC3
  8
0
 10
2.0684382377994548
 20
0.7038099727990357
 30
0.0
 11
2.078425052000056
 21
0.7015212291994432
 31
0.0
  0
LINE
  5
2CC4
  8
0
 10
2.00082480509991
 20
1.15108769489916
 30
0.0
 11
2.0151977197001538
 21
1.161501478499303
 31
0.0
  0
LINE
  5
2CC5
  8
0
 10
2.078425052000056
 20
0.7015212291994432
 30
0.0
 11
2.088951694500337
 21
0.7001479825992192
 31
0.0
  0
LINE
  5
2CC6
  8
0
 10
1.9868567598000479
 20
1.138671261199306
 30
0.0
 11
2.00082480509991
 21
1.15108769489916
 31
0.0
  0
LINE
  5
2CC7
  8
0
 10
2.088951694500337
 20
0.7001479825992192
 30
0.0
 11
2.100018164200264
 21
0.6996902340993075
 31
0.0
  0
LINE
  5
2CC8
  8
0
 10
1.975182983400827
 20
1.125453766799182
 30
0.0
 11
1.9868567598000479
 21
1.138671261199306
 31
0.0
  0
LINE
  5
2CC9
  8
0
 10
2.100018164200264
 20
0.6996902340993075
 30
0.0
 11
2.1145935151007502
 21
0.7001479825992192
 31
0.0
  0
LINE
  5
2CCA
  8
0
 10
1.965803475900429
 20
1.1114352116992441
 30
0.0
 11
1.975182983400827
 21
1.125453766799182
 31
0.0
  0
LINE
  5
2CCB
  8
0
 10
2.1145935151007502
 20
0.7001479825992192
 30
0.0
 11
2.128089210500093
 21
0.7015212291994432
 31
0.0
  0
LINE
  5
2CCC
  8
0
 10
1.958718236200184
 20
1.096615596999527
 30
0.0
 11
1.965803475900429
 21
1.1114352116992441
 31
0.0
  0
LINE
  5
2CCD
  8
0
 10
2.128089210500093
 20
0.7015212291994432
 30
0.0
 11
2.140505249300531
 21
0.7038099727990357
 31
0.0
  0
LINE
  5
2CCE
  8
0
 10
1.9539272643005461
 20
1.08099492159954
 30
0.0
 11
1.958718236200184
 21
1.096615596999527
 31
0.0
  0
LINE
  5
2CCF
  8
0
 10
2.140505249300531
 20
0.7038099727990357
 30
0.0
 11
2.1518416337003141
 21
0.7070142144991678
 31
0.0
  0
LINE
  5
2CD0
  8
0
 10
1.951430560199696
 20
1.0645731865990911
 30
0.0
 11
1.9539272643005461
 21
1.08099492159954
 31
0.0
  0
LINE
  5
2CD1
  8
0
 10
2.1518416337003141
 20
0.7070142144991678
 30
0.0
 11
2.1620983615002838
 21
0.7111339520995444
 31
0.0
  0
LINE
  5
2CD2
  8
0
 10
1.951228124999943
 20
1.047350390899509
 30
0.0
 11
1.951430560199696
 21
1.0645731865990911
 31
0.0
  0
LINE
  5
2CD3
  8
0
 10
2.1620983615002838
 20
0.7111339520995444
 30
0.0
 11
2.1712754349000529
 21
0.7161691888993574
 31
0.0
  0
LINE
  5
2CD4
  8
0
 10
1.9531850007997491
 20
1.0302420314994829
 30
0.0
 11
1.951228124999943
 21
1.047350390899509
 31
0.0
  0
LINE
  5
2CD5
  8
0
 10
2.1712754349000529
 20
0.7161691888993574
 30
0.0
 11
2.1793728517004629
 21
0.7221199215994149
 31
0.0
  0
LINE
  5
2CD6
  8
0
 10
1.9571662307998841
 20
1.01416360759913
 30
0.0
 11
1.9531850007997491
 21
1.0302420314994829
 31
0.0
  0
LINE
  5
2CD7
  8
0
 10
2.1793728517004629
 20
0.7221199215994149
 30
0.0
 11
2.1872678333002109
 21
0.7296155569995335
 31
0.0
  0
LINE
  5
2CD8
  8
0
 10
1.9631718150003501
 20
0.9991151191993594
 30
0.0
 11
1.9571662307998841
 21
1.01416360759913
 31
0.0
  0
LINE
  5
2CD9
  8
0
 10
2.1872678333002109
 20
0.7296155569995335
 30
0.0
 11
2.1939482025995849
 21
0.7376833782993799
 31
0.0
  0
LINE
  5
2CDA
  8
0
 10
1.9712017534002371
 20
0.9850965640996491
 30
0.0
 11
1.9631718150003501
 21
0.9991151191993594
 31
0.0
  0
LINE
  5
2CDB
  8
0
 10
2.1939482025995849
 20
0.7376833782993799
 30
0.0
 11
2.1994139584994619
 21
0.7463233854996361
 31
0.0
  0
LINE
  5
2CDC
  8
0
 10
1.981256047100032
 20
0.9721079444993847
 30
0.0
 11
1.9712017534002371
 21
0.9850965640996491
 31
0.0
  0
LINE
  5
2CDD
  8
0
 10
2.1994139584994619
 20
0.7463233854996361
 30
0.0
 11
2.203665103199909
 21
0.7555355785993925
 31
0.0
  0
LINE
  5
2CDE
  8
0
 10
1.993334693900578
 20
0.9601492581991806
 30
0.0
 11
1.981256047100032
 21
0.9721079444993847
 31
0.0
  0
LINE
  5
2CDF
  8
0
 10
2.203665103199909
 20
0.7555355785993925
 30
0.0
 11
2.206701634500404
 21
0.7653199575995587
 31
0.0
  0
LINE
  5
2CE0
  8
0
 10
2.0074376948996351
 20
0.9492205073993318
 30
0.0
 11
1.993334693900578
 21
0.9601492581991806
 31
0.0
  0
LINE
  5
2CE1
  8
0
 10
2.206701634500404
 20
0.7653199575995587
 30
0.0
 11
2.2085235535005259
 21
0.7756765224989977
 31
0.0
  0
LINE
  5
2CE2
  8
0
 10
2.0284235015005829
 20
0.9349158598993199
 30
0.0
 11
2.0074376948996351
 21
0.9492205073993318
 31
0.0
  0
LINE
  5
2CE3
  8
0
 10
2.2085235535005259
 20
0.7756765224989977
 30
0.0
 11
2.209130859099786
 21
0.7866052732993012
 31
0.0
  0
LINE
  5
2CE4
  8
0
 10
2.049814178500128
 20
0.9208400871993944
 30
0.0
 11
2.0284235015005829
 21
0.9349158598993199
 31
0.0
  0
LINE
  5
2CE5
  8
0
 10
2.209130859099786
 20
0.7866052732993012
 30
0.0
 11
2.208186160400146
 21
0.79827786609917
 31
0.0
  0
LINE
  5
2CE6
  8
0
 10
2.0716097259000881
 20
0.9069931881995216
 30
0.0
 11
2.049814178500128
 21
0.9208400871993944
 31
0.0
  0
LINE
  5
2CE7
  8
0
 10
2.208186160400146
 20
0.79827786609917
 30
0.0
 11
2.2053520643007678
 21
0.8092638355990403
 31
0.0
  0
LINE
  5
2CE8
  8
0
 10
2.0938101448000448
 20
0.8933751628992467
 30
0.0
 11
2.0716097259000881
 21
0.9069931881995216
 31
0.0
  0
LINE
  5
2CE9
  8
0
 10
2.2053520643007678
 20
0.8092638355990403
 30
0.0
 11
2.2006285719007792
 21
0.8195631817993671
 31
0.0
  0
LINE
  5
2CEA
  8
0
 10
2.1164154341004169
 20
0.8799860134990922
 30
0.0
 11
2.0938101448000448
 21
0.8933751628992467
 31
0.0
  0
LINE
  5
2CEB
  8
0
 10
2.2006285719007792
 20
0.8195631817993671
 30
0.0
 11
2.1940156810005642
 21
0.829175904699241
 31
0.0
  0
LINE
  5
2CEC
  8
0
 10
2.1394255938002971
 20
0.8668257377989903
 30
0.0
 11
2.1164154341004169
 21
0.8799860134990922
 31
0.0
  0
LINE
  5
2CED
  8
0
 10
2.1940156810005642
 20
0.829175904699241
 30
0.0
 11
2.185513392700158
 21
0.8381020053993779
 31
0.0
  0
LINE
  5
2CEE
  8
0
 10
2.1628406250001708
 20
0.8538943357993957
 30
0.0
 11
2.1394255938002971
 21
0.8668257377989903
 31
0.0
  0
LINE
  5
2CEF
  8
0
 10
2.185513392700158
 20
0.8381020053993779
 30
0.0
 11
2.1751217081005052
 21
0.8463414816992553
 31
0.0
  0
LINE
  5
2CF0
  8
0
 10
2.1751217081005052
 20
0.8463414816992553
 30
0.0
 11
2.1628406250001708
 21
0.8538943357993957
 31
0.0
  0
LINE
  5
2CF1
  8
0
 10
3.0489486324004238
 20
1.1717436059993811
 30
0.0
 11
3.0626467629999752
 21
1.1635613483990701
 31
0.0
  0
LINE
  5
2CF2
  8
0
 10
3.0343058031003229
 20
1.1784381817988101
 30
0.0
 11
3.0489486324004238
 21
1.1717436059993811
 31
0.0
  0
LINE
  5
2CF3
  8
0
 10
3.0626467629999752
 20
1.1635613483990701
 30
0.0
 11
3.0754001948998839
 21
1.1538914056993681
 31
0.0
  0
LINE
  5
2CF4
  8
0
 10
3.0187182762006151
 20
1.183645073599336
 30
0.0
 11
3.0343058031003229
 21
1.1784381817988101
 31
0.0
  0
LINE
  5
2CF5
  8
0
 10
3.0754001948998839
 20
1.1538914056993681
 30
0.0
 11
3.0946990393008491
 21
1.133979336599622
 31
0.0
  0
LINE
  5
2CF6
  8
0
 10
3.0021860494998691
 20
1.187364281399595
 30
0.0
 11
3.0187182762006151
 21
1.183645073599336
 31
0.0
  0
LINE
  5
2CF7
  8
0
 10
3.0946990393008491
 20
1.133979336599622
 30
0.0
 11
3.1110288308000231
 21
1.109489780299554
 31
0.0
  0
LINE
  5
2CF8
  8
0
 10
2.9847091241008452
 20
1.1895958062993941
 30
0.0
 11
3.0021860494998691
 21
1.187364281399595
 31
0.0
  0
LINE
  5
2CF9
  8
0
 10
3.1110288308000231
 20
1.109489780299554
 30
0.0
 11
3.1243895683001019
 21
1.080422735699357
 31
0.0
  0
LINE
  5
2CFA
  8
0
 10
2.9662875000003619
 20
1.1903396482994131
 30
0.0
 11
2.9847091241008452
 21
1.1895958062993941
 31
0.0
  0
LINE
  5
2CFB
  8
0
 10
3.1243895683001019
 20
1.080422735699357
 30
0.0
 11
3.1347812540002451
 21
1.0467782049993271
 31
0.0
  0
LINE
  5
2CFC
  8
0
 10
2.9469886555998519
 20
1.1895958062993941
 30
0.0
 11
2.9662875000003619
 21
1.1903396482994131
 31
0.0
  0
LINE
  5
2CFD
  8
0
 10
3.1347812540002451
 20
1.0467782049993271
 30
0.0
 11
3.1422038868004161
 21
1.0085561859991681
 31
0.0
  0
LINE
  5
2CFE
  8
0
 10
2.9287694678005201
 20
1.187364281399595
 30
0.0
 11
2.9469886555998519
 21
1.1895958062993941
 31
0.0
  0
LINE
  5
2CFF
  8
0
 10
3.1422038868004161
 20
1.0085561859991681
 30
0.0
 11
3.1466574656005828
 21
0.9657566808996307
 31
0.0
  0
LINE
  5
2D00
  8
0
 10
2.911629934400934
 20
1.183645073599336
 30
0.0
 11
2.9287694678005201
 21
1.187364281399595
 31
0.0
  0
LINE
  5
2D01
  8
0
 10
3.1466574656005828
 20
0.9657566808996307
 30
0.0
 11
3.148141992599903
 21
0.9183796874990549
 31
0.0
  0
LINE
  5
2D02
  8
0
 10
2.895570057599798
 20
1.1784381817988101
 30
0.0
 11
2.911629934400934
 21
1.183645073599336
 31
0.0
  0
LINE
  5
2D03
  8
0
 10
3.148141992599903
 20
0.9183796874990549
 30
0.0
 11
3.1466574656005828
 21
0.8702588531996298
 31
0.0
  0
LINE
  5
2D04
  8
0
 10
2.8805898363002589
 20
1.1717436059993811
 30
0.0
 11
2.895570057599798
 21
1.1784381817988101
 31
0.0
  0
LINE
  5
2D05
  8
0
 10
3.1466574656005828
 20
0.8702588531996298
 30
0.0
 11
3.1422038868004161
 21
0.8268299423993994
 31
0.0
  0
LINE
  5
2D06
  8
0
 10
2.8666892694009221
 20
1.1635613483990701
 30
0.0
 11
2.8805898363002589
 21
1.1717436059993811
 31
0.0
  0
LINE
  5
2D07
  8
0
 10
3.1422038868004161
 20
0.8268299423993994
 30
0.0
 11
3.1347812540002451
 21
0.788092957299341
 31
0.0
  0
LINE
  5
2D08
  8
0
 10
2.8538683591004879
 20
1.1538914056993681
 30
0.0
 11
2.8666892694009221
 21
1.1635613483990701
 31
0.0
  0
LINE
  5
2D09
  8
0
 10
3.1347812540002451
 20
0.788092957299341
 30
0.0
 11
3.1243895683001019
 21
0.7540478956993866
 31
0.0
  0
LINE
  5
2D0A
  8
0
 10
2.8345695158004669
 20
1.133979336599622
 30
0.0
 11
2.8538683591004879
 21
1.1538914056993681
 31
0.0
  0
LINE
  5
2D0B
  8
0
 10
3.1243895683001019
 20
0.7540478956993866
 30
0.0
 11
3.1110288308000231
 21
0.7246947586991155
 31
0.0
  0
LINE
  5
2D0C
  8
0
 10
2.8182397242999282
 20
1.109489780299554
 30
0.0
 11
2.8345695158004669
 21
1.133979336599622
 31
0.0
  0
LINE
  5
2D0D
  8
0
 10
3.1110288308000231
 20
0.7246947586991155
 30
0.0
 11
3.0946990393008491
 21
0.7000335462992098
 31
0.0
  0
LINE
  5
2D0E
  8
0
 10
2.8048789857002698
 20
1.080422735699357
 30
0.0
 11
2.8182397242999282
 21
1.109489780299554
 31
0.0
  0
LINE
  5
2D0F
  8
0
 10
3.0946990393008491
 20
0.7000335462992098
 30
0.0
 11
3.0754001948998839
 21
0.6800642573994084
 31
0.0
  0
LINE
  5
2D10
  8
0
 10
2.794487301100161
 20
1.0467782049993271
 30
0.0
 11
2.8048789857002698
 21
1.080422735699357
 31
0.0
  0
LINE
  5
2D11
  8
0
 10
3.0754001948998839
 20
0.6800642573994084
 30
0.0
 11
3.0626467629999752
 21
0.6703943157995127
 31
0.0
  0
LINE
  5
2D12
  8
0
 10
2.7870646682995348
 20
1.0085561859991681
 30
0.0
 11
2.794487301100161
 21
1.0467782049993271
 31
0.0
  0
LINE
  5
2D13
  8
0
 10
3.0626467629999752
 20
0.6703943157995127
 30
0.0
 11
3.0489486324004238
 21
0.6622120570993957
 31
0.0
  0
LINE
  5
2D14
  8
0
 10
2.7826110894993681
 20
0.9657566808996307
 30
0.0
 11
2.7870646682995348
 21
1.0085561859991681
 31
0.0
  0
LINE
  5
2D15
  8
0
 10
3.0489486324004238
 20
0.6622120570993957
 30
0.0
 11
3.0343058031003229
 21
0.6555174823993184
 31
0.0
  0
LINE
  5
2D16
  8
0
 10
2.7811265625000479
 20
0.9183796874990549
 30
0.0
 11
2.7826110894993681
 21
0.9657566808996307
 31
0.0
  0
LINE
  5
2D17
  8
0
 10
3.0343058031003229
 20
0.6555174823993184
 30
0.0
 11
3.0187182762006151
 21
0.650310590599247
 31
0.0
  0
LINE
  5
2D18
  8
0
 10
2.7826110894993681
 20
0.8702588531996298
 30
0.0
 11
2.7811265625000479
 21
0.9183796874990549
 31
0.0
  0
LINE
  5
2D19
  8
0
 10
3.0187182762006151
 20
0.650310590599247
 30
0.0
 11
3.0021860494998691
 21
0.6465913827996701
 31
0.0
  0
LINE
  5
2D1A
  8
0
 10
2.7870646682995348
 20
0.8268299423993994
 30
0.0
 11
2.7826110894993681
 21
0.8702588531996298
 31
0.0
  0
LINE
  5
2D1B
  8
0
 10
3.0021860494998691
 20
0.6465913827996701
 30
0.0
 11
2.9847091241008452
 21
0.6443598567993832
 31
0.0
  0
LINE
  5
2D1C
  8
0
 10
2.794487301100161
 20
0.788092957299341
 30
0.0
 11
2.7870646682995348
 21
0.8268299423993994
 31
0.0
  0
LINE
  5
2D1D
  8
0
 10
2.9847091241008452
 20
0.6443598567993832
 30
0.0
 11
2.9662875000003619
 21
0.6436160158991698
 31
0.0
  0
LINE
  5
2D1E
  8
0
 10
2.8048789857002698
 20
0.7540478956993866
 30
0.0
 11
2.794487301100161
 21
0.788092957299341
 31
0.0
  0
LINE
  5
2D1F
  8
0
 10
2.9662875000003619
 20
0.6436160158991698
 30
0.0
 11
2.9469886555998519
 21
0.6443598567993832
 31
0.0
  0
LINE
  5
2D20
  8
0
 10
2.8182397242999282
 20
0.7246947586991155
 30
0.0
 11
2.8048789857002698
 21
0.7540478956993866
 31
0.0
  0
LINE
  5
2D21
  8
0
 10
2.9469886555998519
 20
0.6443598567993832
 30
0.0
 11
2.9287694678005201
 21
0.6465913827996701
 31
0.0
  0
LINE
  5
2D22
  8
0
 10
2.8345695158004669
 20
0.7000335462992098
 30
0.0
 11
2.8182397242999282
 21
0.7246947586991155
 31
0.0
  0
LINE
  5
2D23
  8
0
 10
2.9287694678005201
 20
0.6465913827996701
 30
0.0
 11
2.911629934400934
 21
0.650310590599247
 31
0.0
  0
LINE
  5
2D24
  8
0
 10
2.8538683591004879
 20
0.6800642573994084
 30
0.0
 11
2.8345695158004669
 21
0.7000335462992098
 31
0.0
  0
LINE
  5
2D25
  8
0
 10
2.911629934400934
 20
0.650310590599247
 30
0.0
 11
2.895570057599798
 21
0.6555174823993184
 31
0.0
  0
LINE
  5
2D26
  8
0
 10
2.8666892694009221
 20
0.6703943157995127
 30
0.0
 11
2.8538683591004879
 21
0.6800642573994084
 31
0.0
  0
LINE
  5
2D27
  8
0
 10
2.895570057599798
 20
0.6555174823993184
 30
0.0
 11
2.8805898363002589
 21
0.6622120570993957
 31
0.0
  0
LINE
  5
2D28
  8
0
 10
2.8805898363002589
 20
0.6622120570993957
 30
0.0
 11
2.8666892694009221
 21
0.6703943157995127
 31
0.0
  0
LINE
  5
2D29
  8
0
 10
3.8557019534000569
 20
1.1903396482994131
 30
0.0
 11
4.0210242182001821
 21
0.6436160158991698
 31
0.0
  0
LINE
  5
2D2A
  8
0
 10
3.7895730466002528
 20
1.1903396482994131
 30
0.0
 11
3.8557019534000569
 21
1.1903396482994131
 31
0.0
  0
LINE
  5
2D2B
  8
0
 10
4.0210242182001821
 20
0.6436160158991698
 30
0.0
 11
3.9416695318004709
 21
0.6436160158991698
 31
0.0
  0
LINE
  5
2D2C
  8
0
 10
3.6242507807005491
 20
0.6436160158991698
 30
0.0
 11
3.7895730466002528
 21
1.1903396482994131
 31
0.0
  0
LINE
  5
2D2D
  8
0
 10
3.9416695318004709
 20
0.6436160158991698
 30
0.0
 11
3.8953792965999119
 21
0.8034275391992196
 31
0.0
  0
LINE
  5
2D2E
  8
0
 10
3.7036054682002941
 20
0.6436160158991698
 30
0.0
 11
3.6242507807005491
 21
0.6436160158991698
 31
0.0
  0
LINE
  5
2D2F
  8
0
 10
3.8953792965999119
 20
0.8034275391992196
 30
0.0
 11
3.749895703400397
 21
0.8034275391992196
 31
0.0
  0
LINE
  5
2D30
  8
0
 10
3.749895703400397
 20
0.8034275391992196
 30
0.0
 11
3.7036054682002941
 21
0.6436160158991698
 31
0.0
  0
LINE
  5
2D31
  8
0
 10
3.8193310551005188
 20
1.0417429692993201
 30
0.0
 11
3.7664279300997801
 21
0.8566980465993765
 31
0.0
  0
LINE
  5
2D32
  8
0
 10
3.7664279300997801
 20
0.8566980465993765
 30
0.0
 11
3.8788470699005302
 21
0.8566980465993765
 31
0.0
  0
LINE
  5
2D33
  8
0
 10
3.8259439449007
 20
1.0417429692993201
 30
0.0
 11
3.8193310551005188
 21
1.0417429692993201
 31
0.0
  0
LINE
  5
2D34
  8
0
 10
3.8788470699005302
 20
0.8566980465993765
 30
0.0
 11
3.8259439449007
 21
1.0417429692993201
 31
0.0
  0
LINE
  5
2D35
  8
0
 10
0.0
 20
0.0
 30
0.0
 11
5.2469999999998427
 21
0.0
 31
0.0
  0
LINE
  5
2D36
  8
0
 10
0.1484999999997854
 20
0.1484999999997854
 30
0.0
 11
5.0984999999996026
 21
0.1484999999997854
 31
0.0
  0
LINE
  5
2D37
  8
0
 10
3.415500000000065
 20
2.276999999999588
 30
0.0
 11
3.11850000000004
 21
2.276999999999588
 31
0.0
  0
LINE
  5
2D38
  8
0
 10
3.11850000000004
 20
2.5599985850992648
 30
0.0
 11
3.11850000000004
 21
2.276999999999588
 31
0.0
  0
ARC
  5
2D39
  8
0
 10
2.4255000000002829
 20
3.266999999998915
 30
0.0
 40
0.9899999999999987
 50
225.57299599901029
 51
314.42700398160042
  0
LINE
  5
2D3A
  8
0
 10
1.7324999999982531
 20
2.5599985855756131
 30
0.0
 11
1.7325000000000721
 21
0.6434999999992215
 31
0.0
  0
LINE
  5
2D3B
  8
0
 10
1.7325000000000721
 20
0.6434999999992215
 30
0.0
 11
1.336499999999887
 21
0.6434999999992215
 31
0.0
  0
LINE
  5
2D3C
  8
0
 10
3.592849218199262
 20
1.1903396482994131
 30
0.0
 11
3.5201074216006409
 21
0.6436160158991698
 31
0.0
  0
LINE
  5
2D3D
  8
0
 10
3.5267203125004012
 20
1.1903396482994131
 30
0.0
 11
3.592849218199262
 21
1.1903396482994131
 31
0.0
  0
LINE
  5
2D3E
  8
0
 10
3.5201074216006409
 20
0.6436160158991698
 30
0.0
 11
3.4539785158999621
 21
0.6436160158991698
 31
0.0
  0
LINE
  5
2D3F
  8
0
 10
3.4837365233001938
 20
0.8398757817990372
 30
0.0
 11
3.5267203125004012
 21
1.1903396482994131
 31
0.0
  0
LINE
  5
2D40
  8
0
 10
3.4539785158999621
 20
0.6436160158991698
 30
0.0
 11
3.3944625000003721
 21
1.052957812499244
 31
0.0
  0
LINE
  5
2D41
  8
0
 10
3.4771236323999801
 20
0.8398757817990372
 30
0.0
 11
3.4837365233001938
 21
0.8398757817990372
 31
0.0
  0
LINE
  5
2D42
  8
0
 10
3.3944625000003721
 20
1.052957812499244
 30
0.0
 11
3.3878496091001571
 21
1.052957812499244
 31
0.0
  0
LINE
  5
2D43
  8
0
 10
3.4275269534009558
 20
1.1903396482994131
 30
0.0
 11
3.4771236323999801
 21
0.8398757817990372
 31
0.0
  0
LINE
  5
2D44
  8
0
 10
3.3878496091001571
 20
1.052957812499244
 30
0.0
 11
3.3283335932001128
 21
0.6436160158991698
 31
0.0
  0
LINE
  5
2D45
  8
0
 10
3.3547851556995729
 20
1.1903396482994131
 30
0.0
 11
3.4275269534009558
 21
1.1903396482994131
 31
0.0
  0
LINE
  5
2D46
  8
0
 10
3.3283335932001128
 20
0.6436160158991698
 30
0.0
 11
3.262204687500343
 21
0.6436160158991698
 31
0.0
  0
LINE
  5
2D47
  8
0
 10
3.30518847669964
 20
0.8398757817990372
 30
0.0
 11
3.3547851556995729
 21
1.1903396482994131
 31
0.0
  0
LINE
  5
2D48
  8
0
 10
3.262204687500343
 20
0.6436160158991698
 30
0.0
 11
3.1894628909003582
 21
1.1903396482994131
 31
0.0
  0
LINE
  5
2D49
  8
0
 10
3.2985755858007901
 20
0.8398757817990372
 30
0.0
 11
3.30518847669964
 21
0.8398757817990372
 31
0.0
  0
LINE
  5
2D4A
  8
0
 10
3.1894628909003582
 20
1.1903396482994131
 30
0.0
 11
3.255591796600128
 21
1.1903396482994131
 31
0.0
  0
LINE
  5
2D4B
  8
0
 10
3.255591796600128
 20
1.1903396482994131
 30
0.0
 11
3.2985755858007901
 21
0.8398757817990372
 31
0.0
  0
LINE
  5
2D4C
  8
0
 10
3.0205401941002492
 20
1.118530317299246
 30
0.0
 11
3.01183547060009
 21
1.1241949575996839
 31
0.0
  0
LINE
  5
2D4D
  8
0
 10
3.01183547060009
 20
1.1241949575996839
 30
0.0
 11
3.0029957902997921
 21
1.1288296634993451
 31
0.0
  0
LINE
  5
2D4E
  8
0
 10
3.029109960799814
 20
1.1118357425991681
 30
0.0
 11
3.0205401941002492
 21
1.118530317299246
 31
0.0
  0
LINE
  5
2D4F
  8
0
 10
3.0029957902997921
 20
1.1288296634993451
 30
0.0
 11
2.9940211532002641
 21
1.13243443499914
 31
0.0
  0
LINE
  5
2D50
  8
0
 10
3.0405138236001221
 20
1.098961559299368
 30
0.0
 11
3.029109960799814
 21
1.1118357425991681
 31
0.0
  0
LINE
  5
2D51
  8
0
 10
2.9940211532002641
 20
1.13243443499914
 30
0.0
 11
2.984911559300599
 21
1.1350092709992621
 31
0.0
  0
LINE
  5
2D52
  8
0
 10
3.0501632458008312
 20
1.0811665776991499
 30
0.0
 11
3.0405138236001221
 21
1.098961559299368
 31
0.0
  0
LINE
  5
2D53
  8
0
 10
2.984911559300599
 20
1.1350092709992621
 30
0.0
 11
2.9756670086003392
 21
1.136554173699323
 31
0.0
  0
LINE
  5
2D54
  8
0
 10
3.0580582274005792
 20
1.058450796699389
 30
0.0
 11
3.0501632458008312
 21
1.0811665776991499
 31
0.0
  0
LINE
  5
2D55
  8
0
 10
2.9756670086003392
 20
1.136554173699323
 30
0.0
 11
2.9662875000003619
 21
1.137069140899257
 31
0.0
  0
LINE
  5
2D56
  8
0
 10
3.0641987683998191
 20
1.0308142184992439
 30
0.0
 11
3.0580582274005792
 21
1.058450796699389
 31
0.0
  0
LINE
  5
2D57
  8
0
 10
2.9662875000003619
 20
1.137069140899257
 30
0.0
 11
2.9560307722003918
 21
1.136554173699323
 31
0.0
  0
LINE
  5
2D58
  8
0
 10
3.068584868799916
 20
0.9982568397995237
 30
0.0
 11
3.0641987683998191
 21
1.0308142184992439
 31
0.0
  0
LINE
  5
2D59
  8
0
 10
2.9560307722003918
 20
1.136554173699323
 30
0.0
 11
2.946043956900211
 21
1.1350092709992621
 31
0.0
  0
LINE
  5
2D5A
  8
0
 10
3.0712165296999951
 20
0.9607786627991573
 30
0.0
 11
3.068584868799916
 21
0.9982568397995237
 31
0.0
  0
LINE
  5
2D5B
  8
0
 10
2.946043956900211
 20
1.1350092709992621
 30
0.0
 11
2.9363270563007968
 21
1.13243443499914
 31
0.0
  0
LINE
  5
2D5C
  8
0
 10
3.0720937500000209
 20
0.9183796874990549
 30
0.0
 11
3.0712165296999951
 21
0.9607786627991573
 31
0.0
  0
LINE
  5
2D5D
  8
0
 10
2.9363270563007968
 20
1.13243443499914
 30
0.0
 11
2.9268800703998741
 21
1.1288296634993451
 31
0.0
  0
LINE
  5
2D5E
  8
0
 10
3.0712165296999951
 20
0.8752368701991599
 30
0.0
 11
3.0720937500000209
 21
0.9183796874990549
 31
0.0
  0
LINE
  5
2D5F
  8
0
 10
2.9268800703998741
 20
1.1288296634993451
 30
0.0
 11
2.9177029970005601
 21
1.1241949575996839
 31
0.0
  0
LINE
  5
2D60
  8
0
 10
3.068584868799916
 20
0.8371292885992716
 30
0.0
 11
3.0712165296999951
 21
0.8752368701991599
 31
0.0
  0
LINE
  5
2D61
  8
0
 10
2.9177029970005601
 20
1.1241949575996839
 30
0.0
 11
2.9087958382997381
 21
1.118530317299246
 31
0.0
  0
LINE
  5
2D62
  8
0
 10
3.0641987683998191
 20
0.8040569437994236
 30
0.0
 11
3.068584868799916
 21
0.8371292885992716
 31
0.0
  0
LINE
  5
2D63
  8
0
 10
2.9087958382997381
 20
1.118530317299246
 30
0.0
 11
2.9001585932001031
 21
1.1118357425991681
 31
0.0
  0
LINE
  5
2D64
  8
0
 10
3.0580582274005792
 20
0.7760198346993548
 30
0.0
 11
3.0641987683998191
 21
0.8040569437994236
 31
0.0
  0
LINE
  5
2D65
  8
0
 10
2.9001585932001031
 20
1.1118357425991681
 30
0.0
 11
2.8887547314998301
 21
1.098961559299368
 31
0.0
  0
LINE
  5
2D66
  8
0
 10
3.0501632458008312
 20
0.7530179612990651
 30
0.0
 11
3.0580582274005792
 21
0.7760198346993548
 31
0.0
  0
LINE
  5
2D67
  8
0
 10
2.8887547314998301
 20
1.098961559299368
 30
0.0
 11
2.8791053093000301
 21
1.0811665776991499
 31
0.0
  0
LINE
  5
2D68
  8
0
 10
3.0405138236001221
 20
0.7350513235994641
 30
0.0
 11
3.0501632458008312
 21
0.7530179612990651
 31
0.0
  0
LINE
  5
2D69
  8
0
 10
2.8791053093000301
 20
1.0811665776991499
 30
0.0
 11
2.8712103277002821
 21
1.058450796699389
 31
0.0
  0
LINE
  5
2D6A
  8
0
 10
3.029109960799814
 20
0.7221199215994149
 30
0.0
 11
3.0405138236001221
 21
0.7350513235994641
 31
0.0
  0
LINE
  5
2D6B
  8
0
 10
2.8712103277002821
 20
1.058450796699389
 30
0.0
 11
2.8650697867001318
 21
1.0308142184992439
 31
0.0
  0
LINE
  5
2D6C
  8
0
 10
3.0205401941002492
 20
0.7154253468993375
 30
0.0
 11
3.029109960799814
 21
0.7221199215994149
 31
0.0
  0
LINE
  5
2D6D
  8
0
 10
2.8650697867001318
 20
1.0308142184992439
 30
0.0
 11
2.860683685200001
 21
0.9982568397995237
 31
0.0
  0
LINE
  5
2D6E
  8
0
 10
3.01183547060009
 20
0.7097607065995817
 30
0.0
 11
3.0205401941002492
 21
0.7154253468993375
 31
0.0
  0
LINE
  5
2D6F
  8
0
 10
2.860683685200001
 20
0.9982568397995237
 30
0.0
 11
2.8580520253999562
 21
0.9607786627991573
 31
0.0
  0
LINE
  5
2D70
  8
0
 10
3.0029957902997921
 20
0.705126000699238
 30
0.0
 11
3.01183547060009
 21
0.7097607065995817
 31
0.0
  0
LINE
  5
2D71
  8
0
 10
2.8580520253999562
 20
0.9607786627991573
 30
0.0
 11
2.8571748050999299
 21
0.9183796874990549
 31
0.0
  0
LINE
  5
2D72
  8
0
 10
2.9940211532002641
 20
0.7015212291994432
 30
0.0
 11
3.0029957902997921
 21
0.705126000699238
 31
0.0
  0
LINE
  5
2D73
  8
0
 10
2.8571748050999299
 20
0.9183796874990549
 30
0.0
 11
2.8580520253999562
 21
0.8752368701991599
 31
0.0
  0
LINE
  5
2D74
  8
0
 10
2.984911559300599
 20
0.6989463931993214
 30
0.0
 11
2.9940211532002641
 21
0.7015212291994432
 31
0.0
  0
LINE
  5
2D75
  8
0
 10
2.8580520253999562
 20
0.8752368701991599
 30
0.0
 11
2.860683685200001
 21
0.8371292885992716
 31
0.0
  0
LINE
  5
2D76
  8
0
 10
2.9756670086003392
 20
0.6974014904994874
 30
0.0
 11
2.984911559300599
 21
0.6989463931993214
 31
0.0
  0
LINE
  5
2D77
  8
0
 10
2.860683685200001
 20
0.8371292885992716
 30
0.0
 11
2.8650697867001318
 21
0.8040569437994236
 31
0.0
  0
LINE
  5
2D78
  8
0
 10
2.9662875000003619
 20
0.6968865232993267
 30
0.0
 11
2.9756670086003392
 21
0.6974014904994874
 31
0.0
  0
LINE
  5
2D79
  8
0
 10
2.8650697867001318
 20
0.8040569437994236
 30
0.0
 11
2.8712103277002821
 21
0.7760198346993548
 31
0.0
  0
LINE
  5
2D7A
  8
0
 10
2.9560307722003918
 20
0.6974014904994874
 30
0.0
 11
2.9662875000003619
 21
0.6968865232993267
 31
0.0
  0
LINE
  5
2D7B
  8
0
 10
2.8712103277002821
 20
0.7760198346993548
 30
0.0
 11
2.8791053093000301
 21
0.7530179612990651
 31
0.0
  0
LINE
  5
2D7C
  8
0
 10
2.946043956900211
 20
0.6989463931993214
 30
0.0
 11
2.9560307722003918
 21
0.6974014904994874
 31
0.0
  0
LINE
  5
2D7D
  8
0
 10
2.8791053093000301
 20
0.7530179612990651
 30
0.0
 11
2.8887547314998301
 21
0.7350513235994641
 31
0.0
  0
LINE
  5
2D7E
  8
0
 10
2.9363270563007968
 20
0.7015212291994432
 30
0.0
 11
2.946043956900211
 21
0.6989463931993214
 31
0.0
  0
LINE
  5
2D7F
  8
0
 10
2.8887547314998301
 20
0.7350513235994641
 30
0.0
 11
2.9001585932001031
 21
0.7221199215994149
 31
0.0
  0
LINE
  5
2D80
  8
0
 10
2.9268800703998741
 20
0.705126000699238
 30
0.0
 11
2.9363270563007968
 21
0.7015212291994432
 31
0.0
  0
LINE
  5
2D81
  8
0
 10
2.9001585932001031
 20
0.7221199215994149
 30
0.0
 11
2.9087958382997381
 21
0.7154253468993375
 31
0.0
  0
LINE
  5
2D82
  8
0
 10
2.9177029970005601
 20
0.7097607065995817
 30
0.0
 11
2.9268800703998741
 21
0.705126000699238
 31
0.0
  0
LINE
  5
2D83
  8
0
 10
2.9087958382997381
 20
0.7154253468993375
 30
0.0
 11
2.9177029970005601
 21
0.7097607065995817
 31
0.0
  0
LINE
  5
2D84
  8
0
 10
2.7067412108003732
 20
1.1903396482994131
 30
0.0
 11
2.7067412108003732
 21
0.6436160158991698
 31
0.0
  0
LINE
  5
2D85
  8
0
 10
2.630692969300525
 20
1.1903396482994131
 30
0.0
 11
2.7067412108003732
 21
1.1903396482994131
 31
0.0
  0
LINE
  5
2D86
  8
0
 10
2.7067412108003732
 20
0.6436160158991698
 30
0.0
 11
2.630692969300525
 21
0.6436160158991698
 31
0.0
  0
LINE
  5
2D87
  8
0
 10
2.630692969300525
 20
0.9716501948992117
 30
0.0
 11
2.630692969300525
 21
1.1903396482994131
 31
0.0
  0
LINE
  5
2D88
  8
0
 10
2.630692969300525
 20
0.6436160158991698
 30
0.0
 11
2.630692969300525
 21
0.7809978516993397
 31
0.0
  0
LINE
  5
2D89
  8
0
 10
2.4422255858007702
 20
0.9716501948992117
 30
0.0
 11
2.630692969300525
 21
0.9716501948992117
 31
0.0
  0
LINE
  5
2D8A
  8
0
 10
2.630692969300525
 20
0.7809978516993397
 30
0.0
 11
2.630692969300525
 21
0.9183796874990549
 31
0.0
  0
LINE
  5
2D8B
  8
0
 10
2.4422255858007702
 20
1.1903396482994131
 30
0.0
 11
2.4422255858007702
 21
0.9716501948992117
 31
0.0
  0
LINE
  5
2D8C
  8
0
 10
2.630692969300525
 20
0.9183796874990549
 30
0.0
 11
2.4422255858007702
 21
0.9183796874990549
 31
0.0
  0
LINE
  5
2D8D
  8
0
 10
2.366177344300012
 20
1.1903396482994131
 30
0.0
 11
2.4422255858007702
 21
1.1903396482994131
 31
0.0
  0
LINE
  5
2D8E
  8
0
 10
2.4422255858007702
 20
0.9183796874990549
 30
0.0
 11
2.4422255858007702
 21
0.6436160158991698
 31
0.0
  0
LINE
  5
2D8F
  8
0
 10
2.366177344300012
 20
0.6436160158991698
 30
0.0
 11
2.366177344300012
 21
1.1903396482994131
 31
0.0
  0
LINE
  5
2D90
  8
0
 10
2.4422255858007702
 20
0.6436160158991698
 30
0.0
 11
2.366177344300012
 21
0.6436160158991698
 31
0.0
  0
LINE
  5
2D91
  8
0
 10
2.0702601557004519
 20
0.9856687499993768
 30
0.0
 11
2.090098828400186
 21
0.9715929761994175
 31
0.0
  0
LINE
  5
2D92
  8
0
 10
2.0579790736996979
 20
0.9953386915990449
 30
0.0
 11
2.0702601557004519
 21
0.9856687499993768
 31
0.0
  0
LINE
  5
2D93
  8
0
 10
2.090098828400186
 20
0.9715929761994175
 30
0.0
 11
2.1099374999998868
 21
0.9582038267994903
 31
0.0
  0
LINE
  5
2D94
  8
0
 10
2.0475873880004651
 20
1.0051230705994381
 30
0.0
 11
2.0579790736996979
 21
0.9953386915990449
 31
0.0
  0
LINE
  5
2D95
  8
0
 10
2.1099374999998868
 20
0.9582038267994903
 30
0.0
 11
2.129776171600497
 21
0.9455012995997549
 31
0.0
  0
LINE
  5
2D96
  8
0
 10
2.0390851008005479
 20
1.0150218869994201
 30
0.0
 11
2.0475873880004651
 21
1.0051230705994381
 31
0.0
  0
LINE
  5
2D97
  8
0
 10
2.129776171600497
 20
0.9455012995997549
 30
0.0
 11
2.1496148443002312
 21
0.9334853956993356
 31
0.0
  0
LINE
  5
2D98
  8
0
 10
5.2469999999998427
 20
0.0
 30
0.0
 11
5.2469999999998427
 21
5.2469999999998427
 31
0.0
  0
LINE
  5
2D99
  8
0
 10
0.0
 20
5.2469999999998427
 30
0.0
 11
0.0
 21
0.0
 31
0.0
  0
LINE
  5
2D9A
  8
0
 10
5.0984999999996026
 20
0.1484999999997854
 30
0.0
 11
5.0984999999996026
 21
5.0984999999996026
 31
0.0
  0
LINE
  5
2D9B
  8
0
 10
0.1484999999997854
 20
5.0984999999996026
 30
0.0
 11
0.1484999999997854
 21
0.1484999999997854
 31
0.0
  0
LINE
  5
2D9C
  8
0
 10
3.415500000000065
 20
4.6529999999988831
 30
0.0
 11
3.415500000000065
 21
2.276999999999588
 31
0.0
  0
ARC
  5
2D9D
  8
0
 10
2.4255000000002829
 20
3.266999999998915
 30
0.0
 40
0.692999999999999
 50
179.9999999999996
 51
0.0
  0
LINE
  5
2D9E
  8
0
 10
1.336499999999887
 20
4.6529999999988831
 30
0.0
 11
1.336499999999887
 21
0.6434999999992215
 31
0.0
  0
ENDBLK
  5
2DA0
  8
0
  0
BLOCK
  8
0
  2
_
 70
     0
 10
0.0
 20
0.0
 30
0.0
  3
_
  1

  0
ARC
  5
42F6
  8
002寸法
 10
-1.2990381056765721
 20
0.0
 30
0.0
 40
1.5
 50
30.000000000001251
 51
180.0
  0
ARC
  5
42F7
  8
002寸法
 10
1.299038105676743
 20
1.5
 30
0.0
 40
1.5
 50
209.9999999999998
 51
0.0
  0
ENDBLK
  5
42F5
  8
0
  0
BLOCK
  8
0
  2
_0
 70
     0
 10
0.0
 20
0.0
 30
0.0
  3
_0
  1

  0
POLYLINE
  5
4304
  8
002寸法
 66
     1
 10
0.0
 20
0.0
 30
0.0
 70
     1
  0
VERTEX
  5
7FDF
  8
002寸法
 10
0.0
 20
0.0
 30
0.0
  0
VERTEX
  5
7FE0
  8
002寸法
 10
1.5
 20
2.5980762113532592
 30
0.0
  0
VERTEX
  5
7FE1
  8
002寸法
 10
-1.5
 20
2.5980762113532592
 30
0.0
  0
SEQEND
  5
7FE2
  8
002寸法
  0
ENDBLK
  5
4303
  8
0
  0
BLOCK
  8
0
  2
__
 70
     0
 10
0.0
 20
0.0
 30
0.0
  3
__
  1

  0
POLYLINE
  5
431A
  8
002寸法
 66
     1
 10
0.0
 20
0.0
 30
0.0
 70
     1
  0
VERTEX
  5
7FE5
  8
002寸法
 10
-1.4999999999999429
 20
0.0
 30
0.0
  0
VERTEX
  5
7FE6
  8
002寸法
 10
0.0000000000000568
 20
2.5980762113532592
 30
0.0
  0
VERTEX
  5
7FE7
  8
002寸法
 10
-2.9999999999999432
 20
2.5980762113532592
 30
0.0
  0
SEQEND
  5
7FE8
  8
002寸法
  0
POLYLINE
  5
431B
  8
002寸法
 66
     1
 10
0.0
 20
0.0
 30
0.0
 70
     1
  0
VERTEX
  5
7FE9
  8
002寸法
 10
1.500000000000056
 20
0.0
 30
0.0
  0
VERTEX
  5
7FEA
  8
002寸法
 10
3.000000000000056
 20
2.5980762113532592
 30
0.0
  0
VERTEX
  5
7FEB
  8
002寸法
 10
0.0000000000000568
 20
2.5980762113532592
 30
0.0
  0
SEQEND
  5
7FEC
  8
002寸法
  0
ENDBLK
  5
4319
  8
0
  0
BLOCK
  8
0
  2
___
 70
     0
 10
0.0
 20
0.0
 30
0.0
  3
___
  1

  0
POLYLINE
  5
4332
  8
002寸法
 66
     1
 10
0.0
 20
0.0
 30
0.0
 70
     1
  0
VERTEX
  5
7FEF
  8
002寸法
 10
-3.0
 20
0.0
 30
0.0
  0
VERTEX
  5
7FF0
  8
002寸法
 10
-1.5
 20
2.5980762113532592
 30
0.0
  0
VERTEX
  5
7FF1
  8
002寸法
 10
-4.5
 20
2.5980762113532592
 30
0.0
  0
SEQEND
  5
7FF2
  8
002寸法
  0
POLYLINE
  5
4333
  8
002寸法
 66
     1
 10
0.0
 20
0.0
 30
0.0
 70
     1
  0
VERTEX
  5
7FF3
  8
002寸法
 10
0.0
 20
0.0
 30
0.0
  0
VERTEX
  5
7FF4
  8
002寸法
 10
1.5
 20
2.5980762113532592
 30
0.0
  0
VERTEX
  5
7FF5
  8
002寸法
 10
-1.5
 20
2.5980762113532592
 30
0.0
  0
SEQEND
  5
7FF6
  8
002寸法
  0
POLYLINE
  5
4334
  8
002寸法
 66
     1
 10
0.0
 20
0.0
 30
0.0
 70
     1
  0
VERTEX
  5
7FF7
  8
002寸法
 10
3.0
 20
0.0
 30
0.0
  0
VERTEX
  5
7FF8
  8
002寸法
 10
4.5
 20
2.5980762113532592
 30
0.0
  0
VERTEX
  5
7FF9
  8
002寸法
 10
1.5
 20
2.5980762113532592
 30
0.0
  0
SEQEND
  5
7FFA
  8
002寸法
  0
ENDBLK
  5
4331
  8
0
  0
BLOCK
  8
0
  2
____
 70
     0
 10
0.0
 20
0.0
 30
0.0
  3
____
  1

  0
POLYLINE
  5
4342
  8
002寸法
 66
     1
 10
0.0
 20
0.0
 30
0.0
 70
     1
  0
VERTEX
  5
7FFD
  8
002寸法
 10
-4.5
 20
0.0
 30
0.0
  0
VERTEX
  5
7FFE
  8
002寸法
 10
-3.0
 20
2.5980762113532592
 30
0.0
  0
VERTEX
  5
7FFF
  8
002寸法
 10
-6.0
 20
2.5980762113532592
 30
0.0
  0
SEQEND
  5
8000
  8
002寸法
  0
POLYLINE
  5
4343
  8
002寸法
 66
     1
 10
0.0
 20
0.0
 30
0.0
 70
     1
  0
VERTEX
  5
8001
  8
002寸法
 10
-1.5
 20
0.0
 30
0.0
  0
VERTEX
  5
8002
  8
002寸法
 10
0.0
 20
2.5980762113532592
 30
0.0
  0
VERTEX
  5
8003
  8
002寸法
 10
-3.0
 20
2.5980762113532592
 30
0.0
  0
SEQEND
  5
8004
  8
002寸法
  0
POLYLINE
  5
4344
  8
002寸法
 66
     1
 10
0.0
 20
0.0
 30
0.0
 70
     1
  0
VERTEX
  5
8005
  8
002寸法
 10
1.5
 20
0.0
 30
0.0
  0
VERTEX
  5
8006
  8
002寸法
 10
3.0
 20
2.5980762113532592
 30
0.0
  0
VERTEX
  5
8007
  8
002寸法
 10
0.0
 20
2.5980762113532592
 30
0.0
  0
SEQEND
  5
8008
  8
002寸法
  0
POLYLINE
  5
4345
  8
002寸法
 66
     1
 10
0.0
 20
0.0
 30
0.0
 70
     1
  0
VERTEX
  5
8009
  8
002寸法
 10
4.5
 20
0.0
 30
0.0
  0
VERTEX
  5
800A
  8
002寸法
 10
6.0
 20
2.5980762113532592
 30
0.0
  0
VERTEX
  5
800B
  8
002寸法
 10
3.0
 20
2.5980762113532592
 30
0.0
  0
SEQEND
  5
800C
  8
002寸法
  0
ENDBLK
  5
4341
  8
0
  0
BLOCK
  8
0
  2
___G
 70
     0
 10
0.0
 20
0.0
 30
0.0
  3
___G
  1

  0
POLYLINE
  5
4354
  8
002寸法
 66
     1
 10
0.0
 20
0.0
 30
0.0
 70
     1
  0
VERTEX
  5
800F
  8
002寸法
 10
-3.0
 20
0.0
 30
0.0
  0
VERTEX
  5
8010
  8
002寸法
 10
-1.5
 20
2.5980762113532592
 30
0.0
  0
VERTEX
  5
8011
  8
002寸法
 10
-4.5
 20
2.5980762113532592
 30
0.0
  0
SEQEND
  5
8012
  8
002寸法
  0
POLYLINE
  5
4355
  8
002寸法
 66
     1
 10
0.0
 20
0.0
 30
0.0
 70
     1
  0
VERTEX
  5
8013
  8
002寸法
 10
0.0
 20
0.0
 30
0.0
  0
VERTEX
  5
8014
  8
002寸法
 10
1.5
 20
2.5980762113532592
 30
0.0
  0
VERTEX
  5
8015
  8
002寸法
 10
-1.5
 20
2.5980762113532592
 30
0.0
  0
SEQEND
  5
8016
  8
002寸法
  0
POLYLINE
  5
4356
  8
002寸法
 66
     1
 10
0.0
 20
0.0
 30
0.0
 70
     1
  0
VERTEX
  5
8017
  8
002寸法
 10
3.0
 20
0.0
 30
0.0
  0
VERTEX
  5
8018
  8
002寸法
 10
4.5
 20
2.5980762113532592
 30
0.0
  0
VERTEX
  5
8019
  8
002寸法
 10
1.5
 20
2.5980762113532592
 30
0.0
  0
SEQEND
  5
801A
  8
002寸法
  0
LINE
  5
4357
  8
002寸法
 10
4.5
 20
2.5980762113532592
 30
0.0
 11
7.0
 21
6.9282032302754706
 31
0.0
  0
LINE
  5
4358
  8
002寸法
 10
7.0
 20
6.9282032302754706
 30
0.0
 11
10.0
 21
6.9282032302754706
 31
0.0
  0
INSERT
  5
4359
  8
011形状
  2
*U35
 10
0.0
 20
0.0
 30
0.0
  0
ENDBLK
  5
4353
  8
0
  0
BLOCK
  8
0
  2
_TAGCIRCLE
 70
     2
 10
0.0
 20
0.0
 30
0.0
  3
_TAGCIRCLE
  1

  0
CIRCLE
  5
4422
  8
0
  6
BYBLOCK
 10
0.0
 20
0.0
 30
0.0
 40
4.0
  0
ATTDEF
  5
4423
  8
002寸法
 62
     2
 10
-6.7999999999999989
 20
-1.5
 30
0.0
 40
3.0
  1
タグ番号
 72
     1
 11
0.0
 21
-1.5
 31
0.0
  3
タグ番号を入力
  2
タグ番号
 70
     0
  0
ENDBLK
  5
43E5
  8
0
  0
BLOCK
  8
0
  2
訂正記号
 70
     2
 10
0.0
 20
0.0
 30
0.0
  3
訂正記号
  1

  0
POLYLINE
  5
45CE
  8
002寸法
 66
     1
 10
0.0
 20
0.0
 30
0.0
 70
     1
  0
VERTEX
  5
8025
  8
002寸法
 10
0.0
 20
4.3301270189222123
 30
0.0
  0
VERTEX
  5
8026
  8
002寸法
 10
-2.5
 20
0.0
 30
0.0
  0
VERTEX
  5
8027
  8
002寸法
 10
2.5
 20
0.0
 30
0.0
  0
SEQEND
  5
8028
  8
002寸法
  0
ATTDEF
  5
45CF
  8
002寸法
 62
     2
 10
-3.3999999999999999
 20
0.4433756729740637
 30
0.0
 40
2.0
  1
1
 41
0.75
 72
     1
 11
0.0
 21
1.443375672974063
 31
0.0
  3

  2
訂正番号
 70
     0
 74
     2
1001
AcDbAttr
1070
     0
1070
     1
  0
ENDBLK
  5
4475
  8
0
  0
BLOCK
  8
0
  2
A$C4741278F
 70
     0
 10
0.0
 20
0.0
 30
0.0
  3
A$C4741278F
  1

  0
POLYLINE
  5
4FCA
  8
003注釈
 66
     1
 10
0.0
 20
0.0
 30
0.0
 70
     1
  0
VERTEX
  5
8061
  8
003注釈
 10
4.9999975654500304
 20
1.250001047003934
 30
0.0
  0
VERTEX
  5
8062
  8
003注釈
 10
2.499997565450037
 20
1.250001047003934
 30
0.0
  0
VERTEX
  5
8063
  8
003注釈
 10
2.499997565450037
 20
0.0000010470039342
 30
0.0
  0
VERTEX
  5
8064
  8
003注釈
 10
-0.0000024345499625
 20
2.5000010470039342
 30
0.0
  0
VERTEX
  5
8065
  8
003注釈
 10
2.499997565450037
 20
5.0000010470039342
 30
0.0
  0
VERTEX
  5
8066
  8
003注釈
 10
2.499997565450037
 20
3.7500010470039342
 30
0.0
  0
VERTEX
  5
8067
  8
003注釈
 10
4.9999975654500304
 20
3.7500010470039622
 30
0.0
  0
SEQEND
  5
8068
  8
003注釈
  0
LINE
  5
4FCB
  8
0
 10
-0.0000024345499625
 20
2.5000010470039342
 30
0.0
 11
4.9999975654500304
 21
2.5000010470039342
 31
0.0
  0
LINE
  5
4FCC
  8
0
 10
2.499997565450037
 20
3.7500010470039342
 30
0.0
 11
2.499997565450037
 21
1.250001047003934
 31
0.0
  0
ENDBLK
  5
4FD0
  8
0
  0
BLOCK
  8
0
  2
*D12
 70
     1
 10
0.0
 20
0.0
 30
0.0
  3
*D12
  1

  0
LINE
  5
7A30
  8
002寸法
 10
1320.0
 20
271.0
 30
0.0
 11
1340.5
 21
271.0
 31
0.0
  0
LINE
  5
7A31
  8
002寸法
 10
1320.0
 20
469.0
 30
0.0
 11
1340.5
 21
469.0
 31
0.0
  0
LINE
  5
7A32
  8
002寸法
 10
1339.0
 20
276.0
 30
0.0
 11
1339.0
 21
464.0
 31
0.0
  0
INSERT
  5
7A33
  8
002寸法
  2
_OPEN
 10
1339.0
 20
271.0
 30
0.0
 41
5.0
 42
5.0
 43
5.0
 50
270.0
  0
INSERT
  5
7A34
  8
002寸法
  2
_OPEN
 10
1339.0
 20
469.0
 30
0.0
 41
5.0
 42
5.0
 43
5.0
 50
90.0
  0
INSERT
  5
7A35
  8
011形状
  2
*U52
 10
0.0
 20
0.0
 30
0.0
  0
POINT
  5
7A36
  8
DEFPOINTS
 62
     0
 10
1319.0
 20
271.0
 30
0.0
  0
POINT
  5
7A37
  8
DEFPOINTS
 62
     0
 10
1319.0
 20
469.0
 30
0.0
  0
POINT
  5
7A38
  8
DEFPOINTS
 62
     0
 10
1339.0
 20
469.0
 30
0.0
  0
ENDBLK
  5
79FA
  8
0
  0
BLOCK
  8
0
  2
*D13
 70
     1
 10
0.0
 20
0.0
 30
0.0
  3
*D13
  1

  0
LINE
  5
7A4B
  8
002寸法
 10
1320.0
 20
262.0
 30
0.0
 11
1380.5
 21
262.0
 31
0.0
  0
LINE
  5
7A4C
  8
002寸法
 10
1320.0
 20
478.0
 30
0.0
 11
1380.5
 21
478.0
 31
0.0
  0
LINE
  5
7A4D
  8
002寸法
 10
1379.0
 20
267.0
 30
0.0
 11
1379.0
 21
473.0
 31
0.0
  0
INSERT
  5
7A4E
  8
002寸法
  2
_OPEN
 10
1379.0
 20
262.0
 30
0.0
 41
5.0
 42
5.0
 43
5.0
 50
270.0
  0
INSERT
  5
7A4F
  8
002寸法
  2
_OPEN
 10
1379.0
 20
478.0
 30
0.0
 41
5.0
 42
5.0
 43
5.0
 50
90.0
  0
INSERT
  5
7A50
  8
011形状
  2
*U53
 10
0.0
 20
0.0
 30
0.0
  0
POINT
  5
7A51
  8
DEFPOINTS
 62
     0
 10
1319.0
 20
262.0
 30
0.0
  0
POINT
  5
7A52
  8
DEFPOINTS
 62
     0
 10
1319.0
 20
478.0
 30
0.0
  0
POINT
  5
7A53
  8
DEFPOINTS
 62
     0
 10
1379.0
 20
478.0
 30
0.0
  0
ENDBLK
  5
7A12
  8
0
  0
BLOCK
  8
0
  2
*D14
 70
     1
 10
0.0
 20
0.0
 30
0.0
  3
*D14
  1

  0
LINE
  5
7A62
  8
002寸法
 10
1299.0
 20
479.0
 30
0.0
 11
1299.0
 21
499.5
 31
0.0
  0
LINE
  5
7A63
  8
002寸法
 10
1319.0
 20
479.0
 30
0.0
 11
1319.0
 21
499.5
 31
0.0
  0
LINE
  5
7A64
  8
002寸法
 10
1304.0
 20
498.0
 30
0.0
 11
1314.0
 21
498.0
 31
0.0
  0
INSERT
  5
7A65
  8
002寸法
  2
_OPEN
 10
1299.0
 20
498.0
 30
0.0
 41
5.0
 42
5.0
 43
5.0
 50
180.0
  0
INSERT
  5
7A66
  8
002寸法
  2
_OPEN
 10
1319.0
 20
498.0
 30
0.0
 41
5.0
 42
5.0
 43
5.0
  0
INSERT
  5
7A67
  8
011形状
  2
*U54
 10
0.0
 20
0.0
 30
0.0
  0
POINT
  5
7A68
  8
DEFPOINTS
 62
     0
 10
1299.0
 20
478.0
 30
0.0
  0
POINT
  5
7A69
  8
DEFPOINTS
 62
     0
 10
1319.0
 20
478.0
 30
0.0
  0
POINT
  5
7A6A
  8
DEFPOINTS
 62
     0
 10
1319.0
 20
498.0
 30
0.0
  0
ENDBLK
  5
7A57
  8
0
  0
BLOCK
  8
0
  2
*D15
 70
     1
 10
0.0
 20
0.0
 30
0.0
  3
*D15
  1

  0
LINE
  5
7A7A
  8
002寸法
 10
1190.0
 20
361.0
 30
0.0
 11
1190.0
 21
230.5
 31
0.0
  0
LINE
  5
7A7B
  8
002寸法
 10
1395.0
 20
369.0
 30
0.0
 11
1395.0
 21
230.5
 31
0.0
  0
LINE
  5
7A7C
  8
002寸法
 10
1195.0
 20
232.0
 30
0.0
 11
1390.0
 21
232.0
 31
0.0
  0
INSERT
  5
7A7D
  8
002寸法
  2
_OPEN
 10
1190.0
 20
232.0
 30
0.0
 41
5.0
 42
5.0
 43
5.0
 50
180.0
  0
INSERT
  5
7A7E
  8
002寸法
  2
_OPEN
 10
1395.0
 20
232.0
 30
0.0
 41
5.0
 42
5.0
 43
5.0
  0
INSERT
  5
7A7F
  8
011形状
  2
*U55
 10
0.0
 20
0.0
 30
0.0
  0
POINT
  5
7A80
  8
DEFPOINTS
 62
     0
 10
1190.0
 20
362.0
 30
0.0
  0
POINT
  5
7A81
  8
DEFPOINTS
 62
     0
 10
1395.0
 20
370.0
 30
0.0
  0
POINT
  5
7A82
  8
DEFPOINTS
 62
     0
 10
1395.0
 20
232.0
 30
0.0
  0
ENDBLK
  5
7A6F
  8
0
  0
BLOCK
  8
0
  2
*D16
 70
     1
 10
0.0
 20
0.0
 30
0.0
  3
*D16
  1

  0
LINE
  5
80AB
  8
002寸法
 10
1273.0
 20
358.0
 30
0.0
 11
1298.5
 21
358.0
 31
0.0
  0
LINE
  5
80AC
  8
002寸法
 10
1273.0
 20
382.0
 30
0.0
 11
1298.5
 21
382.0
 31
0.0
  0
LINE
  5
80AD
  8
002寸法
 10
1297.0
 20
363.0
 30
0.0
 11
1297.0
 21
377.0
 31
0.0
  0
TEXT
  8
002寸法
  40
6
  5
80FF
  62
2
  72
0
  71
0
 10
1292.50
 20
386.964
 30
0.000000
  1
24  0/-0.052
  0
INSERT
  5
80AF
  8
002寸法
  2
_OPEN
 10
1297.0
 20
358.0
 30
0.0
 41
5.0
 42
5.0
 43
5.0
 50
270.0
  0
INSERT
  5
80B0
  8
002寸法
  2
_OPEN
 10
1297.0
 20
382.0
 30
0.0
 41
5.0
 42
5.0
 43
5.0
 50
90.0
  0
POINT
  5
80B1
  8
DEFPOINTS
 62
     0
 10
1272.0
 20
358.0
 30
0.0
  0
POINT
  5
80B2
  8
DEFPOINTS
 62
     0
 10
1272.0
 20
382.0
 30
0.0
  0
POINT
  5
80B3
  8
DEFPOINTS
 62
     0
 10
1297.0
 20
382.0
 30
0.0
  0
ENDBLK
  5
7A87
  8
0
  0
BLOCK
  8
0
  2
*D17
 70
     1
 10
0.0
 20
0.0
 30
0.0
  3
*D17
  1

  0
LINE
  5
7D63
  8
002寸法
 10
1264.0
 20
371.0
 30
0.0
 11
1264.0
 21
467.49999999999989
 31
0.0
  0
LINE
  5
7D64
  8
002寸法
 10
1272.0
 20
383.0
 30
0.0
 11
1272.0
 21
467.49999999999989
 31
0.0
  0
LINE
  5
7D65
  8
002寸法
 10
1259.0
 20
466.0
 30
0.0
 11
1254.0
 21
466.0
 31
0.0
  0
LINE
  5
7D66
  8
002寸法
 10
1277.0
 20
466.0
 30
0.0
 11
1282.0
 21
466.0
 31
0.0
  0
LINE
  5
7D67
  8
002寸法
 10
1264.0
 20
466.0
 30
0.0
 11
1272.0
 21
466.0
 31
0.0
  0
INSERT
  5
7D68
  8
002寸法
  2
_OPEN
 10
1264.0
 20
466.0
 30
0.0
 41
5.0
 42
5.0
 43
5.0
  0
INSERT
  5
7D69
  8
002寸法
  2
_OPEN
 10
1272.0
 20
466.0
 30
0.0
 41
5.0
 42
5.0
 43
5.0
 50
180.0
  0
INSERT
  5
7D6A
  8
011形状
  2
*U71
 10
0.0
 20
0.0
 30
0.0
  0
POINT
  5
7D6B
  8
DEFPOINTS
 62
     0
 10
1264.0
 20
370.0
 30
0.0
  0
POINT
  5
7D6C
  8
DEFPOINTS
 62
     0
 10
1272.0
 20
382.0
 30
0.0
  0
POINT
  5
7D6D
  8
DEFPOINTS
 62
     0
 10
1272.0
 20
466.0
 30
0.0
  0
ENDBLK
  5
7A9F
  8
0
  0
BLOCK
  8
0
  2
*D18
 70
     1
 10
0.0
 20
0.0
 30
0.0
  3
*D18
  1

  0
LINE
  5
7B70
  8
002寸法
 10
1020.0
 20
325.0
 30
0.0
 11
1039.5
 21
325.0
 31
0.0
  0
LINE
  5
7B71
  8
002寸法
 10
1020.0
 20
415.0
 30
0.0
 11
1039.5
 21
415.0
 31
0.0
  0
LINE
  5
7B72
  8
002寸法
 10
1038.0
 20
330.0
 30
0.0
 11
1038.0
 21
410.0
 31
0.0
  0
INSERT
  5
7B73
  8
002寸法
  2
_OPEN
 10
1038.0
 20
325.0
 30
0.0
 41
5.0
 42
5.0
 43
5.0
 50
270.0
  0
INSERT
  5
7B74
  8
002寸法
  2
_OPEN
 10
1038.0
 20
415.0
 30
0.0
 41
5.0
 42
5.0
 43
5.0
 50
90.0
  0
INSERT
  5
7B75
  8
011形状
  2
*U57
 10
0.0
 20
0.0
 30
0.0
  0
POINT
  5
7B76
  8
DEFPOINTS
 62
     0
 10
1019.0
 20
325.0
 30
0.0
  0
POINT
  5
7B77
  8
DEFPOINTS
 62
     0
 10
1019.0
 20
415.0
 30
0.0
  0
POINT
  5
7B78
  8
DEFPOINTS
 62
     0
 10
1038.0
 20
415.0
 30
0.0
  0
ENDBLK
  5
7AD1
  8
0
  0
BLOCK
  8
0
  2
*D19
 70
     1
 10
0.0
 20
0.0
 30
0.0
  3
*D19
  1

  0
LINE
  5
7B82
  8
002寸法
 10
931.49999999999989
 20
284.0
 30
0.0
 11
984.5
 21
284.0
 31
0.0
  0
LINE
  5
7B83
  8
002寸法
 10
931.49999999999989
 20
456.0
 30
0.0
 11
984.5
 21
456.0
 31
0.0
  0
LINE
  5
7B84
  8
002寸法
 10
983.00000000000011
 20
289.0
 30
0.0
 11
983.00000000000011
 21
451.0
 31
0.0
  0
INSERT
  5
7B85
  8
002寸法
  2
_OPEN
 10
983.00000000000011
 20
284.0
 30
0.0
 41
5.0
 42
5.0
 43
5.0
 50
270.0
  0
INSERT
  5
7B86
  8
002寸法
  2
_OPEN
 10
983.00000000000011
 20
456.0
 30
0.0
 41
5.0
 42
5.0
 43
5.0
 50
90.0
  0
INSERT
  5
7B87
  8
011形状
  2
*U58
 10
0.0
 20
0.0
 30
0.0
  0
POINT
  5
7B88
  8
DEFPOINTS
 62
     0
 10
930.49999999999989
 20
284.0
 30
0.0
  0
POINT
  5
7B89
  8
DEFPOINTS
 62
     0
 10
930.49999999999989
 20
456.0
 30
0.0
  0
POINT
  5
7B8A
  8
DEFPOINTS
 62
     0
 10
983.00000000000011
 20
456.0
 30
0.0
  0
ENDBLK
  5
7AF2
  8
0
  0
BLOCK
  8
0
  2
*D20
 70
     1
 10
0.0
 20
0.0
 30
0.0
  3
*D20
  1

  0
LINE
  5
7B5E
  8
002寸法
 10
799.0
 20
325.0
 30
0.0
 11
788.50000000000011
 21
325.0
 31
0.0
  0
LINE
  5
7B5F
  8
002寸法
 10
799.0
 20
415.0
 30
0.0
 11
788.50000000000011
 21
415.0
 31
0.0
  0
LINE
  5
7B60
  8
002寸法
 10
790.00000000000011
 20
330.0
 30
0.0
 11
790.00000000000011
 21
410.0
 31
0.0
  0
INSERT
  5
7B61
  8
002寸法
  2
_OPEN
 10
790.00000000000011
 20
325.0
 30
0.0
 41
5.0
 42
5.0
 43
5.0
 50
270.0
  0
INSERT
  5
7B62
  8
002寸法
  2
_OPEN
 10
790.00000000000011
 20
415.0
 30
0.0
 41
5.0
 42
5.0
 43
5.0
 50
90.0
  0
INSERT
  5
7B63
  8
011形状
  2
*U56
 10
0.0
 20
0.0
 30
0.0
  0
POINT
  5
7B64
  8
DEFPOINTS
 62
     0
 10
800.0
 20
325.0
 30
0.0
  0
POINT
  5
7B65
  8
DEFPOINTS
 62
     0
 10
800.0
 20
415.0
 30
0.0
  0
POINT
  5
7B66
  8
DEFPOINTS
 62
     0
 10
790.00000000000011
 20
415.0
 30
0.0
  0
ENDBLK
  5
7B0A
  8
0
  0
BLOCK
  8
0
  2
*D21
 70
     1
 10
0.0
 20
0.0
 30
0.0
  3
*D21
  1

  0
LINE
  5
7B99
  8
002寸法
 10
858.0
 20
470.0
 30
0.0
 11
858.0
 21
499.5
 31
0.0
  0
LINE
  5
7B9A
  8
002寸法
 10
877.99999999999966
 20
470.00000192204362
 30
0.0
 11
877.99999999999966
 21
499.5
 31
0.0
  0
LINE
  5
7B9B
  8
002寸法
 10
863.0
 20
498.0
 30
0.0
 11
872.99999999999955
 21
498.0
 31
0.0
  0
INSERT
  5
7B9C
  8
002寸法
  2
_OPEN
 10
858.0
 20
498.0
 30
0.0
 41
5.0
 42
5.0
 43
5.0
 50
180.0
  0
INSERT
  5
7B9D
  8
002寸法
  2
_OPEN
 10
877.99999999999966
 20
498.0
 30
0.0
 41
5.0
 42
5.0
 43
5.0
  0
INSERT
  5
7B9E
  8
011形状
  2
*U59
 10
0.0
 20
0.0
 30
0.0
  0
POINT
  5
7B9F
  8
DEFPOINTS
 62
     0
 10
858.0
 20
469.0
 30
0.0
  0
POINT
  5
7BA0
  8
DEFPOINTS
 62
     0
 10
877.99999999999966
 20
469.00000192204368
 30
0.0
  0
POINT
  5
7BA1
  8
DEFPOINTS
 62
     0
 10
877.99999999999966
 20
498.0
 30
0.0
  0
ENDBLK
  5
7B8E
  8
0
  0
BLOCK
  8
0
  2
*D22
 70
     1
 10
0.0
 20
0.0
 30
0.0
  3
*D22
  1

  0
LINE
  5
7BB3
  8
002寸法
 10
862.0
 20
464.0
 30
0.0
 11
784.49999999999989
 21
464.0
 31
0.0
  0
LINE
  5
7BB4
  8
002寸法
 10
862.0
 20
474.0
 30
0.0
 11
784.49999999999989
 21
474.0
 31
0.0
  0
LINE
  5
7BB5
  8
002寸法
 10
786.0
 20
459.0
 30
0.0
 11
786.0
 21
454.0
 31
0.0
  0
LINE
  5
7BB6
  8
002寸法
 10
786.0
 20
479.0
 30
0.0
 11
786.0
 21
484.0
 31
0.0
  0
LINE
  5
7BB7
  8
002寸法
 10
786.0
 20
464.0
 30
0.0
 11
786.0
 21
474.0
 31
0.0
  0
INSERT
  5
7BB8
  8
002寸法
  2
_OPEN
 10
786.0
 20
464.0
 30
0.0
 41
5.0
 42
5.0
 43
5.0
 50
90.0
  0
INSERT
  5
7BB9
  8
002寸法
  2
_OPEN
 10
786.0
 20
474.0
 30
0.0
 41
5.0
 42
5.0
 43
5.0
 50
270.0
  0
INSERT
  5
7BBA
  8
011形状
  2
*U60
 10
0.0
 20
0.0
 30
0.0
  0
POINT
  5
7BBB
  8
DEFPOINTS
 62
     0
 10
863.0
 20
464.0
 30
0.0
  0
POINT
  5
7BBC
  8
DEFPOINTS
 62
     0
 10
863.0
 20
474.0
 30
0.0
  0
POINT
  5
7BBD
  8
DEFPOINTS
 62
     0
 10
786.0
 20
474.0
 30
0.0
  0
ENDBLK
  5
7BA6
  8
0
  0
BLOCK
  8
0
  2
*D23
 70
     1
 10
0.0
 20
0.0
 30
0.0
  3
*D23
  1

  0
LINE
  5
7CCB
  8
002寸法
 10
804.0
 20
284.5
 30
0.0
 11
804.0
 21
232.0
 31
0.0
  0
LINE
  5
7CCC
  8
002寸法
 10
868.0
 20
265.0
 30
0.0
 11
868.0
 21
232.0
 31
0.0
  0
LINE
  5
7CCD
  8
002寸法
 10
809.0
 20
233.5
 30
0.0
 11
863.0
 21
233.5
 31
0.0
  0
INSERT
  5
7CCE
  8
002寸法
  2
_OPEN
 10
804.0
 20
233.5
 30
0.0
 41
5.0
 42
5.0
 43
5.0
 50
180.0
  0
INSERT
  5
7CCF
  8
002寸法
  2
_OPEN
 10
868.0
 20
233.5
 30
0.0
 41
5.0
 42
5.0
 43
5.0
  0
INSERT
  5
7CD0
  8
011形状
  2
*U63
 10
0.0
 20
0.0
 30
0.0
  0
POINT
  5
7CD1
  8
DEFPOINTS
 62
     0
 10
804.0
 20
285.5
 30
0.0
  0
POINT
  5
7CD2
  8
DEFPOINTS
 62
     0
 10
868.0
 20
266.0
 30
0.0
  0
POINT
  5
7CD3
  8
DEFPOINTS
 62
     0
 10
868.0
 20
233.5
 30
0.0
  0
ENDBLK
  5
7BC2
  8
0
  0
BLOCK
  8
0
  2
*D24
 70
     1
 10
0.0
 20
0.0
 30
0.0
  3
*D24
  1

  0
LINE
  5
7BE5
  8
002寸法
 10
660.0
 20
326.0
 30
0.0
 11
660.0
 21
232.0
 31
0.0
  0
LINE
  5
7BE6
  8
002寸法
 10
775.0
 20
369.0
 30
0.0
 11
775.0
 21
232.0
 31
0.0
  0
LINE
  5
7BE7
  8
002寸法
 10
665.0
 20
233.5
 30
0.0
 11
770.0
 21
233.5
 31
0.0
  0
INSERT
  5
7BE8
  8
002寸法
  2
_OPEN
 10
660.0
 20
233.5
 30
0.0
 41
5.0
 42
5.0
 43
5.0
 50
180.0
  0
INSERT
  5
7BE9
  8
002寸法
  2
_OPEN
 10
775.0
 20
233.5
 30
0.0
 41
5.0
 42
5.0
 43
5.0
  0
INSERT
  5
7BEA
  8
011形状
  2
*U61
 10
0.0
 20
0.0
 30
0.0
  0
POINT
  5
7BEB
  8
DEFPOINTS
 62
     0
 10
660.0
 20
327.0
 30
0.0
  0
POINT
  5
7BEC
  8
DEFPOINTS
 62
     0
 10
775.0
 20
370.0
 30
0.0
  0
POINT
  5
7BED
  8
DEFPOINTS
 62
     0
 10
775.0
 20
233.5
 30
0.0
  0
ENDBLK
  5
7BDA
  8
0
  0
BLOCK
  8
0
  2
*D25
 70
     1
 10
0.0
 20
0.0
 30
0.0
  3
*D25
  1

  0
LINE
  5
7D29
  8
002寸法
 10
800.0
 20
322.5
 30
0.0
 11
800.0
 21
212.0
 31
0.0
  0
LINE
  5
7D2A
  8
002寸法
 10
804.0
 20
284.5
 30
0.0
 11
804.0
 21
212.0
 31
0.0
  0
LINE
  5
7D2B
  8
002寸法
 10
809.0
 20
213.5
 30
0.0
 11
814.0
 21
213.5
 31
0.0
  0
LINE
  5
7D2C
  8
002寸法
 10
795.0
 20
213.5
 30
0.0
 11
784.14285714285711
 21
213.5
 31
0.0
  0
LINE
  5
7D2D
  8
002寸法
 10
804.0
 20
213.5
 30
0.0
 11
800.0
 21
213.5
 31
0.0
  0
INSERT
  5
7D2E
  8
002寸法
  2
_OPEN
 10
804.0
 20
213.5
 30
0.0
 41
5.0
 42
5.0
 43
5.0
 50
180.0
  0
INSERT
  5
7D2F
  8
002寸法
  2
_OPEN
 10
800.0
 20
213.5
 30
0.0
 41
5.0
 42
5.0
 43
5.0
  0
INSERT
  5
7D30
  8
011形状
  2
*U70
 10
0.0
 20
0.0
 30
0.0
  0
POINT
  5
7D31
  8
DEFPOINTS
 62
     0
 10
800.0
 20
323.5
 30
0.0
  0
POINT
  5
7D32
  8
DEFPOINTS
 62
     0
 10
804.0
 20
285.5
 30
0.0
  0
POINT
  5
7D33
  8
DEFPOINTS
 62
     0
 10
804.0
 20
213.5
 30
0.0
  0
ENDBLK
  5
7BF2
  8
0
  0
BLOCK
  8
0
  2
*D26
 70
     1
 10
0.0
 20
0.0
 30
0.0
  3
*D26
  1

  0
LINE
  5
7D0E
  8
002寸法
 10
660.0
 20
326.0
 30
0.0
 11
660.0
 21
192.0
 31
0.0
  0
LINE
  5
7D0F
  8
002寸法
 10
800.0
 20
322.5
 30
0.0
 11
800.0
 21
192.0
 31
0.0
  0
LINE
  5
7D10
  8
002寸法
 10
665.0
 20
193.5
 30
0.0
 11
795.0
 21
193.5
 31
0.0
  0
INSERT
  5
7D11
  8
002寸法
  2
_OPEN
 10
660.0
 20
193.5
 30
0.0
 41
5.0
 42
5.0
 43
5.0
 50
180.0
  0
INSERT
  5
7D12
  8
002寸法
  2
_OPEN
 10
800.0
 20
193.5
 30
0.0
 41
5.0
 42
5.0
 43
5.0
  0
INSERT
  5
7D13
  8
011形状
  2
*U67
 10
0.0
 20
0.0
 30
0.0
  0
POINT
  5
7D14
  8
DEFPOINTS
 62
     0
 10
660.0
 20
327.0
 30
0.0
  0
POINT
  5
7D15
  8
DEFPOINTS
 62
     0
 10
800.0
 20
323.5
 30
0.0
  0
POINT
  5
7D16
  8
DEFPOINTS
 62
     0
 10
800.0
 20
193.5
 30
0.0
  0
ENDBLK
  5
7C0E
  8
0
  0
BLOCK
  8
0
  2
*D27
 70
     1
 10
0.0
 20
0.0
 30
0.0
  3
*D27
  1

  0
LINE
  5
7CE8
  8
002寸法
 10
660.0
 20
326.0
 30
0.0
 11
660.0
 21
172.0
 31
0.0
  0
LINE
  5
7CE9
  8
002寸法
 10
1160.0
 20
326.0
 30
0.0
 11
1160.0
 21
172.0
 31
0.0
  0
LINE
  5
7CEA
  8
002寸法
 10
665.0
 20
173.5
 30
0.0
 11
1155.0
 21
173.5
 31
0.0
  0
INSERT
  5
7CEB
  8
002寸法
  2
_OPEN
 10
660.0
 20
173.5
 30
0.0
 41
5.0
 42
5.0
 43
5.0
 50
180.0
  0
INSERT
  5
7CEC
  8
002寸法
  2
_OPEN
 10
1160.0
 20
173.5
 30
0.0
 41
5.0
 42
5.0
 43
5.0
  0
INSERT
  5
7CED
  8
011形状
  2
*U64
 10
0.0
 20
0.0
 30
0.0
  0
POINT
  5
7CEE
  8
DEFPOINTS
 62
     0
 10
660.0
 20
327.0
 30
0.0
  0
POINT
  5
7CEF
  8
DEFPOINTS
 62
     0
 10
1160.0
 20
327.0
 30
0.0
  0
POINT
  5
7CF0
  8
DEFPOINTS
 62
     0
 10
1160.0
 20
173.5
 30
0.0
  0
ENDBLK
  5
7C26
  8
0
  0
BLOCK
  8
0
  2
*D28
 70
     1
 10
0.0
 20
0.0
 30
0.0
  3
*D28
  1

  0
LINE
  5
7C49
  8
002寸法
 10
1045.0
 20
369.0
 30
0.0
 11
1045.0
 21
232.0
 31
0.0
  0
LINE
  5
7C4A
  8
002寸法
 10
1160.0
 20
326.0
 30
0.0
 11
1160.0
 21
232.0
 31
0.0
  0
LINE
  5
7C4B
  8
002寸法
 10
1050.0
 20
233.5
 30
0.0
 11
1155.0
 21
233.5
 31
0.0
  0
INSERT
  5
7C4C
  8
002寸法
  2
_OPEN
 10
1045.0
 20
233.5
 30
0.0
 41
5.0
 42
5.0
 43
5.0
 50
180.0
  0
INSERT
  5
7C4D
  8
002寸法
  2
_OPEN
 10
1160.0
 20
233.5
 30
0.0
 41
5.0
 42
5.0
 43
5.0
  0
INSERT
  5
7C4E
  8
011形状
  2
*U62
 10
0.0
 20
0.0
 30
0.0
  0
POINT
  5
7C4F
  8
DEFPOINTS
 62
     0
 10
1045.0
 20
370.0
 30
0.0
  0
POINT
  5
7C50
  8
DEFPOINTS
 62
     0
 10
1160.0
 20
327.0
 30
0.0
  0
POINT
  5
7C51
  8
DEFPOINTS
 62
     0
 10
1160.0
 20
233.5
 30
0.0
  0
ENDBLK
  5
7C3E
  8
0
  0
BLOCK
  8
0
  2
*D29
 70
     1
 10
0.0
 20
0.0
 30
0.0
  3
*D29
  1

  0
LINE
  5
80D0
  8
002寸法
 10
868.0
 20
265.0
 30
0.0
 11
868.0
 21
232.0
 31
0.0
  0
LINE
  5
80D1
  8
002寸法
 10
933.0
 20
289.0
 30
0.0
 11
933.0
 21
232.0
 31
0.0
  0
LINE
  5
80D2
  8
002寸法
 10
873.0
 20
233.5
 30
0.0
 11
928.0
 21
233.5
 31
0.0
  0
INSERT
  5
80D3
  8
002寸法
  2
_OPEN
 10
868.0
 20
233.5
 30
0.0
 41
5.0
 42
5.0
 43
5.0
 50
180.0
  0
INSERT
  5
80D4
  8
002寸法
  2
_OPEN
 10
933.0
 20
233.5
 30
0.0
 41
5.0
 42
5.0
 43
5.0
  0
TEXT
  8
002寸法
  40
6
  5
8100
  62
2
  72
0
  71
0
 10
900.500
 20
229.700
 30
0.000000
  1
65
  0
POINT
  5
80D6
  8
DEFPOINTS
 62
     0
 10
868.0
 20
266.0
 30
0.0
  0
POINT
  5
80D7
  8
DEFPOINTS
 62
     0
 10
933.0
 20
290.0
 30
0.0
  0
POINT
  5
80D8
  8
DEFPOINTS
 62
     0
 10
933.0
 20
233.5
 30
0.0
  0
ENDBLK
  5
7C56
  8
0
  0
BLOCK
  8
0
  2
*D30
 70
     1
 10
0.0
 20
0.0
 30
0.0
  3
*D30
  1

  0
LINE
  5
7CFC
  8
002寸法
 10
804.0
 20
284.5
 30
0.0
 11
804.0
 21
212.0
 31
0.0
  0
LINE
  5
7CFD
  8
002寸法
 10
933.0
 20
289.0
 30
0.0
 11
933.0
 21
212.0
 31
0.0
  0
LINE
  5
7CFE
  8
002寸法
 10
809.0
 20
213.5
 30
0.0
 11
928.0
 21
213.5
 31
0.0
  0
INSERT
  5
7CFF
  8
002寸法
  2
_OPEN
 10
804.0
 20
213.5
 30
0.0
 41
5.0
 42
5.0
 43
5.0
 50
180.0
  0
INSERT
  5
7D00
  8
002寸法
  2
_OPEN
 10
933.0
 20
213.5
 30
0.0
 41
5.0
 42
5.0
 43
5.0
  0
INSERT
  5
7D01
  8
011形状
  2
*U65
 10
0.0
 20
0.0
 30
0.0
  0
POINT
  5
7D02
  8
DEFPOINTS
 62
     0
 10
804.0
 20
285.5
 30
0.0
  0
POINT
  5
7D03
  8
DEFPOINTS
 62
     0
 10
933.0
 20
290.0
 30
0.0
  0
POINT
  5
7D04
  8
DEFPOINTS
 62
     0
 10
933.0
 20
213.5
 30
0.0
  0
ENDBLK
  5
7C6E
  8
0
  0
BLOCK
  8
0
  2
*D31
 70
     1
 10
0.0
 20
0.0
 30
0.0
  3
*D31
  1

  0
LINE
  5
7D05
  8
002寸法
 10
933.0
 20
289.0
 30
0.0
 11
933.0
 21
212.0
 31
0.0
  0
LINE
  5
7D06
  8
002寸法
 10
1019.0
 20
315.0
 30
0.0
 11
1019.0
 21
212.0
 31
0.0
  0
LINE
  5
7D07
  8
002寸法
 10
938.0
 20
213.5
 30
0.0
 11
1014.0
 21
213.5
 31
0.0
  0
INSERT
  5
7D08
  8
002寸法
  2
_OPEN
 10
933.0
 20
213.5
 30
0.0
 41
5.0
 42
5.0
 43
5.0
 50
180.0
  0
INSERT
  5
7D09
  8
002寸法
  2
_OPEN
 10
1019.0
 20
213.5
 30
0.0
 41
5.0
 42
5.0
 43
5.0
  0
INSERT
  5
7D0A
  8
011形状
  2
*U66
 10
0.0
 20
0.0
 30
0.0
  0
POINT
  5
7D0B
  8
DEFPOINTS
 62
     0
 10
933.0
 20
290.0
 30
0.0
  0
POINT
  5
7D0C
  8
DEFPOINTS
 62
     0
 10
1019.0
 20
316.0
 30
0.0
  0
POINT
  5
7D0D
  8
DEFPOINTS
 62
     0
 10
1019.0
 20
213.5
 30
0.0
  0
ENDBLK
  5
7C86
  8
0
  0
BLOCK
  8
0
  2
*D32
 70
     1
 10
0.0
 20
0.0
 30
0.0
  3
*D32
  1

  0
LINE
  5
7D17
  8
002寸法
 10
800.0
 20
322.5
 30
0.0
 11
800.0
 21
192.0
 31
0.0
  0
LINE
  5
7D18
  8
002寸法
 10
1019.0
 20
315.0
 30
0.0
 11
1019.0
 21
192.0
 31
0.0
  0
LINE
  5
7D19
  8
002寸法
 10
805.0
 20
193.5
 30
0.0
 11
1014.0
 21
193.5
 31
0.0
  0
INSERT
  5
7D1A
  8
002寸法
  2
_OPEN
 10
800.0
 20
193.5
 30
0.0
 41
5.0
 42
5.0
 43
5.0
 50
180.0
  0
INSERT
  5
7D1B
  8
002寸法
  2
_OPEN
 10
1019.0
 20
193.5
 30
0.0
 41
5.0
 42
5.0
 43
5.0
  0
INSERT
  5
7D1C
  8
011形状
  2
*U68
 10
0.0
 20
0.0
 30
0.0
  0
POINT
  5
7D1D
  8
DEFPOINTS
 62
     0
 10
800.0
 20
323.5
 30
0.0
  0
POINT
  5
7D1E
  8
DEFPOINTS
 62
     0
 10
1019.0
 20
316.0
 30
0.0
  0
POINT
  5
7D1F
  8
DEFPOINTS
 62
     0
 10
1019.0
 20
193.5
 30
0.0
  0
ENDBLK
  5
7C9E
  8
0
  0
BLOCK
  8
0
  2
*D33
 70
     1
 10
0.0
 20
0.0
 30
0.0
  3
*D33
  1

  0
LINE
  5
7D20
  8
002寸法
 10
1019.0
 20
315.0
 30
0.0
 11
1019.0
 21
192.0
 31
0.0
  0
LINE
  5
7D21
  8
002寸法
 10
1160.0
 20
326.0
 30
0.0
 11
1160.0
 21
192.0
 31
0.0
  0
LINE
  5
7D22
  8
002寸法
 10
1024.0
 20
193.5
 30
0.0
 11
1155.0
 21
193.5
 31
0.0
  0
INSERT
  5
7D23
  8
002寸法
  2
_OPEN
 10
1019.0
 20
193.5
 30
0.0
 41
5.0
 42
5.0
 43
5.0
 50
180.0
  0
INSERT
  5
7D24
  8
002寸法
  2
_OPEN
 10
1160.0
 20
193.5
 30
0.0
 41
5.0
 42
5.0
 43
5.0
  0
INSERT
  5
7D25
  8
011形状
  2
*U69
 10
0.0
 20
0.0
 30
0.0
  0
POINT
  5
7D26
  8
DEFPOINTS
 62
     0
 10
1019.0
 20
316.0
 30
0.0
  0
POINT
  5
7D27
  8
DEFPOINTS
 62
     0
 10
1160.0
 20
327.0
 30
0.0
  0
POINT
  5
7D28
  8
DEFPOINTS
 62
     0
 10
1160.0
 20
193.5
 30
0.0
  0
ENDBLK
  5
7CB6
  8
0
  0
BLOCK
  8
0
  2
*U34
 70
     1
 10
0.0
 20
0.0
 30
0.0
  3
*U34
  1

  0
SOLID
  5
7E9C
  8
DEFPOINTS
  6
CONTINUOUS
 10
1284.698004822191
 20
32.567521701952053
 30
0.0
 11
1284.698004822191
 21
32.128621701951943
 31
0.0
 12
1291.403934822192
 22
32.128621701951943
 32
0.0
 13
1291.403934822192
 23
32.128621701951943
 33
0.0
210
0.0
220
0.0
230
1.0
  0
SOLID
  5
7E9D
  8
DEFPOINTS
  6
CONTINUOUS
 10
-1284.698004822191
 20
32.567521701952053
 30
0.0
 11
-1291.403934822192
 21
32.567521701952053
 31
0.0
 12
-1291.403934822192
 22
32.128621701951943
 32
0.0
 13
-1291.403934822192
 23
32.128621701951943
 33
0.0
210
0.0
220
0.0
230
-1.0
  0
SOLID
  5
7E9E
  8
DEFPOINTS
  6
CONTINUOUS
 10
1275.2373998221899
 20
32.567521701952053
 30
0.0
 11
1275.2373998221899
 21
32.128621701951943
 31
0.0
 12
1277.852319822191
 22
32.128621701951943
 32
0.0
 13
1277.852319822191
 23
32.128621701951943
 33
0.0
  0
SOLID
  5
7E9F
  8
DEFPOINTS
  6
CONTINUOUS
 10
-1275.2373998221899
 20
32.567521701952053
 30
0.0
 11
-1277.852319822191
 21
32.567521701952053
 31
0.0
 12
-1277.852319822191
 22
32.128621701951943
 32
0.0
 13
-1277.852319822191
 23
32.128621701951943
 33
0.0
210
0.0
220
0.0
230
-1.0
  0
SOLID
  5
7EA0
  8
DEFPOINTS
  6
CONTINUOUS
 10
1273.27158982219
 20
32.567521701952053
 30
0.0
 11
1273.271589822192
 21
32.128621701951943
 31
0.0
 12
1275.0156398221909
 22
32.128621701951943
 32
0.0
 13
1275.0156398221909
 23
32.128621701951943
 33
0.0
210
0.0
220
0.0
230
1.0
  0
SOLID
  5
7EA1
  8
DEFPOINTS
  6
CONTINUOUS
 10
-1273.27158982219
 20
32.567521701952053
 30
0.0
 11
-1275.0156398221909
 21
32.567521701952053
 31
0.0
 12
-1275.0156398221909
 22
32.128621701951943
 32
0.0
 13
-1275.0156398221909
 23
32.128621701951943
 33
0.0
210
0.0
220
0.0
230
-1.0
  0
SOLID
  5
7EA2
  8
DEFPOINTS
  6
CONTINUOUS
 10
1265.3309896601911
 20
32.567521701952053
 30
0.0
 11
1265.3309896601911
 21
32.128621701951943
 31
0.0
 12
1269.3457696601911
 22
32.128621701951943
 32
0.0
 13
1269.3457696601911
 23
32.128621701951943
 33
0.0
  0
SOLID
  5
7EA3
  8
DEFPOINTS
  6
CONTINUOUS
 10
-1265.3309896601911
 20
32.567521701952053
 30
0.0
 11
-1269.3457696601911
 21
32.567521701952053
 31
0.0
 12
-1269.3457696601911
 22
32.128621701951943
 32
0.0
 13
-1269.3457696601911
 23
32.128621701951943
 33
0.0
210
0.0
220
0.0
230
-1.0
  0
SOLID
  5
7EA4
  8
DEFPOINTS
  6
CONTINUOUS
 10
1262.1685996601909
 20
32.567521701952053
 30
0.0
 11
1262.1685996601909
 21
32.128621701951943
 31
0.0
 12
1265.0745796601909
 22
32.128621701951943
 32
0.0
 13
1265.0745796601909
 23
32.128621701951943
 33
0.0
210
0.0
220
0.0
230
1.0
  0
SOLID
  5
7EA5
  8
DEFPOINTS
  6
CONTINUOUS
 10
-1262.1685996601909
 20
32.567521701952053
 30
0.0
 11
-1265.07457966019
 21
32.567521701952053
 31
0.0
 12
-1265.0745796601909
 22
32.128621701951943
 32
0.0
 13
-1265.0745796601909
 23
32.128621701951943
 33
0.0
210
0.0
220
0.0
230
-1.0
  0
SOLID
  5
7EA6
  8
DEFPOINTS
  6
CONTINUOUS
 10
1254.2637548221901
 20
32.567521701952053
 30
0.0
 11
1254.2637548221901
 21
32.128621701951943
 31
0.0
 12
1258.3120298221911
 22
32.128621701951943
 32
0.0
 13
1258.3120298221911
 23
32.128621701951943
 33
0.0
210
0.0
220
0.0
230
1.0
  0
SOLID
  5
7EA7
  8
DEFPOINTS
  6
CONTINUOUS
 10
-1254.2637548221901
 20
32.567521701952053
 30
0.0
 11
-1258.3120298221911
 21
32.567521701952053
 31
0.0
 12
-1258.3120298221911
 22
32.128621701951943
 32
0.0
 13
-1258.3120298221911
 23
32.128621701951943
 33
0.0
210
0.0
220
0.0
230
-1.0
  0
SOLID
  5
7EA8
  8
DEFPOINTS
  6
CONTINUOUS
 10
1251.191454822191
 20
32.567521701952053
 30
0.0
 11
1251.191454822191
 21
32.128621701951943
 31
0.0
 12
1253.986554822191
 22
32.128621701951943
 32
0.0
 13
1253.986554822191
 23
32.128621701951943
 33
0.0
210
0.0
220
0.0
230
1.0
  0
SOLID
  5
7EA9
  8
DEFPOINTS
  6
CONTINUOUS
 10
-1251.191454822191
 20
32.567521701952053
 30
0.0
 11
-1253.986554822191
 21
32.567521701952053
 31
0.0
 12
-1253.986554822191
 22
32.128621701951943
 32
0.0
 13
-1253.986554822191
 23
32.128621701951943
 33
0.0
210
0.0
220
0.0
230
-1.0
  0
SOLID
  5
7EAA
  8
DEFPOINTS
  6
CONTINUOUS
 10
1290.0364148221911
 20
32.128621701951943
 30
0.0
 11
1290.0364148221911
 21
31.718596701952269
 31
0.0
 12
1291.4039348221911
 22
31.718596701952269
 32
0.0
 13
1291.4039348221911
 23
31.718596701952269
 33
0.0
210
0.0
220
0.0
230
1.0
  0
SOLID
  5
7EAB
  8
DEFPOINTS
  6
CONTINUOUS
 10
-1290.0364148221911
 20
32.128621701951943
 30
0.0
 11
-1291.403934822192
 21
32.128621701951943
 31
0.0
 12
-1291.4039348221911
 22
31.718596701952269
 32
0.0
 13
-1291.4039348221911
 23
31.718596701952269
 33
0.0
210
0.0
220
0.0
230
-1.0
  0
SOLID
  5
7EAC
  8
DEFPOINTS
  6
CONTINUOUS
 10
1287.37067482219
 20
32.128621701951943
 30
0.0
 11
1287.37067482219
 21
31.718596701952269
 31
0.0
 12
1288.6527248221921
 22
31.718596701952269
 32
0.0
 13
1288.6527248221921
 23
31.718596701952269
 33
0.0
210
0.0
220
0.0
230
1.0
  0
SOLID
  5
7EAD
  8
DEFPOINTS
  6
CONTINUOUS
 10
-1287.37067482219
 20
32.128621701951943
 30
0.0
 11
-1288.6527248221901
 21
32.128621701951943
 31
0.0
 12
-1288.6527248221921
 22
31.718596701952269
 32
0.0
 13
-1288.6527248221921
 23
31.718596701952269
 33
0.0
210
0.0
220
0.0
230
-1.0
  0
SOLID
  5
7EAE
  8
DEFPOINTS
  6
CONTINUOUS
 10
1284.698004822191
 20
32.128621701951943
 30
0.0
 11
1284.698004822191
 21
31.718596701952269
 31
0.0
 12
1286.0562848221921
 22
31.718596701952269
 32
0.0
 13
1286.0562848221921
 23
31.718596701952269
 33
0.0
  0
SOLID
  5
7EAF
  8
DEFPOINTS
  6
CONTINUOUS
 10
-1284.698004822191
 20
32.128621701951943
 30
0.0
 11
-1286.0562848221921
 21
32.128621701951943
 31
0.0
 12
-1286.0562848221921
 22
31.718596701952269
 32
0.0
 13
-1286.0562848221921
 23
31.718596701952269
 33
0.0
210
0.0
220
0.0
230
-1.0
  0
SOLID
  5
7EB0
  8
DEFPOINTS
  6
CONTINUOUS
 10
1276.7735498221921
 20
32.128621701951943
 30
0.0
 11
1276.7735498221921
 21
31.46565170195208
 31
0.0
 12
1277.852319822191
 22
31.46565170195208
 32
0.0
 13
1277.852319822191
 23
31.46565170195208
 33
0.0
210
0.0
220
0.0
230
1.0
  0
SOLID
  5
7EB1
  8
DEFPOINTS
  6
CONTINUOUS
 10
-1276.7735498221921
 20
32.128621701951943
 30
0.0
 11
-1277.852319822191
 21
32.128621701951943
 31
0.0
 12
-1277.852319822191
 22
31.46565170195208
 32
0.0
 13
-1277.852319822191
 23
31.46565170195208
 33
0.0
210
0.0
220
0.0
230
-1.0
  0
SOLID
  5
7EB2
  8
DEFPOINTS
  6
CONTINUOUS
 10
1275.2373998221899
 20
32.128621701951943
 30
0.0
 11
1275.2373998221899
 21
31.46565170195208
 31
0.0
 12
1276.348509822192
 22
31.46565170195208
 32
0.0
 13
1276.348509822192
 23
31.46565170195208
 33
0.0
210
0.0
220
0.0
230
1.0
  0
SOLID
  5
7EB3
  8
DEFPOINTS
  6
CONTINUOUS
 10
-1275.2373998221899
 20
32.128621701951943
 30
0.0
 11
-1276.34850982219
 21
32.128621701951943
 31
0.0
 12
-1276.348509822192
 22
31.46565170195208
 32
0.0
 13
-1276.348509822192
 23
31.46565170195208
 33
0.0
210
0.0
220
0.0
230
-1.0
  0
SOLID
  5
7EB4
  8
DEFPOINTS
  6
CONTINUOUS
 10
1263.1087696601901
 20
32.128621701951943
 30
0.0
 11
1263.1087696601919
 21
31.46565170195208
 31
0.0
 12
1264.356169660191
 22
31.46565170195208
 32
0.0
 13
1264.356169660191
 23
31.46565170195208
 33
0.0
210
0.0
220
0.0
230
1.0
  0
SOLID
  5
7EB5
  8
DEFPOINTS
  6
CONTINUOUS
 10
-1263.1087696601901
 20
32.128621701951943
 30
0.0
 11
-1264.356169660191
 21
32.128621701951943
 31
0.0
 12
-1264.356169660191
 22
31.46565170195208
 32
0.0
 13
-1264.356169660191
 23
31.46565170195208
 33
0.0
210
0.0
220
0.0
230
-1.0
  0
SOLID
  5
7EB6
  8
DEFPOINTS
  6
CONTINUOUS
 10
1284.698004822191
 20
31.718596701952269
 30
0.0
 11
1284.698004822191
 21
31.26814670195245
 31
0.0
 12
1291.4039348221911
 22
31.26814670195245
 32
0.0
 13
1291.4039348221911
 23
31.26814670195245
 33
0.0
  0
SOLID
  5
7EB7
  8
DEFPOINTS
  6
CONTINUOUS
 10
-1284.698004822191
 20
31.718596701952269
 30
0.0
 11
-1291.4039348221911
 21
31.718596701952269
 31
0.0
 12
-1291.4039348221911
 22
31.26814670195245
 32
0.0
 13
-1291.4039348221911
 23
31.26814670195245
 33
0.0
210
0.0
220
0.0
230
-1.0
  0
SOLID
  5
7EB8
  8
DEFPOINTS
  6
CONTINUOUS
 10
1275.2373998221899
 20
31.46565170195208
 30
0.0
 11
1275.2373998221899
 21
31.01982170195242
 31
0.0
 12
1277.852319822191
 22
31.01982170195242
 32
0.0
 13
1277.852319822191
 23
31.01982170195242
 33
0.0
  0
SOLID
  5
7EB9
  8
DEFPOINTS
  6
CONTINUOUS
 10
-1275.2373998221899
 20
31.46565170195208
 30
0.0
 11
-1277.852319822191
 21
31.46565170195208
 31
0.0
 12
-1277.852319822191
 22
31.01982170195242
 32
0.0
 13
-1277.852319822191
 23
31.01982170195242
 33
0.0
210
0.0
220
0.0
230
-1.0
  0
SOLID
  5
7EBA
  8
DEFPOINTS
  6
CONTINUOUS
 10
1273.271589822192
 20
31.46565170195208
 30
0.0
 11
1273.271589822192
 21
31.01982170195242
 31
0.0
 12
1275.0156398221909
 22
31.01982170195242
 32
0.0
 13
1275.0156398221909
 23
31.01982170195242
 33
0.0
210
0.0
220
0.0
230
1.0
  0
SOLID
  5
7EBB
  8
DEFPOINTS
  6
CONTINUOUS
 10
-1273.271589822192
 20
31.46565170195208
 30
0.0
 11
-1275.0156398221909
 21
31.46565170195208
 31
0.0
 12
-1275.0156398221909
 22
31.01982170195242
 32
0.0
 13
-1275.0156398221909
 23
31.01982170195242
 33
0.0
210
0.0
220
0.0
230
-1.0
  0
SOLID
  5
7EBC
  8
DEFPOINTS
  6
CONTINUOUS
 10
1262.1685996601909
 20
31.46565170195208
 30
0.0
 11
1262.1685996601921
 21
31.01982170195242
 31
0.0
 12
1265.07457966019
 22
31.01982170195242
 32
0.0
 13
1265.07457966019
 23
31.01982170195242
 33
0.0
210
0.0
220
0.0
230
1.0
  0
SOLID
  5
7EBD
  8
DEFPOINTS
  6
CONTINUOUS
 10
-1262.1685996601909
 20
31.46565170195208
 30
0.0
 11
-1265.07457966019
 21
31.46565170195208
 31
0.0
 12
-1265.07457966019
 22
31.01982170195242
 32
0.0
 13
-1265.07457966019
 23
31.01982170195242
 33
0.0
210
0.0
220
0.0
230
-1.0
  0
SOLID
  5
7EBE
  8
DEFPOINTS
  6
CONTINUOUS
 10
1257.0242048221919
 20
32.128621701951943
 30
0.0
 11
1257.02466222219
 21
30.934351701952441
 31
0.0
 12
1258.3120298221911
 22
30.934351701952441
 32
0.0
 13
1258.3120298221911
 23
30.934351701952441
 33
0.0
210
0.0
220
0.0
230
1.0
  0
SOLID
  5
7EBF
  8
DEFPOINTS
  6
CONTINUOUS
 10
-1257.0242048221919
 20
32.128621701951943
 30
0.0
 11
-1258.3120298221911
 21
32.128621701951943
 31
0.0
 12
-1258.3120298221911
 22
30.934351701952441
 32
0.0
 13
-1258.3120298221911
 23
30.934351701952441
 33
0.0
210
0.0
220
0.0
230
-1.0
  0
SOLID
  5
7EC0
  8
DEFPOINTS
  6
CONTINUOUS
 10
1257.02466222219
 20
30.934351701952441
 30
0.0
 11
1256.576522222193
 21
30.918181701952111
 31
0.0
 12
1258.3120298221911
 22
30.918181701952111
 32
0.0
 13
1258.3120298221911
 23
30.918181701952111
 33
0.0
210
0.0
220
0.0
230
1.0
  0
SOLID
  5
7EC1
  8
DEFPOINTS
  6
CONTINUOUS
 10
-1257.02466222219
 20
30.934351701952441
 30
0.0
 11
-1258.3120298221911
 21
30.934351701952441
 31
0.0
 12
-1258.3120298221911
 22
30.918181701952111
 32
0.0
 13
-1258.3120298221911
 23
30.918181701952111
 33
0.0
210
0.0
220
0.0
230
-1.0
  0
SOLID
  5
7EC2
  8
DEFPOINTS
  6
CONTINUOUS
 10
1284.698004822191
 20
31.01982170195242
 30
0.0
 11
1284.698004822191
 21
30.594781701952339
 31
0.0
 12
1291.4039348221911
 22
30.594781701952339
 32
0.0
 13
1291.4039348221911
 23
30.594781701952339
 33
0.0
  0
SOLID
  5
7EC3
  8
DEFPOINTS
  6
CONTINUOUS
 10
-1284.698004822191
 20
31.01982170195242
 30
0.0
 11
-1291.4039348221911
 21
31.01982170195242
 31
0.0
 12
-1291.4039348221911
 22
30.594781701952339
 32
0.0
 13
-1291.4039348221911
 23
30.594781701952339
 33
0.0
210
0.0
220
0.0
230
-1.0
  0
SOLID
  5
7EC4
  8
DEFPOINTS
  6
CONTINUOUS
 10
1263.1087696601901
 20
31.01982170195242
 30
0.0
 11
1262.7502195296879
 21
30.55782170195198
 31
0.0
 12
1265.0837948221899
 22
30.55782170195198
 32
0.0
 13
1265.0837948221899
 23
30.55782170195198
 33
0.0
210
0.0
220
0.0
230
1.0
  0
SOLID
  5
7EC5
  8
DEFPOINTS
  6
CONTINUOUS
 10
-1263.1087696601901
 20
31.01982170195242
 30
0.0
 11
-1264.356169660191
 21
31.01982170195242
 31
0.0
 12
-1265.0837948221899
 22
30.55782170195198
 32
0.0
 13
-1265.0837948221899
 23
30.55782170195198
 33
0.0
210
0.0
220
0.0
230
-1.0
  0
SOLID
  5
7EC6
  8
DEFPOINTS
  6
CONTINUOUS
 10
1276.7735498221909
 20
31.01982170195242
 30
0.0
 11
1276.7735498221909
 21
30.53934170195225
 31
0.0
 12
1277.852319822191
 22
30.53934170195225
 32
0.0
 13
1277.852319822191
 23
30.53934170195225
 33
0.0
210
0.0
220
0.0
230
1.0
  0
SOLID
  5
7EC7
  8
DEFPOINTS
  6
CONTINUOUS
 10
-1276.7735498221909
 20
31.01982170195242
 30
0.0
 11
-1277.852319822191
 21
31.01982170195242
 31
0.0
 12
-1277.852319822191
 22
30.53934170195225
 32
0.0
 13
-1277.852319822191
 23
30.53934170195225
 33
0.0
210
0.0
220
0.0
230
-1.0
  0
SOLID
  5
7EC8
  8
DEFPOINTS
  6
CONTINUOUS
 10
1275.2373998221899
 20
31.01982170195242
 30
0.0
 11
1275.2373998221899
 21
30.53934170195225
 31
0.0
 12
1276.348509822192
 22
30.53934170195225
 32
0.0
 13
1276.348509822192
 23
30.53934170195225
 33
0.0
210
0.0
220
0.0
230
1.0
  0
SOLID
  5
7EC9
  8
DEFPOINTS
  6
CONTINUOUS
 10
-1275.2373998221899
 20
31.01982170195242
 30
0.0
 11
-1276.3485098221911
 21
31.01982170195242
 31
0.0
 12
-1276.348509822192
 22
30.53934170195225
 32
0.0
 13
-1276.348509822192
 23
30.53934170195225
 33
0.0
210
0.0
220
0.0
230
-1.0
  0
SOLID
  5
7ECA
  8
DEFPOINTS
  6
CONTINUOUS
 10
1252.854654822193
 20
32.128621701951943
 30
0.0
 11
1252.8546548221909
 21
30.53934170195225
 31
0.0
 12
1253.986554822191
 22
30.53934170195225
 32
0.0
 13
1253.986554822191
 23
30.53934170195225
 33
0.0
210
0.0
220
0.0
230
1.0
  0
SOLID
  5
7ECB
  8
DEFPOINTS
  6
CONTINUOUS
 10
-1252.854654822193
 20
32.128621701951943
 30
0.0
 11
-1253.986554822191
 21
32.128621701951943
 31
0.0
 12
-1253.986554822191
 22
30.53934170195225
 32
0.0
 13
-1253.986554822191
 23
30.53934170195225
 33
0.0
210
0.0
220
0.0
230
-1.0
  0
SOLID
  5
7ECC
  8
DEFPOINTS
  6
CONTINUOUS
 10
1251.191454822191
 20
32.128621701951943
 30
0.0
 11
1251.191454822191
 21
30.53934170195225
 31
0.0
 12
1252.3441448221899
 22
30.53934170195225
 32
0.0
 13
1252.3441448221899
 23
30.53934170195225
 33
0.0
210
0.0
220
0.0
230
1.0
  0
SOLID
  5
7ECD
  8
DEFPOINTS
  6
CONTINUOUS
 10
-1251.191454822191
 20
32.128621701951943
 30
0.0
 11
-1252.3441448221899
 21
32.128621701951943
 31
0.0
 12
-1252.3441448221899
 22
30.53934170195225
 32
0.0
 13
-1252.3441448221899
 23
30.53934170195225
 33
0.0
210
0.0
220
0.0
230
-1.0
  0
SOLID
  5
7ECE
  8
DEFPOINTS
  6
CONTINUOUS
 10
1256.576522222193
 20
30.918181701952111
 30
0.0
 11
1256.693874822193
 21
30.45387170195227
 31
0.0
 12
1258.3120298221911
 22
30.45387170195227
 32
0.0
 13
1258.3120298221911
 23
30.45387170195227
 33
0.0
  0
SOLID
  5
7ECF
  8
DEFPOINTS
  6
CONTINUOUS
 10
-1256.576522222193
 20
30.918181701952111
 30
0.0
 11
-1258.3120298221911
 21
30.918181701952111
 31
0.0
 12
-1258.3120298221911
 22
30.45387170195227
 32
0.0
 13
-1258.3120298221911
 23
30.45387170195227
 33
0.0
210
0.0
220
0.0
230
-1.0
  0
SOLID
  5
7ED0
  8
DEFPOINTS
  6
CONTINUOUS
 10
1255.05610966019
 20
32.128621701951943
 30
0.0
 11
1254.2637548221919
 21
30.45387170195227
 31
0.0
 12
1255.705194822189
 22
30.45387170195227
 32
0.0
 13
1255.705194822189
 23
30.45387170195227
 33
0.0
210
0.0
220
0.0
230
1.0
  0
SOLID
  5
7ED1
  8
DEFPOINTS
  6
CONTINUOUS
 10
-1255.05610966019
 20
32.128621701951943
 30
0.0
 11
-1256.4975496601901
 21
32.128621701951943
 31
0.0
 12
-1255.705194822189
 22
30.45387170195227
 32
0.0
 13
-1255.705194822189
 23
30.45387170195227
 33
0.0
210
0.0
220
0.0
230
-1.0
  0
SOLID
  5
7ED2
  8
DEFPOINTS
  6
CONTINUOUS
 10
1287.37067482219
 20
30.594781701952339
 30
0.0
 11
1287.37067482219
 21
30.18244670195191
 31
0.0
 12
1288.6527248221901
 22
30.18244670195191
 32
0.0
 13
1288.6527248221901
 23
30.18244670195191
 33
0.0
  0
SOLID
  5
7ED3
  8
DEFPOINTS
  6
CONTINUOUS
 10
-1287.37067482219
 20
30.594781701952339
 30
0.0
 11
-1288.6527248221901
 21
30.594781701952339
 31
0.0
 12
-1288.6527248221901
 22
30.18244670195191
 32
0.0
 13
-1288.6527248221901
 23
30.18244670195191
 33
0.0
210
0.0
220
0.0
230
-1.0
  0
SOLID
  5
7ED4
  8
DEFPOINTS
  6
CONTINUOUS
 10
1275.2373998221899
 20
30.53934170195225
 30
0.0
 11
1275.2373998221899
 21
30.061171701952389
 31
0.0
 12
1277.852319822191
 22
30.061171701952389
 32
0.0
 13
1277.852319822191
 23
30.061171701952389
 33
0.0
210
0.0
220
0.0
230
1.0
  0
SOLID
  5
7ED5
  8
DEFPOINTS
  6
CONTINUOUS
 10
-1275.2373998221899
 20
30.53934170195225
 30
0.0
 11
-1277.852319822191
 21
30.53934170195225
 31
0.0
 12
-1277.852319822191
 22
30.061171701952389
 32
0.0
 13
-1277.852319822191
 23
30.061171701952389
 33
0.0
210
0.0
220
0.0
230
-1.0
  0
SOLID
  5
7ED6
  8
DEFPOINTS
  6
CONTINUOUS
 10
1251.191454822191
 20
30.53934170195225
 30
0.0
 11
1251.191454822191
 21
30.061171701952389
 31
0.0
 12
1253.986554822191
 22
30.061171701952389
 32
0.0
 13
1253.986554822191
 23
30.061171701952389
 33
0.0
210
0.0
220
0.0
230
1.0
  0
SOLID
  5
7ED7
  8
DEFPOINTS
  6
CONTINUOUS
 10
-1251.191454822191
 20
30.53934170195225
 30
0.0
 11
-1253.986554822191
 21
30.53934170195225
 31
0.0
 12
-1253.986554822191
 22
30.061171701952389
 32
0.0
 13
-1253.986554822191
 23
30.061171701952389
 33
0.0
210
0.0
220
0.0
230
-1.0
  0
SOLID
  5
7ED8
  8
DEFPOINTS
  6
CONTINUOUS
 10
1262.7502195296879
 20
30.55782170195198
 30
0.0
 11
1262.18012482219
 21
29.823241701952611
 31
0.0
 12
1265.0843629333281
 22
29.823241701952611
 32
0.0
 13
1265.0843629333281
 23
29.823241701952611
 33
0.0
210
0.0
220
0.0
230
1.0
  0
SOLID
  5
7ED9
  8
DEFPOINTS
  6
CONTINUOUS
 10
-1262.7502195296879
 20
30.55782170195198
 30
0.0
 11
-1265.0837948221899
 21
30.55782170195198
 31
0.0
 12
-1265.0843629333281
 22
29.823241701952611
 32
0.0
 13
-1265.0843629333281
 23
29.823241701952611
 33
0.0
210
0.0
220
0.0
230
-1.0
  0
SOLID
  5
7EDA
  8
DEFPOINTS
  6
CONTINUOUS
 10
1284.425327412192
 20
30.18244670195191
 30
0.0
 11
1284.425327412192
 21
29.759716701951682
 31
0.0
 12
1291.60952482219
 22
29.759716701951682
 32
0.0
 13
1291.60952482219
 23
29.759716701951682
 33
0.0
210
0.0
220
0.0
230
1.0
  0
SOLID
  5
7EDB
  8
DEFPOINTS
  6
CONTINUOUS
 10
-1284.425327412192
 20
30.18244670195191
 30
0.0
 11
-1291.60952482219
 21
30.18244670195191
 31
0.0
 12
-1291.60952482219
 22
29.759716701951682
 32
0.0
 13
-1291.60952482219
 23
29.759716701951682
 33
0.0
210
0.0
220
0.0
230
-1.0
  0
SOLID
  5
7EDC
  8
DEFPOINTS
  6
CONTINUOUS
 10
1262.18012482219
 20
29.823241701952611
 30
0.0
 11
1262.1801985467091
 21
29.676684684825432
 31
0.0
 12
1265.0844762779241
 22
29.676684684825432
 32
0.0
 13
1265.0844762779241
 23
29.676684684825432
 33
0.0
210
0.0
220
0.0
230
1.0
  0
SOLID
  5
7EDD
  8
DEFPOINTS
  6
CONTINUOUS
 10
-1262.18012482219
 20
29.823241701952611
 30
0.0
 11
-1265.0843629333281
 21
29.823241701952611
 31
0.0
 12
-1265.0844762779241
 22
29.676684684825432
 32
0.0
 13
-1265.0844762779241
 23
29.676684684825432
 33
0.0
210
0.0
220
0.0
230
-1.0
  0
SOLID
  5
7EDE
  8
DEFPOINTS
  6
CONTINUOUS
 10
1276.7735498221909
 20
30.061171701952389
 30
0.0
 11
1276.7735498221909
 21
29.601481701952249
 31
0.0
 12
1277.852319822191
 22
29.601481701952249
 32
0.0
 13
1277.852319822191
 23
29.601481701952249
 33
0.0
  0
SOLID
  5
7EDF
  8
DEFPOINTS
  6
CONTINUOUS
 10
-1276.7735498221909
 20
30.061171701952389
 30
0.0
 11
-1277.852319822191
 21
30.061171701952389
 31
0.0
 12
-1277.852319822191
 22
29.601481701952249
 32
0.0
 13
-1277.852319822191
 23
29.601481701952249
 33
0.0
210
0.0
220
0.0
230
-1.0
  0
SOLID
  5
7EE0
  8
DEFPOINTS
  6
CONTINUOUS
 10
1275.2373998221899
 20
30.061171701952389
 30
0.0
 11
1275.2373998221899
 21
29.601481701952249
 31
0.0
 12
1276.3485098221911
 22
29.601481701952249
 32
0.0
 13
1276.3485098221911
 23
29.601481701952249
 33
0.0
210
0.0
220
0.0
230
1.0
  0
SOLID
  5
7EE1
  8
DEFPOINTS
  6
CONTINUOUS
 10
-1275.2373998221899
 20
30.061171701952389
 30
0.0
 11
-1276.348509822189
 21
30.061171701952389
 31
0.0
 12
-1276.3485098221911
 22
29.601481701952249
 32
0.0
 13
-1276.3485098221911
 23
29.601481701952249
 33
0.0
210
0.0
220
0.0
230
-1.0
  0
SOLID
  5
7EE2
  8
DEFPOINTS
  6
CONTINUOUS
 10
1254.2637548221901
 20
30.061171701952389
 30
0.0
 11
1254.2637548221901
 21
29.5991717019524
 31
0.0
 12
1258.3120298221911
 22
29.5991717019524
 32
0.0
 13
1258.3120298221911
 23
29.5991717019524
 33
0.0
  0
SOLID
  5
7EE3
  8
DEFPOINTS
  6
CONTINUOUS
 10
-1254.2637548221901
 20
30.061171701952389
 30
0.0
 11
-1258.3120298221911
 21
30.061171701952389
 31
0.0
 12
-1258.3120298221911
 22
29.5991717019524
 32
0.0
 13
-1258.3120298221911
 23
29.5991717019524
 33
0.0
210
0.0
220
0.0
230
-1.0
  0
SOLID
  5
7EE4
  8
DEFPOINTS
  6
CONTINUOUS
 10
-1265.062426821094
 20
29.228252132768372
 30
0.0
 11
-1265.0848230877029
 21
29.228252132768372
 31
0.0
 12
-1265.0848340908631
 22
29.214024809176859
 32
0.0
 13
-1265.0848340908631
 23
29.214024809176859
 33
0.0
210
0.0
220
0.0
230
-1.0
  0
SOLID
  5
7EE5
  8
DEFPOINTS
  6
CONTINUOUS
 10
1264.356169660191
 20
29.676684684825432
 30
0.0
 11
1265.062426821094
 21
29.228252132768372
 31
0.0
 12
1265.0848230877029
 22
29.228252132768372
 32
0.0
 13
1265.0848230877029
 23
29.228252132768372
 33
0.0
210
0.0
220
0.0
230
1.0
  0
SOLID
  5
7EE6
  8
DEFPOINTS
  6
CONTINUOUS
 10
-1264.356169660191
 20
29.676684684825432
 30
0.0
 11
-1265.0844762779241
 21
29.676684684825432
 31
0.0
 12
-1265.0848230877029
 22
29.228252132768372
 32
0.0
 13
-1265.0848230877029
 23
29.228252132768372
 33
0.0
210
0.0
220
0.0
230
-1.0
  0
SOLID
  5
7EE7
  8
DEFPOINTS
  6
CONTINUOUS
 10
1262.1801985467091
 20
29.676684684825432
 30
0.0
 11
1262.1804241276809
 21
29.228252132768372
 31
0.0
 12
1264.356169660191
 22
29.228252132768372
 32
0.0
 13
1264.356169660191
 23
29.228252132768372
 33
0.0
210
0.0
220
0.0
230
1.0
  0
SOLID
  5
7EE8
  8
DEFPOINTS
  6
CONTINUOUS
 10
-1262.1801985467091
 20
29.676684684825432
 30
0.0
 11
-1264.356169660191
 21
29.676684684825432
 31
0.0
 12
-1264.356169660191
 22
29.228252132768372
 32
0.0
 13
-1264.356169660191
 23
29.228252132768372
 33
0.0
210
0.0
220
0.0
230
-1.0
  0
SOLID
  5
7EE9
  8
DEFPOINTS
  6
CONTINUOUS
 10
1263.108769660189
 20
29.228252132768372
 30
0.0
 11
1263.108769660189
 21
29.214024809176859
 31
0.0
 12
1264.356169660191
 22
29.214024809176859
 32
0.0
 13
1264.356169660191
 23
29.214024809176859
 33
0.0
  0
SOLID
  5
7EEA
  8
DEFPOINTS
  6
CONTINUOUS
 10
-1263.108769660189
 20
29.228252132768372
 30
0.0
 11
-1264.356169660191
 21
29.228252132768372
 31
0.0
 12
-1264.356169660191
 22
29.214024809176859
 32
0.0
 13
-1264.356169660191
 23
29.214024809176859
 33
0.0
210
0.0
220
0.0
230
-1.0
  0
SOLID
  5
7EEB
  8
DEFPOINTS
  6
CONTINUOUS
 10
1262.1804241276809
 20
29.228252132768372
 30
0.0
 11
1262.18043128464
 21
29.214024809176859
 31
0.0
 12
1263.0977280828261
 22
29.214024809176859
 32
0.0
 13
1263.0977280828261
 23
29.214024809176859
 33
0.0
210
0.0
220
0.0
230
1.0
  0
SOLID
  5
7EEC
  8
DEFPOINTS
  6
CONTINUOUS
 10
-1262.1804241276809
 20
29.228252132768372
 30
0.0
 11
-1263.108769660189
 21
29.228252132768372
 31
0.0
 12
-1263.0977280828261
 22
29.214024809176859
 32
0.0
 13
-1263.0977280828261
 23
29.214024809176859
 33
0.0
210
0.0
220
0.0
230
-1.0
  0
SOLID
  5
7EED
  8
DEFPOINTS
  6
CONTINUOUS
 10
1278.023259822191
 20
32.567521701952053
 30
0.0
 11
1278.023259822191
 21
29.123311701951931
 31
0.0
 12
1279.0650698221909
 22
29.123311701951931
 32
0.0
 13
1279.0650698221909
 23
29.123311701951931
 33
0.0
210
0.0
220
0.0
230
1.0
  0
SOLID
  5
7EEE
  8
DEFPOINTS
  6
CONTINUOUS
 10
-1278.023259822191
 20
32.567521701952053
 30
0.0
 11
-1279.0650698221909
 21
32.567521701952053
 31
0.0
 12
-1279.0650698221909
 22
29.123311701951931
 32
0.0
 13
-1279.0650698221909
 23
29.123311701951931
 33
0.0
210
0.0
220
0.0
230
-1.0
  0
SOLID
  5
7EEF
  8
DEFPOINTS
  6
CONTINUOUS
 10
1275.2373998221899
 20
29.601481701952249
 30
0.0
 11
1275.2373998221899
 21
29.123311701951931
 31
0.0
 12
1277.852319822191
 22
29.123311701951931
 32
0.0
 13
1277.852319822191
 23
29.123311701951931
 33
0.0
210
0.0
220
0.0
230
1.0
  0
SOLID
  5
7EF0
  8
DEFPOINTS
  6
CONTINUOUS
 10
-1275.2373998221899
 20
29.601481701952249
 30
0.0
 11
-1277.852319822191
 21
29.601481701952249
 31
0.0
 12
-1277.852319822191
 22
29.123311701951931
 32
0.0
 13
-1277.852319822191
 23
29.123311701951931
 33
0.0
210
0.0
220
0.0
230
-1.0
  0
SOLID
  5
7EF1
  8
DEFPOINTS
  6
CONTINUOUS
 10
1275.4672699601911
 20
29.123311701951931
 30
0.0
 11
1275.4593963978921
 21
29.109021431951991
 31
0.0
 12
1277.708800622564
 22
29.109021431951991
 32
0.0
 13
1277.708800622564
 23
29.109021431951991
 33
0.0
210
0.0
220
0.0
230
1.0
  0
SOLID
  5
7EF2
  8
DEFPOINTS
  6
CONTINUOUS
 10
-1275.4672699601911
 20
29.123311701951931
 30
0.0
 11
-1277.699386854192
 21
29.123311701951931
 31
0.0
 12
-1277.708800622564
 22
29.109021431951991
 32
0.0
 13
-1277.708800622564
 23
29.109021431951991
 33
0.0
210
0.0
220
0.0
230
-1.0
  0
SOLID
  5
7EF3
  8
DEFPOINTS
  6
CONTINUOUS
 10
1284.4253274121911
 20
29.42592170195212
 30
0.0
 11
1284.4253274121911
 21
29.021671701952531
 31
0.0
 12
1291.60952482219
 22
29.021671701952531
 32
0.0
 13
1291.60952482219
 23
29.021671701952531
 33
0.0
  0
SOLID
  5
7EF4
  8
DEFPOINTS
  6
CONTINUOUS
 10
-1284.4253274121911
 20
29.42592170195212
 30
0.0
 11
-1291.60952482219
 21
29.42592170195212
 31
0.0
 12
-1291.60952482219
 22
29.021671701952531
 32
0.0
 13
-1291.60952482219
 23
29.021671701952531
 33
0.0
210
0.0
220
0.0
230
-1.0
  0
SOLID
  5
7EF5
  8
DEFPOINTS
  6
CONTINUOUS
 10
1279.3499973601899
 20
32.567521701952053
 30
0.0
 11
1279.3499973601899
 21
28.501921701951691
 31
0.0
 12
1280.4611073601909
 22
28.501921701951691
 32
0.0
 13
1280.4611073601909
 23
28.501921701951691
 33
0.0
210
0.0
220
0.0
230
1.0
  0
SOLID
  5
7EF6
  8
DEFPOINTS
  6
CONTINUOUS
 10
-1279.3499973601899
 20
32.567521701952053
 30
0.0
 11
-1280.461107360192
 21
32.567521701952053
 31
0.0
 12
-1280.4611073601909
 22
28.501921701951691
 32
0.0
 13
-1280.4611073601909
 23
28.501921701951691
 33
0.0
210
0.0
220
0.0
230
-1.0
  0
SOLID
  5
7EF7
  8
DEFPOINTS
  6
CONTINUOUS
 10
1268.012899660192
 20
32.128621701951943
 30
0.0
 11
1268.01289966019
 21
28.501921701951691
 31
0.0
 12
1269.3457696601911
 22
28.501921701951691
 32
0.0
 13
1269.3457696601911
 23
28.501921701951691
 33
0.0
210
0.0
220
0.0
230
1.0
  0
SOLID
  5
7EF8
  8
DEFPOINTS
  6
CONTINUOUS
 10
-1268.012899660192
 20
32.128621701951943
 30
0.0
 11
-1269.3457696601911
 21
32.128621701951943
 31
0.0
 12
-1269.3457696601911
 22
28.501921701951691
 32
0.0
 13
-1269.3457696601911
 23
28.501921701951691
 33
0.0
210
0.0
220
0.0
230
-1.0
  0
SOLID
  5
7EF9
  8
DEFPOINTS
  6
CONTINUOUS
 10
1265.3309896601911
 20
32.128621701951943
 30
0.0
 11
1265.3309896601911
 21
28.501921701951691
 31
0.0
 12
1266.6292096601919
 22
28.501921701951691
 32
0.0
 13
1266.6292096601919
 23
28.501921701951691
 33
0.0
210
0.0
220
0.0
230
1.0
  0
SOLID
  5
7EFA
  8
DEFPOINTS
  6
CONTINUOUS
 10
-1265.3309896601911
 20
32.128621701951943
 30
0.0
 11
-1266.629209660191
 21
32.128621701951943
 31
0.0
 12
-1266.6292096601919
 22
28.501921701951691
 32
0.0
 13
-1266.6292096601919
 23
28.501921701951691
 33
0.0
210
0.0
220
0.0
230
-1.0
  0
SOLID
  5
7EFB
  8
DEFPOINTS
  6
CONTINUOUS
 10
1257.0242048221919
 20
29.5991717019524
 30
0.0
 11
1257.0242048221919
 21
28.501921701951691
 31
0.0
 12
1258.3120298221911
 22
28.501921701951691
 32
0.0
 13
1258.3120298221911
 23
28.501921701951691
 33
0.0
210
0.0
220
0.0
230
1.0
  0
SOLID
  5
7EFC
  8
DEFPOINTS
  6
CONTINUOUS
 10
-1257.0242048221919
 20
29.5991717019524
 30
0.0
 11
-1258.3120298221911
 21
29.5991717019524
 31
0.0
 12
-1258.3120298221911
 22
28.501921701951691
 32
0.0
 13
-1258.3120298221911
 23
28.501921701951691
 33
0.0
210
0.0
220
0.0
230
-1.0
  0
SOLID
  5
7EFD
  8
DEFPOINTS
  6
CONTINUOUS
 10
1254.2637548221901
 20
29.5991717019524
 30
0.0
 11
1254.2637548221901
 21
28.501921701951691
 31
0.0
 12
1255.5862298221921
 22
28.501921701951691
 32
0.0
 13
1255.5862298221921
 23
28.501921701951691
 33
0.0
210
0.0
220
0.0
230
1.0
  0
SOLID
  5
7EFE
  8
DEFPOINTS
  6
CONTINUOUS
 10
-1254.2637548221901
 20
29.5991717019524
 30
0.0
 11
-1255.5862298221909
 21
29.5991717019524
 31
0.0
 12
-1255.5862298221921
 22
28.501921701951691
 32
0.0
 13
-1255.5862298221921
 23
28.501921701951691
 33
0.0
210
0.0
220
0.0
230
-1.0
  0
SOLID
  5
7EFF
  8
DEFPOINTS
  6
CONTINUOUS
 10
1252.8546548221909
 20
30.061171701952389
 30
0.0
 11
1252.8546548221909
 21
28.501921701951691
 31
0.0
 12
1253.986554822191
 22
28.501921701951691
 32
0.0
 13
1253.986554822191
 23
28.501921701951691
 33
0.0
210
0.0
220
0.0
230
1.0
  0
SOLID
  5
7F00
  8
DEFPOINTS
  6
CONTINUOUS
 10
-1252.8546548221909
 20
30.061171701952389
 30
0.0
 11
-1253.986554822191
 21
30.061171701952389
 31
0.0
 12
-1253.986554822191
 22
28.501921701951691
 32
0.0
 13
-1253.986554822191
 23
28.501921701951691
 33
0.0
210
0.0
220
0.0
230
-1.0
  0
SOLID
  5
7F01
  8
DEFPOINTS
  6
CONTINUOUS
 10
1251.191454822191
 20
30.061171701952389
 30
0.0
 11
1251.191454822191
 21
28.501921701951691
 31
0.0
 12
1252.3441448221911
 22
28.501921701951691
 32
0.0
 13
1252.3441448221911
 23
28.501921701951691
 33
0.0
210
0.0
220
0.0
230
1.0
  0
SOLID
  5
7F02
  8
DEFPOINTS
  6
CONTINUOUS
 10
-1251.191454822191
 20
30.061171701952389
 30
0.0
 11
-1252.3441448221911
 21
30.061171701952389
 31
0.0
 12
-1252.3441448221911
 22
28.501921701951691
 32
0.0
 13
-1252.3441448221911
 23
28.501921701951691
 33
0.0
210
0.0
220
0.0
230
-1.0
  0
SOLID
  5
7F03
  8
DEFPOINTS
  6
CONTINUOUS
 10
-1262.180833079429
 20
28.415296701952229
 30
0.0
 11
-1262.477849148416
 21
28.415296701952229
 31
0.0
 12
-1262.181025475393
 22
28.032832647484149
 32
0.0
 13
-1262.181025475393
 23
28.032832647484149
 33
0.0
210
0.0
220
0.0
230
-1.0
  0
SOLID
  5
7F04
  8
DEFPOINTS
  6
CONTINUOUS
 10
1290.327474822192
 20
29.021671701952531
 30
0.0
 11
1290.32747482219
 21
28.415296701952229
 31
0.0
 12
1291.6095248221909
 22
28.415296701952229
 32
0.0
 13
1291.6095248221909
 23
28.415296701952229
 33
0.0
210
0.0
220
0.0
230
1.0
  0
SOLID
  5
7F05
  8
DEFPOINTS
  6
CONTINUOUS
 10
-1290.327474822192
 20
29.021671701952531
 30
0.0
 11
-1291.60952482219
 21
29.021671701952531
 31
0.0
 12
-1291.6095248221909
 22
28.415296701952229
 32
0.0
 13
-1291.6095248221909
 23
28.415296701952229
 33
0.0
210
0.0
220
0.0
230
-1.0
  0
SOLID
  5
7F06
  8
DEFPOINTS
  6
CONTINUOUS
 10
1287.37067482219
 20
29.021671701952531
 30
0.0
 11
1287.3706748221921
 21
28.415296701952229
 31
0.0
 12
1288.6527248221901
 22
28.415296701952229
 32
0.0
 13
1288.6527248221901
 23
28.415296701952229
 33
0.0
210
0.0
220
0.0
230
1.0
  0
SOLID
  5
7F07
  8
DEFPOINTS
  6
CONTINUOUS
 10
-1287.37067482219
 20
29.021671701952531
 30
0.0
 11
-1288.6527248221901
 21
29.021671701952531
 31
0.0
 12
-1288.6527248221901
 22
28.415296701952229
 32
0.0
 13
-1288.6527248221901
 23
28.415296701952229
 33
0.0
210
0.0
220
0.0
230
-1.0
  0
SOLID
  5
7F08
  8
DEFPOINTS
  6
CONTINUOUS
 10
1284.4253274121911
 20
29.021671701952531
 30
0.0
 11
1284.4253274121911
 21
28.415296701952229
 31
0.0
 12
1285.714404822191
 22
28.415296701952229
 32
0.0
 13
1285.714404822191
 23
28.415296701952229
 33
0.0
210
0.0
220
0.0
230
1.0
  0
SOLID
  5
7F09
  8
DEFPOINTS
  6
CONTINUOUS
 10
-1284.4253274121911
 20
29.021671701952531
 30
0.0
 11
-1285.7144048221919
 21
29.021671701952531
 31
0.0
 12
-1285.714404822191
 22
28.415296701952229
 32
0.0
 13
-1285.714404822191
 23
28.415296701952229
 33
0.0
210
0.0
220
0.0
230
-1.0
  0
SOLID
  5
7F0A
  8
DEFPOINTS
  6
CONTINUOUS
 10
1262.18043128464
 20
29.214024809176859
 30
0.0
 11
1262.180833079429
 21
28.415296701952229
 31
0.0
 12
1262.477849148416
 22
28.415296701952229
 32
0.0
 13
1262.477849148416
 23
28.415296701952229
 33
0.0
210
0.0
220
0.0
230
1.0
  0
SOLID
  5
7F0B
  8
DEFPOINTS
  6
CONTINUOUS
 10
-1262.18043128464
 20
29.214024809176859
 30
0.0
 11
-1263.0977280828261
 21
29.214024809176859
 31
0.0
 12
-1262.477849148416
 22
28.415296701952229
 32
0.0
 13
-1262.477849148416
 23
28.415296701952229
 33
0.0
210
0.0
220
0.0
230
-1.0
  0
SOLID
  5
7F0C
  8
DEFPOINTS
  6
CONTINUOUS
 10
1284.4253274121911
 20
28.415296701952229
 30
0.0
 11
1284.4253274121911
 21
28.016821701952271
 31
0.0
 12
1291.609524822192
 22
28.016821701952271
 32
0.0
 13
1291.609524822192
 23
28.016821701952271
 33
0.0
210
0.0
220
0.0
230
1.0
  0
SOLID
  5
7F0D
  8
DEFPOINTS
  6
CONTINUOUS
 10
-1284.4253274121911
 20
28.415296701952229
 30
0.0
 11
-1291.6095248221909
 21
28.415296701952229
 31
0.0
 12
-1291.609524822192
 22
28.016821701952271
 32
0.0
 13
-1291.609524822192
 23
28.016821701952271
 33
0.0
210
0.0
220
0.0
230
-1.0
  0
SOLID
  5
7F0E
  8
DEFPOINTS
  6
CONTINUOUS
 10
1278.8265263461919
 20
28.501921701951691
 30
0.0
 11
1278.999889954192
 21
28.016821701952271
 31
0.0
 12
1280.4611073601909
 22
28.016821701952271
 32
0.0
 13
1280.4611073601909
 23
28.016821701952271
 33
0.0
  0
SOLID
  5
7F0F
  8
DEFPOINTS
  6
CONTINUOUS
 10
-1278.8265263461919
 20
28.501921701951691
 30
0.0
 11
-1280.4611073601909
 21
28.501921701951691
 31
0.0
 12
-1280.4611073601909
 22
28.016821701952271
 32
0.0
 13
-1280.4611073601909
 23
28.016821701952271
 33
0.0
210
0.0
220
0.0
230
-1.0
  0
SOLID
  5
7F10
  8
DEFPOINTS
  6
CONTINUOUS
 10
1276.557207360192
 20
29.109021431951991
 30
0.0
 11
1277.2766979821911
 21
28.016821701952271
 31
0.0
 12
1278.4282912461911
 22
28.016821701952271
 32
0.0
 13
1278.4282912461911
 23
28.016821701952271
 33
0.0
  0
SOLID
  5
7F11
  8
DEFPOINTS
  6
CONTINUOUS
 10
-1276.557207360192
 20
29.109021431951991
 30
0.0
 11
-1277.708800622564
 21
29.109021431951991
 31
0.0
 12
-1278.4282912461911
 22
28.016821701952271
 32
0.0
 13
-1278.4282912461911
 23
28.016821701952271
 33
0.0
210
0.0
220
0.0
230
-1.0
  0
SOLID
  5
7F12
  8
DEFPOINTS
  6
CONTINUOUS
 10
1275.4593963978921
 20
29.109021431951991
 30
0.0
 11
1274.8576231201901
 21
28.016821701952271
 31
0.0
 12
1275.955434083342
 22
28.016821701952271
 32
0.0
 13
1275.955434083342
 23
28.016821701952271
 33
0.0
210
0.0
220
0.0
230
1.0
  0
SOLID
  5
7F13
  8
DEFPOINTS
  6
CONTINUOUS
 10
-1275.4593963978921
 20
29.109021431951991
 30
0.0
 11
-1276.557207360192
 21
29.109021431951991
 31
0.0
 12
-1275.955434083342
 22
28.016821701952271
 32
0.0
 13
-1275.955434083342
 23
28.016821701952271
 33
0.0
210
0.0
220
0.0
230
-1.0
  0
SOLID
  5
7F14
  8
DEFPOINTS
  6
CONTINUOUS
 10
1273.870018346191
 20
30.23442170195267
 30
0.0
 11
1273.271589822192
 21
28.016821701952271
 31
0.0
 12
1274.417211296191
 22
28.016821701952271
 32
0.0
 13
1274.417211296191
 23
28.016821701952271
 33
0.0
210
0.0
220
0.0
230
1.0
  0
SOLID
  5
7F15
  8
DEFPOINTS
  6
CONTINUOUS
 10
-1273.870018346191
 20
30.23442170195267
 30
0.0
 11
-1275.01563982219
 21
30.23442170195267
 31
0.0
 12
-1274.417211296191
 22
28.016821701952271
 32
0.0
 13
-1274.417211296191
 23
28.016821701952271
 33
0.0
210
0.0
220
0.0
230
-1.0
  0
SOLID
  5
7F16
  8
DEFPOINTS
  6
CONTINUOUS
 10
1265.3309896601911
 20
28.501921701951691
 30
0.0
 11
1265.3309896601911
 21
28.016821701952271
 31
0.0
 12
1269.3457696601911
 22
28.016821701952271
 32
0.0
 13
1269.3457696601911
 23
28.016821701952271
 33
0.0
210
0.0
220
0.0
230
1.0
  0
SOLID
  5
7F17
  8
DEFPOINTS
  6
CONTINUOUS
 10
-1265.3309896601911
 20
28.501921701951691
 30
0.0
 11
-1269.3457696601911
 21
28.501921701951691
 31
0.0
 12
-1269.3457696601911
 22
28.016821701952271
 32
0.0
 13
-1269.3457696601911
 23
28.016821701952271
 33
0.0
210
0.0
220
0.0
230
-1.0
  0
SOLID
  5
7F18
  8
DEFPOINTS
  6
CONTINUOUS
 10
1263.108769660189
 20
29.214024809176859
 30
0.0
 11
1263.1087696601919
 21
28.016821701952271
 31
0.0
 12
1264.3561696601901
 22
28.016821701952271
 32
0.0
 13
1264.3561696601901
 23
28.016821701952271
 33
0.0
210
0.0
220
0.0
230
1.0
  0
SOLID
  5
7F19
  8
DEFPOINTS
  6
CONTINUOUS
 10
-1263.108769660189
 20
29.214024809176859
 30
0.0
 11
-1264.356169660191
 21
29.214024809176859
 31
0.0
 12
-1264.3561696601901
 22
28.016821701952271
 32
0.0
 13
-1264.3561696601901
 23
28.016821701952271
 33
0.0
210
0.0
220
0.0
230
-1.0
  0
SOLID
  5
7F1A
  8
DEFPOINTS
  6
CONTINUOUS
 10
1254.2637548221901
 20
28.501921701951691
 30
0.0
 11
1254.2637548221901
 21
28.016821701952271
 31
0.0
 12
1258.3120298221911
 22
28.016821701952271
 32
0.0
 13
1258.3120298221911
 23
28.016821701952271
 33
0.0
210
0.0
220
0.0
230
1.0
  0
SOLID
  5
7F1B
  8
DEFPOINTS
  6
CONTINUOUS
 10
-1254.2637548221901
 20
28.501921701951691
 30
0.0
 11
-1258.3120298221911
 21
28.501921701951691
 31
0.0
 12
-1258.3120298221911
 22
28.016821701952271
 32
0.0
 13
-1258.3120298221911
 23
28.016821701952271
 33
0.0
210
0.0
220
0.0
230
-1.0
  0
SOLID
  5
7F1C
  8
DEFPOINTS
  6
CONTINUOUS
 10
1251.191454822191
 20
28.501921701951691
 30
0.0
 11
1251.191454822191
 21
28.016821701952271
 31
0.0
 12
1253.986554822191
 22
28.016821701952271
 32
0.0
 13
1253.986554822191
 23
28.016821701952271
 33
0.0
210
0.0
220
0.0
230
1.0
  0
SOLID
  5
7F1D
  8
DEFPOINTS
  6
CONTINUOUS
 10
-1251.191454822191
 20
28.501921701951691
 30
0.0
 11
-1253.986554822191
 21
28.501921701951691
 31
0.0
 12
-1253.986554822191
 22
28.016821701952271
 32
0.0
 13
-1253.986554822191
 23
28.016821701952271
 33
0.0
210
0.0
220
0.0
230
-1.0
  0
LINE
  5
7F1E
  8
DEFPOINTS
  6
CONTINUOUS
 10
1284.698004822191
 20
32.567521701952053
 30
0.0
 11
1284.698004822191
 21
32.128621701951943
 31
0.0
  0
LINE
  5
7F1F
  8
DEFPOINTS
  6
CONTINUOUS
 10
1291.403934822192
 20
32.567521701952053
 30
0.0
 11
1291.403934822192
 21
32.128621701951943
 31
0.0
  0
LINE
  5
7F20
  8
DEFPOINTS
  6
CONTINUOUS
 10
1275.2373998221899
 20
32.567521701952053
 30
0.0
 11
1275.2373998221899
 21
32.128621701951943
 31
0.0
  0
LINE
  5
7F21
  8
DEFPOINTS
  6
CONTINUOUS
 10
1277.852319822191
 20
32.567521701952053
 30
0.0
 11
1277.852319822191
 21
32.128621701951943
 31
0.0
  0
LINE
  5
7F22
  8
DEFPOINTS
  6
CONTINUOUS
 10
1273.27158982219
 20
32.567521701952053
 30
0.0
 11
1273.271589822192
 21
32.128621701951943
 31
0.0
  0
LINE
  5
7F23
  8
DEFPOINTS
  6
CONTINUOUS
 10
1275.0156398221909
 20
32.567521701952053
 30
0.0
 11
1275.0156398221909
 21
32.128621701951943
 31
0.0
  0
LINE
  5
7F24
  8
DEFPOINTS
  6
CONTINUOUS
 10
1265.3309896601911
 20
32.567521701952053
 30
0.0
 11
1265.3309896601911
 21
32.128621701951943
 31
0.0
  0
LINE
  5
7F25
  8
DEFPOINTS
  6
CONTINUOUS
 10
1269.3457696601911
 20
32.567521701952053
 30
0.0
 11
1269.3457696601911
 21
32.128621701951943
 31
0.0
  0
LINE
  5
7F26
  8
DEFPOINTS
  6
CONTINUOUS
 10
1262.1685996601909
 20
32.567521701952053
 30
0.0
 11
1262.1685996601909
 21
32.128621701951943
 31
0.0
  0
LINE
  5
7F27
  8
DEFPOINTS
  6
CONTINUOUS
 10
1265.07457966019
 20
32.567521701952053
 30
0.0
 11
1265.0745796601909
 21
32.128621701951943
 31
0.0
  0
LINE
  5
7F28
  8
DEFPOINTS
  6
CONTINUOUS
 10
1254.2637548221901
 20
32.567521701952053
 30
0.0
 11
1254.2637548221901
 21
32.128621701951943
 31
0.0
  0
LINE
  5
7F29
  8
DEFPOINTS
  6
CONTINUOUS
 10
1258.3120298221911
 20
32.567521701952053
 30
0.0
 11
1258.3120298221911
 21
32.128621701951943
 31
0.0
  0
LINE
  5
7F2A
  8
DEFPOINTS
  6
CONTINUOUS
 10
1251.191454822191
 20
32.567521701952053
 30
0.0
 11
1251.191454822191
 21
32.128621701951943
 31
0.0
  0
LINE
  5
7F2B
  8
DEFPOINTS
  6
CONTINUOUS
 10
1253.986554822191
 20
32.567521701952053
 30
0.0
 11
1253.986554822191
 21
32.128621701951943
 31
0.0
  0
LINE
  5
7F2C
  8
DEFPOINTS
  6
CONTINUOUS
 10
1290.0364148221911
 20
32.128621701951943
 30
0.0
 11
1290.0364148221911
 21
31.718596701952269
 31
0.0
  0
LINE
  5
7F2D
  8
DEFPOINTS
  6
CONTINUOUS
 10
1291.403934822192
 20
32.128621701951943
 30
0.0
 11
1291.4039348221911
 21
31.718596701952269
 31
0.0
  0
LINE
  5
7F2E
  8
DEFPOINTS
  6
CONTINUOUS
 10
1287.37067482219
 20
32.128621701951943
 30
0.0
 11
1287.37067482219
 21
31.718596701952269
 31
0.0
  0
LINE
  5
7F2F
  8
DEFPOINTS
  6
CONTINUOUS
 10
1288.6527248221901
 20
32.128621701951943
 30
0.0
 11
1288.6527248221921
 21
31.718596701952269
 31
0.0
  0
LINE
  5
7F30
  8
DEFPOINTS
  6
CONTINUOUS
 10
1284.698004822191
 20
32.128621701951943
 30
0.0
 11
1284.698004822191
 21
31.718596701952269
 31
0.0
  0
LINE
  5
7F31
  8
DEFPOINTS
  6
CONTINUOUS
 10
1286.0562848221921
 20
32.128621701951943
 30
0.0
 11
1286.0562848221921
 21
31.718596701952269
 31
0.0
  0
LINE
  5
7F32
  8
DEFPOINTS
  6
CONTINUOUS
 10
1276.7735498221921
 20
32.128621701951943
 30
0.0
 11
1276.7735498221921
 21
31.46565170195208
 31
0.0
  0
LINE
  5
7F33
  8
DEFPOINTS
  6
CONTINUOUS
 10
1277.852319822191
 20
32.128621701951943
 30
0.0
 11
1277.852319822191
 21
31.46565170195208
 31
0.0
  0
LINE
  5
7F34
  8
DEFPOINTS
  6
CONTINUOUS
 10
1275.2373998221899
 20
32.128621701951943
 30
0.0
 11
1275.2373998221899
 21
31.46565170195208
 31
0.0
  0
LINE
  5
7F35
  8
DEFPOINTS
  6
CONTINUOUS
 10
1276.34850982219
 20
32.128621701951943
 30
0.0
 11
1276.348509822192
 21
31.46565170195208
 31
0.0
  0
LINE
  5
7F36
  8
DEFPOINTS
  6
CONTINUOUS
 10
1263.1087696601901
 20
32.128621701951943
 30
0.0
 11
1263.1087696601919
 21
31.46565170195208
 31
0.0
  0
LINE
  5
7F37
  8
DEFPOINTS
  6
CONTINUOUS
 10
1264.356169660191
 20
32.128621701951943
 30
0.0
 11
1264.356169660191
 21
31.46565170195208
 31
0.0
  0
LINE
  5
7F38
  8
DEFPOINTS
  6
CONTINUOUS
 10
1284.698004822191
 20
31.718596701952269
 30
0.0
 11
1284.698004822191
 21
31.26814670195245
 31
0.0
  0
LINE
  5
7F39
  8
DEFPOINTS
  6
CONTINUOUS
 10
1291.4039348221911
 20
31.718596701952269
 30
0.0
 11
1291.4039348221911
 21
31.26814670195245
 31
0.0
  0
LINE
  5
7F3A
  8
DEFPOINTS
  6
CONTINUOUS
 10
1275.2373998221899
 20
31.46565170195208
 30
0.0
 11
1275.2373998221899
 21
31.01982170195242
 31
0.0
  0
LINE
  5
7F3B
  8
DEFPOINTS
  6
CONTINUOUS
 10
1277.852319822191
 20
31.46565170195208
 30
0.0
 11
1277.852319822191
 21
31.01982170195242
 31
0.0
  0
LINE
  5
7F3C
  8
DEFPOINTS
  6
CONTINUOUS
 10
1273.271589822192
 20
31.46565170195208
 30
0.0
 11
1273.271589822192
 21
31.01982170195242
 31
0.0
  0
LINE
  5
7F3D
  8
DEFPOINTS
  6
CONTINUOUS
 10
1275.0156398221909
 20
31.46565170195208
 30
0.0
 11
1275.0156398221909
 21
31.01982170195242
 31
0.0
  0
LINE
  5
7F3E
  8
DEFPOINTS
  6
CONTINUOUS
 10
1262.1685996601909
 20
31.46565170195208
 30
0.0
 11
1262.1685996601921
 21
31.01982170195242
 31
0.0
  0
LINE
  5
7F3F
  8
DEFPOINTS
  6
CONTINUOUS
 10
1265.07457966019
 20
31.46565170195208
 30
0.0
 11
1265.07457966019
 21
31.01982170195242
 31
0.0
  0
LINE
  5
7F40
  8
DEFPOINTS
  6
CONTINUOUS
 10
1257.0242048221919
 20
32.128621701951943
 30
0.0
 11
1257.02466222219
 21
30.934351701952441
 31
0.0
  0
LINE
  5
7F41
  8
DEFPOINTS
  6
CONTINUOUS
 10
1258.3120298221911
 20
32.128621701951943
 30
0.0
 11
1258.3120298221911
 21
30.934351701952441
 31
0.0
  0
LINE
  5
7F42
  8
DEFPOINTS
  6
CONTINUOUS
 10
1257.02466222219
 20
30.934351701952441
 30
0.0
 11
1256.576522222193
 21
30.918181701952111
 31
0.0
  0
LINE
  5
7F43
  8
DEFPOINTS
  6
CONTINUOUS
 10
1258.3120298221911
 20
30.934351701952441
 30
0.0
 11
1258.3120298221911
 21
30.918181701952111
 31
0.0
  0
LINE
  5
7F44
  8
DEFPOINTS
  6
CONTINUOUS
 10
1284.698004822191
 20
31.01982170195242
 30
0.0
 11
1284.698004822191
 21
30.594781701952339
 31
0.0
  0
LINE
  5
7F45
  8
DEFPOINTS
  6
CONTINUOUS
 10
1291.4039348221911
 20
31.01982170195242
 30
0.0
 11
1291.4039348221911
 21
30.594781701952339
 31
0.0
  0
LINE
  5
7F46
  8
DEFPOINTS
  6
CONTINUOUS
 10
1263.1087696601901
 20
31.01982170195242
 30
0.0
 11
1262.7502195296879
 21
30.55782170195198
 31
0.0
  0
LINE
  5
7F47
  8
DEFPOINTS
  6
CONTINUOUS
 10
1264.356169660191
 20
31.01982170195242
 30
0.0
 11
1265.0837948221899
 21
30.55782170195198
 31
0.0
  0
LINE
  5
7F48
  8
DEFPOINTS
  6
CONTINUOUS
 10
1276.7735498221909
 20
31.01982170195242
 30
0.0
 11
1276.7735498221909
 21
30.53934170195225
 31
0.0
  0
LINE
  5
7F49
  8
DEFPOINTS
  6
CONTINUOUS
 10
1277.852319822191
 20
31.01982170195242
 30
0.0
 11
1277.852319822191
 21
30.53934170195225
 31
0.0
  0
LINE
  5
7F4A
  8
DEFPOINTS
  6
CONTINUOUS
 10
1275.2373998221899
 20
31.01982170195242
 30
0.0
 11
1275.2373998221899
 21
30.53934170195225
 31
0.0
  0
LINE
  5
7F4B
  8
DEFPOINTS
  6
CONTINUOUS
 10
1276.3485098221911
 20
31.01982170195242
 30
0.0
 11
1276.348509822192
 21
30.53934170195225
 31
0.0
  0
LINE
  5
7F4C
  8
DEFPOINTS
  6
CONTINUOUS
 10
1252.854654822193
 20
32.128621701951943
 30
0.0
 11
1252.8546548221909
 21
30.53934170195225
 31
0.0
  0
LINE
  5
7F4D
  8
DEFPOINTS
  6
CONTINUOUS
 10
1253.986554822191
 20
32.128621701951943
 30
0.0
 11
1253.986554822191
 21
30.53934170195225
 31
0.0
  0
LINE
  5
7F4E
  8
DEFPOINTS
  6
CONTINUOUS
 10
1251.191454822191
 20
32.128621701951943
 30
0.0
 11
1251.191454822191
 21
30.53934170195225
 31
0.0
  0
LINE
  5
7F4F
  8
DEFPOINTS
  6
CONTINUOUS
 10
1252.3441448221899
 20
32.128621701951943
 30
0.0
 11
1252.3441448221899
 21
30.53934170195225
 31
0.0
  0
LINE
  5
7F50
  8
DEFPOINTS
  6
CONTINUOUS
 10
1256.576522222193
 20
30.918181701952111
 30
0.0
 11
1256.693874822193
 21
30.45387170195227
 31
0.0
  0
LINE
  5
7F51
  8
DEFPOINTS
  6
CONTINUOUS
 10
1258.3120298221911
 20
30.918181701952111
 30
0.0
 11
1258.3120298221911
 21
30.45387170195227
 31
0.0
  0
LINE
  5
7F52
  8
DEFPOINTS
  6
CONTINUOUS
 10
1255.05610966019
 20
32.128621701951943
 30
0.0
 11
1254.2637548221919
 21
30.45387170195227
 31
0.0
  0
LINE
  5
7F53
  8
DEFPOINTS
  6
CONTINUOUS
 10
1256.4975496601901
 20
32.128621701951943
 30
0.0
 11
1255.705194822189
 21
30.45387170195227
 31
0.0
  0
LINE
  5
7F54
  8
DEFPOINTS
  6
CONTINUOUS
 10
1287.37067482219
 20
30.594781701952339
 30
0.0
 11
1287.37067482219
 21
30.18244670195191
 31
0.0
  0
LINE
  5
7F55
  8
DEFPOINTS
  6
CONTINUOUS
 10
1288.6527248221901
 20
30.594781701952339
 30
0.0
 11
1288.6527248221901
 21
30.18244670195191
 31
0.0
  0
LINE
  5
7F56
  8
DEFPOINTS
  6
CONTINUOUS
 10
1275.2373998221899
 20
30.53934170195225
 30
0.0
 11
1275.2373998221899
 21
30.061171701952389
 31
0.0
  0
LINE
  5
7F57
  8
DEFPOINTS
  6
CONTINUOUS
 10
1277.852319822191
 20
30.53934170195225
 30
0.0
 11
1277.852319822191
 21
30.061171701952389
 31
0.0
  0
LINE
  5
7F58
  8
DEFPOINTS
  6
CONTINUOUS
 10
1251.191454822191
 20
30.53934170195225
 30
0.0
 11
1251.191454822191
 21
30.061171701952389
 31
0.0
  0
LINE
  5
7F59
  8
DEFPOINTS
  6
CONTINUOUS
 10
1253.986554822191
 20
30.53934170195225
 30
0.0
 11
1253.986554822191
 21
30.061171701952389
 31
0.0
  0
LINE
  5
7F5A
  8
DEFPOINTS
  6
CONTINUOUS
 10
1262.7502195296879
 20
30.55782170195198
 30
0.0
 11
1262.18012482219
 21
29.823241701952611
 31
0.0
  0
LINE
  5
7F5B
  8
DEFPOINTS
  6
CONTINUOUS
 10
1265.0837948221899
 20
30.55782170195198
 30
0.0
 11
1265.0843629333281
 21
29.823241701952611
 31
0.0
  0
LINE
  5
7F5C
  8
DEFPOINTS
  6
CONTINUOUS
 10
1284.425327412192
 20
30.18244670195191
 30
0.0
 11
1284.425327412192
 21
29.759716701951682
 31
0.0
  0
LINE
  5
7F5D
  8
DEFPOINTS
  6
CONTINUOUS
 10
1291.60952482219
 20
30.18244670195191
 30
0.0
 11
1291.60952482219
 21
29.759716701951682
 31
0.0
  0
LINE
  5
7F5E
  8
DEFPOINTS
  6
CONTINUOUS
 10
1262.18012482219
 20
29.823241701952611
 30
0.0
 11
1262.1801985467091
 21
29.676684684825432
 31
0.0
  0
LINE
  5
7F5F
  8
DEFPOINTS
  6
CONTINUOUS
 10
1265.0843629333281
 20
29.823241701952611
 30
0.0
 11
1265.0844762779241
 21
29.676684684825432
 31
0.0
  0
LINE
  5
7F60
  8
DEFPOINTS
  6
CONTINUOUS
 10
1276.7735498221909
 20
30.061171701952389
 30
0.0
 11
1276.7735498221909
 21
29.601481701952249
 31
0.0
  0
LINE
  5
7F61
  8
DEFPOINTS
  6
CONTINUOUS
 10
1277.852319822191
 20
30.061171701952389
 30
0.0
 11
1277.852319822191
 21
29.601481701952249
 31
0.0
  0
LINE
  5
7F62
  8
DEFPOINTS
  6
CONTINUOUS
 10
1275.2373998221899
 20
30.061171701952389
 30
0.0
 11
1275.2373998221899
 21
29.601481701952249
 31
0.0
  0
LINE
  5
7F63
  8
DEFPOINTS
  6
CONTINUOUS
 10
1276.348509822189
 20
30.061171701952389
 30
0.0
 11
1276.3485098221911
 21
29.601481701952249
 31
0.0
  0
LINE
  5
7F64
  8
DEFPOINTS
  6
CONTINUOUS
 10
1254.2637548221901
 20
30.061171701952389
 30
0.0
 11
1254.2637548221901
 21
29.5991717019524
 31
0.0
  0
LINE
  5
7F65
  8
DEFPOINTS
  6
CONTINUOUS
 10
1258.3120298221911
 20
30.061171701952389
 30
0.0
 11
1258.3120298221911
 21
29.5991717019524
 31
0.0
  0
LINE
  5
7F66
  8
DEFPOINTS
  6
CONTINUOUS
 10
1265.0848230877029
 20
29.228252132768372
 30
0.0
 11
1265.0848340908631
 21
29.214024809176859
 31
0.0
  0
LINE
  5
7F67
  8
DEFPOINTS
  6
CONTINUOUS
 10
1265.0848340908631
 20
29.214024809176859
 30
0.0
 11
1265.062426821094
 21
29.228252132768372
 31
0.0
  0
LINE
  5
7F68
  8
DEFPOINTS
  6
CONTINUOUS
 10
1264.356169660191
 20
29.676684684825432
 30
0.0
 11
1265.062426821094
 21
29.228252132768372
 31
0.0
  0
LINE
  5
7F69
  8
DEFPOINTS
  6
CONTINUOUS
 10
1265.0844762779241
 20
29.676684684825432
 30
0.0
 11
1265.0848230877029
 21
29.228252132768372
 31
0.0
  0
LINE
  5
7F6A
  8
DEFPOINTS
  6
CONTINUOUS
 10
1262.1801985467091
 20
29.676684684825432
 30
0.0
 11
1262.1804241276809
 21
29.228252132768372
 31
0.0
  0
LINE
  5
7F6B
  8
DEFPOINTS
  6
CONTINUOUS
 10
1264.356169660191
 20
29.676684684825432
 30
0.0
 11
1264.356169660191
 21
29.228252132768372
 31
0.0
  0
LINE
  5
7F6C
  8
DEFPOINTS
  6
CONTINUOUS
 10
1264.356169660191
 20
29.228252132768372
 30
0.0
 11
1264.356169660191
 21
29.214024809176859
 31
0.0
  0
LINE
  5
7F6D
  8
DEFPOINTS
  6
CONTINUOUS
 10
1262.1804241276809
 20
29.228252132768372
 30
0.0
 11
1262.18043128464
 21
29.214024809176859
 31
0.0
  0
LINE
  5
7F6E
  8
DEFPOINTS
  6
CONTINUOUS
 10
1278.023259822191
 20
32.567521701952053
 30
0.0
 11
1278.023259822191
 21
29.123311701951931
 31
0.0
  0
LINE
  5
7F6F
  8
DEFPOINTS
  6
CONTINUOUS
 10
1279.0650698221909
 20
32.567521701952053
 30
0.0
 11
1279.0650698221909
 21
29.123311701951931
 31
0.0
  0
LINE
  5
7F70
  8
DEFPOINTS
  6
CONTINUOUS
 10
1275.2373998221899
 20
29.601481701952249
 30
0.0
 11
1275.2373998221899
 21
29.123311701951931
 31
0.0
  0
LINE
  5
7F71
  8
DEFPOINTS
  6
CONTINUOUS
 10
1277.852319822191
 20
29.601481701952249
 30
0.0
 11
1277.852319822191
 21
29.123311701951931
 31
0.0
  0
LINE
  5
7F72
  8
DEFPOINTS
  6
CONTINUOUS
 10
1275.4672699601911
 20
29.123311701951931
 30
0.0
 11
1275.4593963978921
 21
29.109021431951991
 31
0.0
  0
LINE
  5
7F73
  8
DEFPOINTS
  6
CONTINUOUS
 10
1277.699386854192
 20
29.123311701951931
 30
0.0
 11
1277.708800622564
 21
29.109021431951991
 31
0.0
  0
LINE
  5
7F74
  8
DEFPOINTS
  6
CONTINUOUS
 10
1284.4253274121911
 20
29.42592170195212
 30
0.0
 11
1284.4253274121911
 21
29.021671701952531
 31
0.0
  0
LINE
  5
7F75
  8
DEFPOINTS
  6
CONTINUOUS
 10
1291.60952482219
 20
29.42592170195212
 30
0.0
 11
1291.60952482219
 21
29.021671701952531
 31
0.0
  0
LINE
  5
7F76
  8
DEFPOINTS
  6
CONTINUOUS
 10
1279.3499973601899
 20
32.567521701952053
 30
0.0
 11
1279.3499973601899
 21
28.501921701951691
 31
0.0
  0
LINE
  5
7F77
  8
DEFPOINTS
  6
CONTINUOUS
 10
1280.461107360192
 20
32.567521701952053
 30
0.0
 11
1280.4611073601909
 21
28.501921701951691
 31
0.0
  0
LINE
  5
7F78
  8
DEFPOINTS
  6
CONTINUOUS
 10
1268.012899660192
 20
32.128621701951943
 30
0.0
 11
1268.01289966019
 21
28.501921701951691
 31
0.0
  0
LINE
  5
7F79
  8
DEFPOINTS
  6
CONTINUOUS
 10
1269.3457696601911
 20
32.128621701951943
 30
0.0
 11
1269.3457696601911
 21
28.501921701951691
 31
0.0
  0
LINE
  5
7F7A
  8
DEFPOINTS
  6
CONTINUOUS
 10
1265.3309896601911
 20
32.128621701951943
 30
0.0
 11
1265.3309896601911
 21
28.501921701951691
 31
0.0
  0
LINE
  5
7F7B
  8
DEFPOINTS
  6
CONTINUOUS
 10
1266.629209660191
 20
32.128621701951943
 30
0.0
 11
1266.6292096601919
 21
28.501921701951691
 31
0.0
  0
LINE
  5
7F7C
  8
DEFPOINTS
  6
CONTINUOUS
 10
1257.0242048221919
 20
29.5991717019524
 30
0.0
 11
1257.0242048221919
 21
28.501921701951691
 31
0.0
  0
LINE
  5
7F7D
  8
DEFPOINTS
  6
CONTINUOUS
 10
1258.3120298221911
 20
29.5991717019524
 30
0.0
 11
1258.3120298221911
 21
28.501921701951691
 31
0.0
  0
LINE
  5
7F7E
  8
DEFPOINTS
  6
CONTINUOUS
 10
1254.2637548221901
 20
29.5991717019524
 30
0.0
 11
1254.2637548221901
 21
28.501921701951691
 31
0.0
  0
LINE
  5
7F7F
  8
DEFPOINTS
  6
CONTINUOUS
 10
1255.5862298221909
 20
29.5991717019524
 30
0.0
 11
1255.5862298221921
 21
28.501921701951691
 31
0.0
  0
LINE
  5
7F80
  8
DEFPOINTS
  6
CONTINUOUS
 10
1252.8546548221909
 20
30.061171701952389
 30
0.0
 11
1252.8546548221909
 21
28.501921701951691
 31
0.0
  0
LINE
  5
7F81
  8
DEFPOINTS
  6
CONTINUOUS
 10
1253.986554822191
 20
30.061171701952389
 30
0.0
 11
1253.986554822191
 21
28.501921701951691
 31
0.0
  0
LINE
  5
7F82
  8
DEFPOINTS
  6
CONTINUOUS
 10
1251.191454822191
 20
30.061171701952389
 30
0.0
 11
1251.191454822191
 21
28.501921701951691
 31
0.0
  0
LINE
  5
7F83
  8
DEFPOINTS
  6
CONTINUOUS
 10
1252.3441448221911
 20
30.061171701952389
 30
0.0
 11
1252.3441448221911
 21
28.501921701951691
 31
0.0
  0
LINE
  5
7F84
  8
DEFPOINTS
  6
CONTINUOUS
 10
1262.477849148416
 20
28.415296701952229
 30
0.0
 11
1262.181025475393
 21
28.032832647484149
 31
0.0
  0
LINE
  5
7F85
  8
DEFPOINTS
  6
CONTINUOUS
 10
1262.181025475393
 20
28.032832647484149
 30
0.0
 11
1262.180833079429
 21
28.415296701952229
 31
0.0
  0
LINE
  5
7F86
  8
DEFPOINTS
  6
CONTINUOUS
 10
1290.327474822192
 20
29.021671701952531
 30
0.0
 11
1290.32747482219
 21
28.415296701952229
 31
0.0
  0
LINE
  5
7F87
  8
DEFPOINTS
  6
CONTINUOUS
 10
1291.60952482219
 20
29.021671701952531
 30
0.0
 11
1291.6095248221909
 21
28.415296701952229
 31
0.0
  0
LINE
  5
7F88
  8
DEFPOINTS
  6
CONTINUOUS
 10
1287.37067482219
 20
29.021671701952531
 30
0.0
 11
1287.3706748221921
 21
28.415296701952229
 31
0.0
  0
LINE
  5
7F89
  8
DEFPOINTS
  6
CONTINUOUS
 10
1288.6527248221901
 20
29.021671701952531
 30
0.0
 11
1288.6527248221901
 21
28.415296701952229
 31
0.0
  0
LINE
  5
7F8A
  8
DEFPOINTS
  6
CONTINUOUS
 10
1284.4253274121911
 20
29.021671701952531
 30
0.0
 11
1284.4253274121911
 21
28.415296701952229
 31
0.0
  0
LINE
  5
7F8B
  8
DEFPOINTS
  6
CONTINUOUS
 10
1285.7144048221919
 20
29.021671701952531
 30
0.0
 11
1285.714404822191
 21
28.415296701952229
 31
0.0
  0
LINE
  5
7F8C
  8
DEFPOINTS
  6
CONTINUOUS
 10
1262.18043128464
 20
29.214024809176859
 30
0.0
 11
1262.180833079429
 21
28.415296701952229
 31
0.0
  0
LINE
  5
7F8D
  8
DEFPOINTS
  6
CONTINUOUS
 10
1263.0977280828261
 20
29.214024809176859
 30
0.0
 11
1262.477849148416
 21
28.415296701952229
 31
0.0
  0
LINE
  5
7F8E
  8
DEFPOINTS
  6
CONTINUOUS
 10
1284.4253274121911
 20
28.415296701952229
 30
0.0
 11
1284.4253274121911
 21
28.016821701952271
 31
0.0
  0
LINE
  5
7F8F
  8
DEFPOINTS
  6
CONTINUOUS
 10
1291.6095248221909
 20
28.415296701952229
 30
0.0
 11
1291.609524822192
 21
28.016821701952271
 31
0.0
  0
LINE
  5
7F90
  8
DEFPOINTS
  6
CONTINUOUS
 10
1278.8265263461919
 20
28.501921701951691
 30
0.0
 11
1278.999889954192
 21
28.016821701952271
 31
0.0
  0
LINE
  5
7F91
  8
DEFPOINTS
  6
CONTINUOUS
 10
1280.4611073601909
 20
28.501921701951691
 30
0.0
 11
1280.4611073601909
 21
28.016821701952271
 31
0.0
  0
LINE
  5
7F92
  8
DEFPOINTS
  6
CONTINUOUS
 10
1276.557207360192
 20
29.109021431951991
 30
0.0
 11
1277.2766979821911
 21
28.016821701952271
 31
0.0
  0
LINE
  5
7F93
  8
DEFPOINTS
  6
CONTINUOUS
 10
1277.708800622564
 20
29.109021431951991
 30
0.0
 11
1278.4282912461911
 21
28.016821701952271
 31
0.0
  0
LINE
  5
7F94
  8
DEFPOINTS
  6
CONTINUOUS
 10
1275.4593963978921
 20
29.109021431951991
 30
0.0
 11
1274.8576231201901
 21
28.016821701952271
 31
0.0
  0
LINE
  5
7F95
  8
DEFPOINTS
  6
CONTINUOUS
 10
1276.557207360192
 20
29.109021431951991
 30
0.0
 11
1275.955434083342
 21
28.016821701952271
 31
0.0
  0
LINE
  5
7F96
  8
DEFPOINTS
  6
CONTINUOUS
 10
1273.870018346191
 20
30.23442170195267
 30
0.0
 11
1273.271589822192
 21
28.016821701952271
 31
0.0
  0
LINE
  5
7F97
  8
DEFPOINTS
  6
CONTINUOUS
 10
1275.01563982219
 20
30.23442170195267
 30
0.0
 11
1274.417211296191
 21
28.016821701952271
 31
0.0
  0
LINE
  5
7F98
  8
DEFPOINTS
  6
CONTINUOUS
 10
1265.3309896601911
 20
28.501921701951691
 30
0.0
 11
1265.3309896601911
 21
28.016821701952271
 31
0.0
  0
LINE
  5
7F99
  8
DEFPOINTS
  6
CONTINUOUS
 10
1269.3457696601911
 20
28.501921701951691
 30
0.0
 11
1269.3457696601911
 21
28.016821701952271
 31
0.0
  0
LINE
  5
7F9A
  8
DEFPOINTS
  6
CONTINUOUS
 10
1263.108769660189
 20
29.214024809176859
 30
0.0
 11
1263.1087696601919
 21
28.016821701952271
 31
0.0
  0
LINE
  5
7F9B
  8
DEFPOINTS
  6
CONTINUOUS
 10
1264.356169660191
 20
29.214024809176859
 30
0.0
 11
1264.3561696601901
 21
28.016821701952271
 31
0.0
  0
LINE
  5
7F9C
  8
DEFPOINTS
  6
CONTINUOUS
 10
1254.2637548221901
 20
28.501921701951691
 30
0.0
 11
1254.2637548221901
 21
28.016821701952271
 31
0.0
  0
LINE
  5
7F9D
  8
DEFPOINTS
  6
CONTINUOUS
 10
1258.3120298221911
 20
28.501921701951691
 30
0.0
 11
1258.3120298221911
 21
28.016821701952271
 31
0.0
  0
LINE
  5
7F9E
  8
DEFPOINTS
  6
CONTINUOUS
 10
1251.191454822191
 20
28.501921701951691
 30
0.0
 11
1251.191454822191
 21
28.016821701952271
 31
0.0
  0
LINE
  5
7F9F
  8
DEFPOINTS
  6
CONTINUOUS
 10
1253.986554822191
 20
28.501921701951691
 30
0.0
 11
1253.986554822191
 21
28.016821701952271
 31
0.0
  0
ENDBLK
  5
7FA1
  8
0
  0
BLOCK
  8
0
  2
*U35
 70
     1
 10
0.0
 20
0.0
 30
0.0
  3
*U35
  1

  0
TEXT
  5
801C
  8
002寸法
 62
     2
 10
7.1499999999999986
 20
7.9282032302754706
 30
0.0
 40
3.0
  1
G
 41
0.9
  0
ENDBLK
  5
801E
  8
0
  0
BLOCK
  8
0
  2
*U36
 70
     1
 10
0.0
 20
0.0
 30
0.0
  3
*U36
  1

  0
TEXT
  5
802B
  8
003注釈
 10
1312.0
 20
67.999999999999815
 30
0.0
 40
6.0
  1
外観図
 41
0.9
  0
ENDBLK
  5
802D
  8
0
  0
BLOCK
  8
0
  2
*U37
 70
     1
 10
0.0
 20
0.0
 30
0.0
  3
*U37
  1

  0
TEXT
  5
802F
  8
003注釈
 10
1310.9714285714281
 20
24.0
 30
0.0
 40
6.0
  1
I-0103-A011-2
 41
0.9
  0
ENDBLK
  5
8031
  8
0
  0
BLOCK
  8
0
  2
*U38
 70
     1
 10
0.0
 20
0.0
 30
0.0
  3
*U38
  1

  0
TEXT
  5
8033
  8
003注釈
 10
1311.742857142857
 20
45.999999999999822
 30
0.0
 40
6.0
  1
TQP-□NB
 41
0.9
  0
ENDBLK
  5
8035
  8
0
  0
BLOCK
  8
0
  2
*U39
 70
     1
 10
0.0
 20
0.0
 30
0.0
  3
*U39
  1

  0
TEXT
  5
8037
  8
003注釈
 10
1278.3714285714279
 20
73.333333333332874
 30
0.0
 40
4.0
  1
2016.
 41
0.9
  0
TEXT
  5
8038
  8
003注釈
 10
1278.2
 20
66.666666666666202
 30
0.0
 40
4.0
  1
07.14
 41
0.9
  0
ENDBLK
  5
803A
  8
0
  0
BLOCK
  8
0
  2
*U40
 70
     1
 10
0.0
 20
0.0
 30
0.0
  3
*U40
  1

  0
TEXT
  5
803C
  8
003注釈
 10
1147.071428571428
 20
46.999999999999538
 30
0.0
 40
6.0
  1
1  2
 41
0.9
  0
ENDBLK
  5
803E
  8
0
  0
BLOCK
  8
0
  2
*U41
 70
     1
 10
0.0
 20
0.0
 30
0.0
  3
*U41
  1

  0
TEXT
  5
8040
  8
003注釈
 10
1280.24
 20
46.999999999999538
 30
0.0
 40
6.0
  1
益子
 41
0.9
  0
ENDBLK
  5
8042
  8
0
  0
BLOCK
  8
0
  2
*U42
 70
     1
 10
0.0
 20
0.0
 30
0.0
  3
*U42
  1

  0
TEXT
  5
8044
  8
003注釈
 10
1264.0
 20
192.8571428571428
 30
0.0
 40
6.0
  1
負荷方向　　：時計回り(-)/反時計回り(+)
 41
0.9
  0
TEXT
  5
8045
  8
003注釈
 10
1264.0
 20
176.28571428571431
 30
0.0
 40
6.0
  1
使用キー寸法：24
 41
0.9
  0
TEXT
  5
8046
  8
003注釈
 10
1319.6457142857139
 20
180.28571428571419
 30
0.0
 40
3.0
  1
 0
 41
0.9
  0
TEXT
  5
8047
  8
003注釈
 10
1319.1314285714279
 20
176.28571428571431
 30
0.0
 40
3.0
  1
-0.052
 41
0.9
  0
TEXT
  5
8048
  8
003注釈
 10
1334.045714285714
 20
176.28571428571431
 30
0.0
 40
6.0
  1
 \U+00D7 16
 41
0.9
  0
TEXT
  5
8049
  8
003注釈
 10
1361.6114285714291
 20
180.28571428571419
 30
0.0
 40
3.0
  1
 0
 41
0.9
  0
TEXT
  5
804A
  8
003注釈
 10
1361.0971428571429
 20
176.28571428571431
 30
0.0
 40
3.0
  1
-0.110
 41
0.9
  0
ENDBLK
  5
804C
  8
0
  0
BLOCK
  8
0
  2
*U43
 70
     1
 10
0.0
 20
0.0
 30
0.0
  3
*U43
  1

  0
TEXT
  5
8052
  8
003注釈
 10
1122.0
 20
36.0
 30
0.0
 40
4.0
  1
来歴
 50
90.0
 41
0.9
  0
TEXT
  5
8053
  8
003注釈
 10
1128.0
 20
35.314285714285717
 30
0.0
 40
4.0
  1
I-0103-A011
 50
90.0
 41
0.9
  0
ENDBLK
  5
8055
  8
0
  0
BLOCK
  8
0
  2
*U44
 70
     1
 10
0.0
 20
0.0
 30
0.0
  3
*U44
  1

  0
TEXT
  5
8057
  8
003注釈
 10
1121.9282032302749
 20
82.371428571428609
 30
0.0
 40
4.0
  1
2016.
 50
90.0
 41
0.9
  0
TEXT
  5
8058
  8
003注釈
 10
1127.9282032302749
 20
82.200000000000045
 30
0.0
 40
4.0
  1
07.14
 50
90.0
 41
0.9
  0
ENDBLK
  5
805A
  8
0
  0
BLOCK
  8
0
  2
*U45
 70
     1
 10
0.0
 20
0.0
 30
0.0
  3
*U45
  1

  0
INSERT
  5
8070
  8
002寸法
  2
_OPEN
 10
876.53553390593265
 20
472.5355339059326
 30
0.0
 41
2.5
 42
2.5
 43
2.5
 50
44.999999999999538
  0
POLYLINE
  5
8071
  8
002寸法
 66
     1
 10
0.0
 20
0.0
 30
0.0
  0
VERTEX
  5
8072
  8
002寸法
 10
874.76776695296644
 20
470.76776695296633
 30
0.0
  0
VERTEX
  5
8073
  8
002寸法
 10
873.0
 20
469.0
 30
0.0
  0
SEQEND
  5
8074
  8
002寸法
  0
ENDBLK
  5
8076
  8
0
  0
BLOCK
  8
0
  2
*U46
 70
     1
 10
0.0
 20
0.0
 30
0.0
  3
*U46
  1

  0
INSERT
  5
8078
  8
002寸法
  2
_OPEN
 10
859.46446609406712
 20
472.5355339059326
 30
0.0
 41
2.5
 42
2.5
 43
2.5
 50
135.0000000000004
  0
POLYLINE
  5
8079
  8
002寸法
 66
     1
 10
0.0
 20
0.0
 30
0.0
  0
VERTEX
  5
807A
  8
002寸法
 10
861.23223304703356
 20
470.76776695296633
 30
0.0
  0
VERTEX
  5
807B
  8
002寸法
 10
863.0
 20
469.0
 30
0.0
  0
SEQEND
  5
807C
  8
002寸法
  0
ENDBLK
  5
807E
  8
0
  0
BLOCK
  8
0
  2
*U47
 70
     1
 10
0.0
 20
0.0
 30
0.0
  3
*U47
  1

  0
TEXT
  5
8080
  8
003注釈
 10
1293.2285714285711
 20
144.0
 30
0.0
 40
6.0
  1
5,10 kN･m
 41
0.9
  0
ENDBLK
  5
8082
  8
0
  0
BLOCK
  8
0
  2
*U48
 70
     1
 10
0.0
 20
0.0
 30
0.0
  3
*U48
  1

  0
POLYLINE
  5
8084
  8
002寸法
 66
     1
 10
0.0
 20
0.0
 30
0.0
  0
VERTEX
  5
8085
  8
002寸法
 10
876.53553390593265
 20
472.5355339059326
 30
0.0
  0
VERTEX
  5
8086
  8
002寸法
 10
885.37436867076451
 20
481.37436867076451
 30
0.0
  0
VERTEX
  5
8087
  8
002寸法
 10
892.26360902461056
 20
488.26360902461067
 30
0.0
  0
SEQEND
  5
8088
  8
002寸法
  0
ENDBLK
  5
808A
  8
0
  0
BLOCK
  8
0
  2
*U49
 70
     1
 10
0.0
 20
0.0
 30
0.0
  3
*U49
  1

  0
TEXT
  5
808C
  8
002寸法
 62
     2
 10
884.64705883868692
 20
482.06127240106008
 30
0.0
 40
6.0
  1
R5
 50
45.0
 41
0.9
  0
ENDBLK
  5
808E
  8
0
  0
BLOCK
  8
0
  2
*U50
 70
     1
 10
0.0
 20
0.0
 30
0.0
  3
*U50
  1

  0
POLYLINE
  5
8090
  8
002寸法
 66
     1
 10
0.0
 20
0.0
 30
0.0
  0
VERTEX
  5
8091
  8
002寸法
 10
859.46446609406712
 20
472.5355339059326
 30
0.0
  0
VERTEX
  5
8092
  8
002寸法
 10
850.62563132923538
 20
481.37436867076451
 30
0.0
  0
VERTEX
  5
8093
  8
002寸法
 10
843.73639097538944
 20
488.26360902461062
 30
0.0
  0
SEQEND
  5
8094
  8
002寸法
  0
ENDBLK
  5
8096
  8
0
  0
BLOCK
  8
0
  2
*U51
 70
     1
 10
0.0
 20
0.0
 30
0.0
  3
*U51
  1

  0
TEXT
  5
8098
  8
002寸法
 62
     2
 10
843.7161879244984
 20
489.69802563787471
 30
0.0
 40
6.0
  1
R5
 50
315.0
 41
0.9
  0
ENDBLK
  5
809A
  8
0
  0
BLOCK
  8
0
  2
*U52
 70
     1
 10
0.0
 20
0.0
 30
0.0
  3
*U52
  1

  0
TEXT
  5
809C
  8
002寸法
 62
     2
 10
1338.0
 20
371.89999999999998
 30
0.0
 40
6.0
  1
198
 50
90.0
 41
0.9
  0
ENDBLK
  5
809E
  8
0
  0
BLOCK
  8
0
  2
*U53
 70
     1
 10
0.0
 20
0.0
 30
0.0
  3
*U53
  1

  0
TEXT
  5
80A0
  8
002寸法
 62
     2
 10
1378.0
 20
372.28571428571428
 30
0.0
 40
6.0
  1
216
 50
90.0
 41
0.9
  0
ENDBLK
  5
80A2
  8
0
  0
BLOCK
  8
0
  2
*U54
 70
     1
 10
0.0
 20
0.0
 30
0.0
  3
*U54
  1

  0
TEXT
  5
80A4
  8
002寸法
 62
     2
 10
1303.8571428571429
 20
499.0
 30
0.0
 40
6.0
  1
20
 41
0.9
  0
ENDBLK
  5
80A6
  8
0
  0
BLOCK
  8
0
  2
*U55
 70
     1
 10
0.0
 20
0.0
 30
0.0
  3
*U55
  1

  0
TEXT
  5
80A8
  8
002寸法
 62
     2
 10
1284.785714285714
 20
233.0
 30
0.0
 40
6.0
  1
205
 41
0.9
  0
ENDBLK
  5
80AA
  8
0
  0
BLOCK
  8
0
  2
*U56
 70
     1
 10
0.0
 20
0.0
 30
0.0
  3
*U56
  1

  0
TEXT
  5
80B5
  8
002寸法
 62
     2
 10
789.0
 20
371.44857142857148
 30
0.0
 40
6.0
  1
\U+03C690h7
 50
90.0
 41
0.9
  0
ENDBLK
  5
80B7
  8
0
  0
BLOCK
  8
0
  2
*U57
 70
     1
 10
0.0
 20
0.0
 30
0.0
  3
*U57
  1

  0
TEXT
  5
80B9
  8
002寸法
 62
     2
 10
1037.0
 20
371.4485714285716
 30
0.0
 40
6.0
  1
\U+03C690h7
 50
90.0
 41
0.9
  0
ENDBLK
  5
80BB
  8
0
  0
BLOCK
  8
0
  2
*U58
 70
     1
 10
0.0
 20
0.0
 30
0.0
  3
*U58
  1

  0
TEXT
  5
80BD
  8
002寸法
 62
     2
 10
982.0
 20
373.89142857142861
 30
0.0
 40
6.0
  1
\U+03C6172
 50
90.0
 41
0.9
  0
ENDBLK
  5
80BF
  8
0
  0
BLOCK
  8
0
  2
*U59
 70
     1
 10
0.0
 20
0.0
 30
0.0
  3
*U59
  1

  0
TEXT
  5
80C1
  8
002寸法
 62
     2
 10
862.85714285714255
 20
499.0
 30
0.0
 40
6.0
  1
20
 41
0.9
  0
ENDBLK
  5
80C3
  8
0
  0
BLOCK
  8
0
  2
*U60
 70
     1
 10
0.0
 20
0.0
 30
0.0
  3
*U60
  1

  0
TEXT
  5
80C5
  8
002寸法
 62
     2
 10
784.99999999999977
 20
463.4714285714287
 30
0.0
 40
6.0
  1
10
 50
90.0
 41
0.9
  0
ENDBLK
  5
80C7
  8
0
  0
BLOCK
  8
0
  2
*U61
 70
     1
 10
0.0
 20
0.0
 30
0.0
  3
*U61
  1

  0
TEXT
  5
80C9
  8
002寸法
 62
     2
 10
709.40000000000009
 20
234.5
 30
0.0
 40
6.0
  1
115
 41
0.9
  0
ENDBLK
  5
80CB
  8
0
  0
BLOCK
  8
0
  2
*U62
 70
     1
 10
0.0
 20
0.0
 30
0.0
  3
*U62
  1

  0
TEXT
  5
80CD
  8
002寸法
 62
     2
 10
1094.4000000000001
 20
234.5
 30
0.0
 40
6.0
  1
115
 41
0.9
  0
ENDBLK
  5
80CF
  8
0
  0
BLOCK
  8
0
  2
*U63
 70
     1
 10
0.0
 20
0.0
 30
0.0
  3
*U63
  1

  0
TEXT
  5
80DA
  8
002寸法
 62
     2
 10
830.59999999999991
 20
234.5
 30
0.0
 40
6.0
  1
64
 41
0.9
  0
ENDBLK
  5
80DC
  8
0
  0
BLOCK
  8
0
  2
*U64
 70
     1
 10
0.0
 20
0.0
 30
0.0
  3
*U64
  1

  0
TEXT
  5
80DE
  8
002寸法
 62
     2
 10
902.28571428571433
 20
174.5
 30
0.0
 40
6.0
  1
500
 41
0.9
  0
ENDBLK
  5
80E0
  8
0
  0
BLOCK
  8
0
  2
*U65
 70
     1
 10
0.0
 20
0.0
 30
0.0
  3
*U65
  1

  0
TEXT
  5
80E2
  8
002寸法
 62
     2
 10
860.52857142857147
 20
214.5
 30
0.0
 40
6.0
  1
129
 41
0.9
  0
ENDBLK
  5
80E4
  8
0
  0
BLOCK
  8
0
  2
*U66
 70
     1
 10
0.0
 20
0.0
 30
0.0
  3
*U66
  1

  0
TEXT
  5
80E6
  8
002寸法
 62
     2
 10
970.85714285714278
 20
214.5
 30
0.0
 40
6.0
  1
86
 41
0.9
  0
ENDBLK
  5
80E8
  8
0
  0
BLOCK
  8
0
  2
*U67
 70
     1
 10
0.0
 20
0.0
 30
0.0
  3
*U67
  1

  0
TEXT
  5
80EA
  8
002寸法
 62
     2
 10
721.90000000000009
 20
194.5
 30
0.0
 40
6.0
  1
140
 41
0.9
  0
ENDBLK
  5
80EC
  8
0
  0
BLOCK
  8
0
  2
*U68
 70
     1
 10
0.0
 20
0.0
 30
0.0
  3
*U68
  1

  0
TEXT
  5
80EE
  8
002寸法
 62
     2
 10
901.9142857142856
 20
194.5
 30
0.0
 40
6.0
  1
219
 41
0.9
  0
ENDBLK
  5
80F0
  8
0
  0
BLOCK
  8
0
  2
*U69
 70
     1
 10
0.0
 20
0.0
 30
0.0
  3
*U69
  1

  0
TEXT
  5
80F2
  8
002寸法
 62
     2
 10
1082.1714285714279
 20
194.5
 30
0.0
 40
6.0
  1
141
 41
0.9
  0
ENDBLK
  5
80F4
  8
0
  0
BLOCK
  8
0
  2
*U70
 70
     1
 10
0.0
 20
0.0
 30
0.0
  3
*U70
  1

  0
TEXT
  5
80F6
  8
002寸法
 62
     2
 10
784.37142857142851
 20
214.5
 30
0.0
 40
6.0
  1
4
 41
0.9
  0
ENDBLK
  5
80F8
  8
0
  0
BLOCK
  8
0
  2
*U71
 70
     1
 10
0.0
 20
0.0
 30
0.0
  3
*U71
  1

  0
TEXT
  5
80FA
  8
002寸法
 62
     2
 10
1260.6071428571429
 20
467.0
 30
0.0
 40
6.0
  1
8
 41
0.9
  0
TEXT
  5
80FB
  8
002寸法
 62
     2
 10
1265.235714285714
 20
471.0
 30
0.0
 40
3.0
  1
+0.2
 41
0.9
  0
TEXT
  5
80FC
  8
002寸法
 62
     2
 10
1265.75
 20
467.0
 30
0.0
 40
3.0
  1
 0
 41
0.9
  0
ENDBLK
  5
80FE
  8
0
  0
ENDSEC
  0
SECTION
  2
ENTITIES
  0
POLYLINE
  5
51C
  8
DEFPOINTS
 66
     1
 10
0.0
 20
0.0
 30
0.0
 70
     1
  0
VERTEX
  5
7E8C
  8
DEFPOINTS
 10
594.0
 20
0.0
 30
0.0
  0
VERTEX
  5
7E8D
  8
DEFPOINTS
 10
1434.0
 20
0.0
 30
0.0
  0
VERTEX
  5
7E8E
  8
DEFPOINTS
 10
1434.0
 20
594.0
 30
0.0
  0
VERTEX
  5
7E8F
  8
DEFPOINTS
 10
594.0
 20
594.0
 30
0.0
  0
SEQEND
  5
7E90
  8
DEFPOINTS
  0
POLYLINE
  5
51E
  8
DEFPOINTS
 66
     1
 10
0.0
 20
0.0
 30
0.0
 70
     1
  0
VERTEX
  5
7E91
  8
DEFPOINTS
 10
643.0
 20
20.0
 30
0.0
  0
VERTEX
  5
7E92
  8
DEFPOINTS
 10
1413.0
 20
20.0
 30
0.0
  0
VERTEX
  5
7E93
  8
DEFPOINTS
 10
1413.0
 20
574.0
 30
0.0
  0
VERTEX
  5
7E94
  8
DEFPOINTS
 10
643.0
 20
574.0
 30
0.0
  0
SEQEND
  5
7E95
  8
DEFPOINTS
  0
TEXT
  5
564
  8
DEFPOINTS
 10
1177.3496849213279
 20
24.66684100940029
 30
0.0
 40
15.0
  1
Ａ３
 41
0.7222222220000001
  7
表題
  0
LINE
  5
565
  8
DEFPOINTS
 10
1060.0
 20
118.0
 30
0.0
 11
1413.0
 21
118.0
 31
0.0
  0
LINE
  5
566
  8
DEFPOINTS
 10
1060.0
 20
102.0
 30
0.0
 11
1413.0
 21
102.0
 31
0.0
  0
POLYLINE
  5
567
  8
DEFPOINTS
 66
     1
 10
0.0
 20
0.0
 30
0.0
 70
     1
  0
VERTEX
  5
7E96
  8
DEFPOINTS
 10
1060.0
 20
134.0
 30
0.0
  0
VERTEX
  5
7E97
  8
DEFPOINTS
 10
1413.0
 20
134.0
 30
0.0
  0
VERTEX
  5
7E98
  8
DEFPOINTS
 10
1413.0
 20
20.0
 30
0.0
  0
VERTEX
  5
7E99
  8
DEFPOINTS
 10
1060.0
 20
20.0
 30
0.0
  0
SEQEND
  5
7E9A
  8
DEFPOINTS
  0
LINE
  5
568
  8
DEFPOINTS
 10
1142.0
 20
41.999999999999538
 30
0.0
 11
1413.0
 21
42.0
 31
0.0
  0
LINE
  5
569
  8
DEFPOINTS
 10
1142.0
 20
63.999999999999552
 30
0.0
 11
1413.0
 21
64.0
 31
0.0
  0
LINE
  5
56A
  8
DEFPOINTS
 10
1141.9999999999991
 20
85.999999999999545
 30
0.0
 11
1413.0
 21
86.0
 31
0.0
  0
TEXT
  5
56C
  8
DEFPOINTS
 10
1270.626336874619
 20
80.999999999999545
 30
0.0
 40
4.0
  1
作成日付
  7
表題
 72
     1
 11
1281.1830379055471
 21
80.999999999999545
 31
0.0
  0
INSERT
  5
56D
  8
DEFPOINTS
  6
CONTINUOUS
  2
*U34
 10
0.0
 20
0.0
 30
0.0
1001
ACAD
1002
{
1000
R14_HATCH_DATA
1000
56D
1011
1.0
1021
9.9035203142830422E+027
1031
-2.1267647932624625E+037
1021
0.0
1031
0.0
1011
0.0
1021
9.9035203142830422E+027
1031
-2.1267647932624625E+037
1021
1.0
1031
0.0
1011
0.0
1021
9.9035203142830422E+027
1031
-2.1267647932624625E+037
1021
0.0
1031
1.0
1040
0.0
1010
0.0
1020
0.0
1030
1.0
1000
SOLID,_O
1070
     1
1070
     0
1071
       25
1071
        7
1070
     0
1070
     1
1071
        4
1040
1253.986554822191
1040
32.567521701952501
1040
1251.191454822191
1040
32.567521701952501
1040
1251.191454822191
1040
28.016821701952271
1040
1253.986554822191
1040
28.016821701952271
1071
        0
1071
       22
1070
     0
1070
     1
1071
        4
1040
1252.8546548221909
1040
30.061171701952389
1040
1252.8546548221909
1040
28.501921701952138
1040
1252.3441448221911
1040
28.501921701952138
1040
1252.3441448221911
1040
30.061171701952389
1071
        0
1071
       22
1070
     0
1070
     1
1071
        4
1040
1252.8546548221909
1040
30.53934170195225
1040
1252.3441448221899
1040
30.53934170195225
1040
1252.3441448221899
1040
32.128621701951943
1040
1252.854654822193
1040
32.128621701952397
1071
        0
1071
        7
1070
     0
1070
     1
1071
        4
1040
1258.3120298221911
1040
30.061171701952389
1040
1254.2637548221901
1040
30.061171701952389
1040
1254.2637548221901
1040
28.016821701952271
1040
1258.3120298221911
1040
28.016821701952271
1071
        0
1071
       22
1070
     0
1070
     1
1071
        4
1040
1255.5862298221909
1040
29.5991717019524
1040
1257.0242048221919
1040
29.5991717019524
1040
1257.0242048221919
1040
28.501921701952138
1040
1255.5862298221921
1040
28.501921701952138
1071
        0
1071
        7
1070
     0
1070
     1
1071
       12
1040
1256.4975496601901
1040
32.128621701951943
1040
1257.0242048221919
1040
32.128621701951943
1040
1257.02466222219
1040
30.934351701952441
1040
1256.576522222193
1040
30.918181701952111
1040
1256.693874822193
1040
30.453871701952721
1040
1258.3120298221911
1040
30.45387170195227
1040
1258.3120298221911
1040
32.567521701952501
1040
1254.2637548221901
1040
32.567521701952501
1040
1254.2637548221901
1040
32.128621701952397
1040
1255.05610966019
1040
32.128621701951943
1040
1254.2637548221919
1040
30.45387170195227
1040
1255.7051948221899
1040
30.453871701952721
1071
        0
1071
        7
1070
     0
1070
     1
1071
       22
1040
1265.0837948221899
1040
30.55782170195198
1040
1264.356169660191
1040
31.01982170195242
1040
1265.07457966019
1040
31.01982170195242
1040
1265.07457966019
1040
31.46565170195208
1040
1264.356169660191
1040
31.46565170195208
1040
1264.356169660191
1040
32.128621701952397
1040
1265.0745796601909
1040
32.128621701951943
1040
1265.07457966019
1040
32.567521701952501
1040
1262.1685996601909
1040
32.567521701952501
1040
1262.1685996601909
1040
32.128621701951943
1040
1263.1087696601901
1040
32.128621701952397
1040
1263.1087696601919
1040
31.46565170195208
1040
1262.1685996601909
1040
31.46565170195208
1040
1262.1685996601921
1040
31.01982170195242
1040
1263.1087696601901
1040
31.01982170195242
1040
1262.18012482219
1040
29.823241701952611
1040
1262.181025475393
1040
28.032832647484149
1040
1263.108769660189
1040
29.228252132768372
1040
1263.1087696601919
1040
28.016821701952271
1040
1264.3561696601901
1040
28.016821701952271
1040
1264.356169660191
1040
29.676684684825432
1040
1265.0848340908631
1040
29.214024809176859
1071
        0
1071
        7
1070
     0
1070
     1
1071
        4
1040
1269.3457696601911
1040
32.567521701952501
1040
1265.3309896601911
1040
32.567521701952501
1040
1265.3309896601911
1040
28.016821701952271
1040
1269.3457696601911
1040
28.016821701952271
1071
        0
1071
       22
1070
     0
1070
     1
1071
        4
1040
1266.629209660191
1040
32.128621701951943
1040
1268.012899660192
1040
32.128621701951943
1040
1268.01289966019
1040
28.5019217019526
1040
1266.6292096601919
1040
28.501921701951691
1071
        0
1071
        7
1070
     0
1070
     1
1071
        4
1040
1275.0156398221909
1040
32.567521701952053
1040
1273.27158982219
1040
32.567521701952053
1040
1273.271589822192
1040
32.128621701952397
1040
1275.0156398221909
1040
32.128621701951943
1071
        0
1071
        7
1070
     0
1070
     1
1071
        4
1040
1275.0156398221909
1040
31.46565170195208
1040
1273.271589822192
1040
31.46565170195208
1040
1273.271589822192
1040
31.01982170195242
1040
1275.0156398221909
1040
31.01982170195242
1071
        0
1071
        7
1070
     0
1070
     1
1071
        4
1040
1275.01563982219
1040
30.23442170195267
1040
1273.870018346191
1040
30.23442170195267
1040
1273.271589822192
1040
28.016821701952271
1040
1274.417211296191
1040
28.016821701952271
1071
        0
1071
        7
1070
     0
1070
     1
1071
       11
1040
1277.852319822191
1040
32.567521701952501
1040
1275.2373998221899
1040
32.567521701952501
1040
1275.2373998221899
1040
29.123311701951931
1040
1275.4672699601911
1040
29.123311701951931
1040
1274.8576231201901
1040
28.016821701952271
1040
1275.955434083342
1040
28.016821701952271
1040
1276.557207360192
1040
29.109021431951991
1040
1277.2766979821911
1040
28.016821701952271
1040
1278.4282912461911
1040
28.016821701952271
1040
1277.699386854192
1040
29.123311701951931
1040
1277.852319822191
1040
29.123311701951931
1071
        0
1071
       22
1070
     0
1070
     1
1071
        4
1040
1276.348509822189
1040
30.061171701952389
1040
1276.7735498221909
1040
30.061171701952389
1040
1276.7735498221909
1040
29.601481701952249
1040
1276.3485098221911
1040
29.601481701952711
1071
        0
1071
       22
1070
     0
1070
     1
1071
        4
1040
1276.348509822192
1040
30.53934170195225
1040
1276.3485098221911
1040
31.01982170195242
1040
1276.7735498221909
1040
31.01982170195242
1040
1276.7735498221909
1040
30.53934170195225
1071
        0
1071
       22
1070
     0
1070
     1
1071
        4
1040
1276.348509822192
1040
31.465651701952542
1040
1276.34850982219
1040
32.128621701952397
1040
1276.7735498221921
1040
32.128621701951943
1040
1276.7735498221921
1040
31.46565170195208
1071
        0
1071
        7
1070
     0
1070
     1
1071
        4
1040
1279.0650698221909
1040
32.567521701952501
1040
1278.023259822191
1040
32.567521701952501
1040
1278.023259822191
1040
29.123311701951931
1040
1279.0650698221909
1040
29.123311701951931
1071
        0
1071
        7
1070
     0
1070
     1
1071
        6
1040
1280.461107360192
1040
32.567521701952501
1040
1279.3499973601899
1040
32.567521701952501
1040
1279.3499973601899
1040
28.501921701951691
1040
1278.8265263461919
1040
28.501921701951691
1040
1278.999889954192
1040
28.016821701952271
1040
1280.4611073601909
1040
28.016821701952271
1071
        0
1071
        7
1070
     0
1070
     1
1071
        4
1040
1291.60952482219
1040
29.425921701952579
1040
1284.4253274121911
1040
29.42592170195212
1040
1284.4253274121911
1040
28.016821701952271
1040
1291.609524822192
1040
28.016821701952271
1071
        0
1071
       22
1070
     0
1070
     1
1071
        4
1040
1288.6527248221901
1040
29.021671701952979
1040
1290.327474822192
1040
29.021671701952979
1040
1290.32747482219
1040
28.415296701952229
1040
1288.6527248221901
1040
28.415296701952229
1071
        0
1071
       22
1070
     0
1070
     1
1071
        4
1040
1287.3706748221921
1040
28.415296701952229
1040
1285.714404822191
1040
28.415296701952229
1040
1285.7144048221919
1040
29.021671701952531
1040
1287.37067482219
1040
29.021671701952531
1071
        0
1071
        7
1070
     0
1070
     1
1071
       12
1040
1291.60952482219
1040
30.18244670195191
1040
1288.6527248221901
1040
30.18244670195191
1040
1288.6527248221901
1040
30.594781701952339
1040
1291.4039348221911
1040
30.594781701952339
1040
1291.4039348221911
1040
31.01982170195242
1040
1284.698004822191
1040
31.01982170195242
1040
1284.698004822191
1040
30.594781701952339
1040
1287.37067482219
1040
30.594781701952339
1040
1287.37067482219
1040
30.18244670195191
1040
1284.425327412192
1040
30.18244670195191
1040
1284.425327412192
1040
29.759716701951682
1040
1291.60952482219
1040
29.759716701951682
1071
        0
1071
        7
1070
     0
1070
     1
1071
        4
1040
1291.403934822192
1040
32.567521701952501
1040
1284.698004822191
1040
32.567521701952501
1040
1284.698004822191
1040
31.26814670195245
1040
1291.4039348221911
1040
31.26814670195245
1071
        0
1071
       22
1070
     0
1070
     1
1071
        4
1040
1288.6527248221921
1040
31.718596701952269
1040
1288.6527248221901
1040
32.128621701951943
1040
1290.0364148221911
1040
32.128621701951943
1040
1290.0364148221911
1040
31.718596701952269
1071
        0
1071
       22
1070
     0
1070
     1
1071
        4
1040
1287.37067482219
1040
31.718596701952269
1040
1286.0562848221921
1040
31.718596701952269
1040
1286.0562848221921
1040
32.128621701952397
1040
1287.37067482219
1040
32.128621701952397
1071
        0
1070
     1
1070
     1
1040
0.0129395892018505
1071
       25
1040
1253.3706561138449
1040
30.211529648123818
1040
0.0
1040
1253.3706561138449
1040
30.211529648123818
1040
0.0
1040
1253.3706561138449
1040
30.211529648123818
1040
0.0
1040
1254.967735464938
1040
29.280136385687001
1040
0.0
1040
1254.967735464938
1040
29.280136385687001
1040
0.0
1040
1254.901178213855
1040
31.142939006254441
1040
0.0
1040
1264.0177928528219
1040
30.145006156718871
1040
0.0
1040
1266.1472319876129
1040
30.145006156718871
1040
0.0
1040
1266.1472319876129
1040
30.145006156718871
1040
0.0
1040
1274.3005148906041
1040
32.423705340176191
1040
0.0
1040
1274.3824541746301
1040
31.194863705811709
1040
0.0
1040
1274.218555961583
1040
29.365250400337569
1040
0.0
1040
1275.638889271348
1040
29.938707683615121
1040
0.0
1040
1275.638889271348
1040
29.938707683615121
1040
0.0
1040
1275.638889271348
1040
29.938707683615121
1040
0.0
1040
1275.638889271348
1040
29.938707683615121
1040
0.0
1040
1278.6980671966189
1040
30.594092034701589
1040
0.0
1040
1280.1457070527281
1040
30.73063178248367
1040
0.0
1040
1288.1739102574729
1040
28.811864443885948
1040
0.0
1040
1288.1739102574729
1040
28.811864443885948
1040
0.0
1040
1288.1739102574729
1040
28.811864443885948
1040
0.0
1040
1287.989974147107
1040
30.141658252965051
1040
0.0
1040
1288.0890242238411
1040
31.641229411994122
1040
0.0
1040
1288.0890242238411
1040
31.641229411994122
1040
0.0
1040
1288.0890242238411
1040
31.641229411994122
1040
0.0
1002
}
  0
TEXT
  5
56E
  8
DEFPOINTS
 10
1270.7693122472831
 20
58.999999999999552
 30
0.0
 40
4.0
  1
製図
  7
表題
 72
     2
 11
1281.3260132782109
 21
58.999999999999552
 31
0.0
  0
LINE
  5
570
  8
DEFPOINTS
 10
1060.0
 20
34.0
 30
0.0
 11
1142.0
 21
34.0
 31
0.0
  0
LINE
  5
571
  8
DEFPOINTS
 10
1060.0
 20
78.0
 30
0.0
 11
1142.0
 21
78.0
 31
0.0
  0
LINE
  5
572
  8
DEFPOINTS
 10
1142.0
 20
134.0
 30
0.0
 11
1142.0
 21
20.0
 31
0.0
  0
TEXT
  5
573
  8
DEFPOINTS
 10
1143.4613402061859
 20
58.90576480445862
 30
0.0
 40
4.0
  1
尺度
  7
表題
 72
     2
 11
1154.018041237113
 21
58.90576480445862
 31
0.0
  0
TEXT
  5
574
  8
DEFPOINTS
 10
1144.033813529727
 20
80.999999999999545
 30
0.0
 40
4.0
  1
熱処理
  7
表題
 72
     2
 11
1159.8688650761189
 21
80.999999999999545
 31
0.0
  0
LINE
  5
576
  8
DEFPOINTS
 10
1074.0
 20
134.0
 30
0.0
 11
1074.0
 21
20.0
 31
0.0
  0
LINE
  5
577
  8
DEFPOINTS
 10
1088.0
 20
134.0
 30
0.0
 11
1088.0
 21
20.0
 31
0.0
  0
LINE
  5
578
  8
DEFPOINTS
 10
1116.0
 20
134.0
 30
0.0
 11
1116.0
 21
20.0
 31
0.0
  0
LINE
  5
579
  8
DEFPOINTS
 10
1102.0
 20
134.0
 30
0.0
 11
1102.0
 21
20.0
 31
0.0
  0
LINE
  5
57A
  8
DEFPOINTS
 10
1130.0
 20
134.0
 30
0.0
 11
1130.0
 21
20.0
 31
0.0
  0
TEXT
  5
57B
  8
DEFPOINTS
 10
1139.0
 20
80.329896907216039
 30
0.0
 40
4.0
  1
年 月 日
 50
90.0
  7
表題
 72
     1
 11
1139.0
 21
89.999999999999545
 31
0.0
  0
TEXT
  5
57C
  8
DEFPOINTS
 10
1139.0
 20
37.525773195875843
 30
0.0
 40
4.0
  1
来歴　改訂記事
 50
90.0
  7
表題
 72
     1
 11
1139.0
 21
55.999999999999552
 31
0.0
  0
TEXT
  5
57D
  8
DEFPOINTS
 10
1139.0
 20
21.52354287618024
 30
0.0
 40
4.0
  1
記号
 50
90.0
  7
表題
 72
     2
 11
1139.0
 21
32.08024390710807
 31
0.0
  0
TEXT
  5
57E
  8
DEFPOINTS
 10
1139.0
 20
104.7216494845356
 30
0.0
 40
4.0
  1
氏名
 50
90.0
  7
表題
 72
     1
 11
1139.0
 21
109.9999999999995
 31
0.0
  0
TEXT
  5
57F
  8
DEFPOINTS
 10
1139.0
 20
120.7216494845356
 30
0.0
 40
4.0
  1
承認
 50
90.0
  7
表題
 72
     1
 11
1139.0
 21
125.9999999999995
 31
0.0
  0
LINE
  5
580
  8
DEFPOINTS
 10
1162.0
 20
134.0
 30
0.0
 11
1162.0
 21
85.999999999999545
 31
0.0
  0
TEXT
  5
581
  8
DEFPOINTS
 10
1207.0638061001559
 20
58.999999999999552
 30
0.0
 40
4.0
  1
検図
  7
表題
 72
     2
 11
1217.620507131084
 21
58.999999999999552
 31
0.0
  0
LINE
  5
582
  8
DEFPOINTS
 10
1190.0
 20
85.999999999999545
 30
0.0
 11
1190.0
 21
64.0
 31
0.0
  0
TEXT
  5
583
  8
DEFPOINTS
 10
1191.2698117426601
 20
80.999999999999545
 30
0.0
 40
4.0
  1
表面処理
  7
表題
 72
     2
 11
1212.383213804515
 21
80.999999999999545
 31
0.0
  0
LINE
  5
584
  8
DEFPOINTS
 10
1206.0
 20
64.0
 30
0.0
 11
1206.0
 21
20.0
 31
0.0
  0
LINE
  5
585
  8
DEFPOINTS
 10
1174.0
 20
64.0
 30
0.0
 11
1174.0
 21
20.0
 31
0.0
  0
TEXT
  5
586
  8
DEFPOINTS
 10
1174.7216494845361
 20
58.999999999999552
 30
0.0
 40
4.0
  1
承認
  7
表題
 72
     1
 11
1180.0
 21
58.999999999999552
 31
0.0
  0
LINE
  5
587
  8
DEFPOINTS
 10
1270.0
 20
85.999999999999545
 30
0.0
 11
1270.0
 21
41.999999999999538
 31
0.0
  0
TEXT
  5
588
  8
DEFPOINTS
 10
1238.721649484537
 20
80.999999999999545
 30
0.0
 40
4.0
  1
台数
  7
表題
 72
     1
 11
1244.0000000000009
 21
80.999999999999545
 31
0.0
  0
TEXT
  5
589
  8
DEFPOINTS
 10
1225.8228129900949
 20
28.318039390480411
 30
0.0
 40
5.0
  1
株式会社
  0
TEXT
  5
596
  8
DEFPOINTS
 10
1239.5847442277261
 20
58.999999999999552
 30
0.0
 40
4.0
  1
設計
  7
表題
 72
     2
 11
1250.1414452586539
 21
58.999999999999552
 31
0.0
  0
LINE
  5
597
  8
DEFPOINTS
 10
1238.0
 20
85.999999999999716
 30
0.0
 11
1238.0
 21
42.0
 31
0.0
  0
LINE
  5
598
  8
DEFPOINTS
 10
1234.0
 20
134.0
 30
0.0
 11
1234.0
 21
85.999999999999545
 31
0.0
  0
LINE
  5
59A
  8
DEFPOINTS
 10
1302.0
 20
134.0
 30
0.0
 11
1302.0
 21
20.0
 31
0.0
  0
TEXT
  5
59D
  8
DEFPOINTS
 10
1303.552177953402
 20
80.999999999999545
 30
0.0
 40
4.0
  1
名称
  7
表題
 72
     2
 11
1314.10887898433
 21
80.999999999999545
 31
0.0
  0
TEXT
  5
59E
  8
DEFPOINTS
 10
1303.9002106411519
 20
36.999999999999552
 30
0.0
 40
4.0
  1
図面番号
  7
表題
 72
     2
 11
1325.0136127030071
 21
36.999999999999552
 31
0.0
  0
LINE
  5
59F
  8
DEFPOINTS
 10
1282.0
 20
134.0
 30
0.0
 11
1282.0
 21
85.999999999999545
 31
0.0
  0
LINE
  5
5A0
  8
DEFPOINTS
 10
1322.0
 20
134.0
 30
0.0
 11
1322.0
 21
85.999999999999545
 31
0.0
  0
LINE
  5
5A1
  8
DEFPOINTS
 10
1342.0
 20
134.0
 30
0.0
 11
1342.0
 21
85.999999999999545
 31
0.0
  0
TEXT
  5
5A2
  8
DEFPOINTS
 10
1148.1181079394751
 20
23.252432152093661
 30
0.0
 40
7.5
  1
角法
  7
表題
  0
TEXT
  5
5A4
  8
DEFPOINTS
 10
1148.1181079394751
 20
33.252432152093661
 30
0.0
 40
7.5
  1
第３
  7
表題
  0
TEXT
  5
102B
  8
DEFPOINTS
 10
1180.6082474226801
 20
91.139175257731338
 30
0.0
 40
6.0
  1
部　品　名
  7
表題
  0
TEXT
  5
102C
  8
DEFPOINTS
 10
1245.0
 20
92.0
 30
0.0
 40
6.0
  1
材　 質
  7
表題
  0
TEXT
  5
102D
  8
DEFPOINTS
 10
1350.0
 20
91.000000000000028
 30
0.0
 40
6.0
  1
　摘　　　要
  7
表題
 72
     1
 11
1373.7525773195871
 21
91.000000000000028
 31
0.0
  0
TEXT
  5
102E
  8
DEFPOINTS
 10
1302.5734800632349
 20
94.806774942158384
 30
0.0
 40
3.0
  1
1セット分
  7
表題
 72
     2
 11
1321.3466759395239
 21
94.806774942158384
 31
0.0
  0
TEXT
  5
102F
  8
DEFPOINTS
 10
1308.409056037216
 20
89.670164660350054
 30
0.0
 40
3.0
  1
個数
  7
表題
 72
     2
 11
1316.3265818104121
 21
89.670164660350054
 31
0.0
  0
TEXT
  5
1030
  8
DEFPOINTS
 10
1285.644041939046
 20
94.80677494215864
 30
0.0
 40
3.0
  1
1台分
  7
表題
 72
     2
 11
1296.499712042139
 21
94.80677494215864
 31
0.0
  0
TEXT
  5
1031
  8
DEFPOINTS
 10
1287.409056037216
 20
89.670164660350309
 30
0.0
 40
3.0
  1
個数
  7
表題
 72
     2
 11
1295.326581810411
 21
89.670164660350309
 31
0.0
  0
TEXT
  5
1032
  8
DEFPOINTS
 10
1325.0
 20
91.000000000000028
 30
0.0
 40
6.0
  1
総数
  7
表題
  0
TEXT
  5
1033
  8
DEFPOINTS
 10
1144.2525773195871
 20
91.466761905627664
 30
0.0
 40
6.0
  1
番号
  7
表題
  0
LINE
  5
1091
  8
DEFPOINTS
  6
CENTER
 10
1014.0
 20
594.0
 30
0.0
 11
1014.0
 21
0.0
 31
0.0
  0
INSERT
  5
2DA2
  8
DEFPOINTS
  2
A$C0C1533B0
 10
1214.2928129900949
 20
26.298039390480881
 30
0.0
 41
2.0
 42
2.0
 43
2.0
  0
LINE
  5
45FC
  8
DEFPOINTS
 10
1393.0
 20
42.0
 30
0.0
 11
1393.0
 21
20.0
 31
0.0
  0
INSERT
  5
4647
  8
011形状
  2
*U36
 10
0.0
 20
0.0
 30
0.0
  0
INSERT
  5
4648
  8
011形状
  2
*U37
 10
0.0
 20
0.0
 30
0.0
  0
INSERT
  5
4649
  8
011形状
  2
*U38
 10
0.0
 20
0.0
 30
0.0
  0
INSERT
  5
4681
  8
011形状
  2
*U39
 10
0.0
 20
0.0
 30
0.0
  0
INSERT
  5
4682
  8
011形状
  2
*U40
 10
0.0
 20
0.0
 30
0.0
  0
INSERT
  5
4683
  8
011形状
  2
*U41
 10
0.0
 20
0.0
 30
0.0
  0
INSERT
  5
475A
  8
011形状
  2
*U42
 10
0.0
 20
0.0
 30
0.0
  0
INSERT
  5
4A69
  8
011形状
  2
*U43
 10
0.0
 20
0.0
 30
0.0
  0
INSERT
  5
4A7A
  8
011形状
  2
*U44
 10
0.0
 20
0.0
 30
0.0
  0
LINE
  5
5540
  8
003注釈
 62
     1
 10
1129.2928932188131
 20
20.70710678118655
 30
0.0
 11
1116.707106781186
 21
33.292893218813447
 31
0.0
  0
LINE
  5
5544
  8
003注釈
 62
     1
 10
1129.2928932188131
 20
102.7071067811865
 30
0.0
 11
1116.6560304674381
 21
117.2452655925477
 31
0.0
  0
LINE
  5
5545
  8
003注釈
 62
     1
 10
1129.2928932188131
 20
118.7071067811865
 30
0.0
 11
1116.6560304674381
 21
133.2452655925477
 31
0.0
  0
INSERT
  5
627B
  8
011形状
  2
*U45
 10
0.0
 20
0.0
 30
0.0
1001
ACAD
1000
DSTYLE
1002
{
1070
    41
1040
2.5
1002
}
  0
INSERT
  5
628A
  8
011形状
  2
*U46
 10
0.0
 20
0.0
 30
0.0
1001
ACAD
1000
DSTYLE
1002
{
1070
    41
1040
2.5
1002
}
  0
INSERT
  5
6470
  8
011形状
  2
*U47
 10
0.0
 20
0.0
 30
0.0
  0
INSERT
  5
6A96
  8
011形状
  2
*U48
 10
0.0
 20
0.0
 30
0.0
  0
INSERT
  5
6A97
  8
011形状
  2
*U49
 10
0.0
 20
0.0
 30
0.0
  0
INSERT
  5
6A99
  8
011形状
  2
*U50
 10
0.0
 20
0.0
 30
0.0
  0
INSERT
  5
6A9A
  8
011形状
  2
*U51
 10
0.0
 20
0.0
 30
0.0
  0
LINE
  5
7783
  8
011形状
 10
1390.597766718
 20
400.0
 30
0.0
 11
1392.597766718
 21
398.0
 31
0.0
  0
LINE
  5
7784
  8
011形状
 10
1389.597766718
 20
400.0
 30
0.0
 11
1390.597766718
 21
400.0
 31
0.0
  0
LINE
  5
7785
  8
011形状
  6
DASHED
 62
     1
 10
1389.597766718
 20
400.0
 30
0.0
 11
1389.597766718
 21
340.0
 31
0.0
  0
LINE
  5
7786
  8
011形状
 10
1392.597766718
 20
342.0
 30
0.0
 11
1390.597766718
 21
340.0
 31
0.0
  0
LINE
  5
7787
  8
011形状
 10
1390.597766718
 20
340.0
 30
0.0
 11
1389.597766718
 21
340.0
 31
0.0
  0
LINE
  5
7788
  8
011形状
 10
1392.597766718
 20
398.0
 30
0.0
 11
1392.597766718
 21
390.18448413199991
 31
0.0
  0
LINE
  5
7789
  8
011形状
 10
1392.597766718
 20
349.81551586799998
 30
0.0
 11
1392.597766718
 21
342.0
 31
0.0
  0
LINE
  5
778A
  8
011形状
  6
DASHED
 62
     1
 10
1392.597766718
 20
390.18448413199991
 30
0.0
 11
1392.597766718
 21
349.81551586799998
 31
0.0
  0
LINE
  5
778B
  8
011形状
 10
1242.2203545269999
 20
425.66573886999993
 30
0.0
 11
1242.9524053350001
 21
428.39778967799998
 31
0.0
  0
LINE
  5
778C
  8
011形状
 10
1242.7203545269999
 20
424.7997134659999
 30
0.0
 11
1242.2203545269999
 21
425.66573886999993
 31
0.0
  0
LINE
  5
778D
  8
011形状
  6
DASHED
 62
     1
 10
1242.7203545269999
 20
424.7997134659999
 30
0.0
 11
1294.6818787540001
 21
454.79971346600001
 31
0.0
  0
LINE
  5
778E
  8
011形状
 10
1291.4498279469999
 20
456.39778967799998
 30
0.0
 11
1294.1818787540001
 21
455.66573886999993
 31
0.0
  0
LINE
  5
778F
  8
011形状
 10
1294.1818787540001
 20
455.66573886999993
 30
0.0
 11
1294.6818787540001
 21
454.79971346600001
 31
0.0
  0
LINE
  5
7790
  8
011形状
 10
1242.9524053350001
 20
428.39778967799998
 30
0.0
 11
1249.72084062
 21
432.30554761199988
 31
0.0
  0
LINE
  5
7791
  8
011形状
 10
1284.681392662
 20
452.49003174400002
 30
0.0
 11
1291.4498279469999
 21
456.39778967799998
 31
0.0
  0
LINE
  5
7792
  8
011形状
  6
DASHED
 62
     1
 10
1249.72084062
 20
432.30554761199988
 30
0.0
 11
1284.681392662
 21
452.49003174400002
 31
0.0
  0
LINE
  5
7793
  8
011形状
 10
1294.1818787540001
 20
284.33426113000002
 30
0.0
 11
1291.4498279469999
 21
283.60221032200002
 31
0.0
  0
LINE
  5
7794
  8
011形状
 10
1294.6818787540001
 20
285.2002865340001
 30
0.0
 11
1294.1818787540001
 21
284.33426113000002
 31
0.0
  0
LINE
  5
7795
  8
011形状
  6
DASHED
 62
     1
 10
1294.6818787540001
 20
285.2002865340001
 30
0.0
 11
1242.7203545269999
 21
315.20028653399999
 31
0.0
  0
LINE
  5
7796
  8
011形状
 10
1242.9524053350001
 20
311.60221032200002
 30
0.0
 11
1242.2203545269999
 21
314.33426113000002
 31
0.0
  0
LINE
  5
7797
  8
011形状
 10
1242.2203545269999
 20
314.33426113000002
 30
0.0
 11
1242.7203545269999
 21
315.20028653399999
 31
0.0
  0
LINE
  5
7798
  8
011形状
 10
1291.4498279469999
 20
283.60221032200002
 30
0.0
 11
1284.681392662
 21
287.50996825599998
 31
0.0
  0
LINE
  5
7799
  8
011形状
 10
1249.72084062
 20
307.694452388
 30
0.0
 11
1242.9524053350001
 21
311.60221032200002
 31
0.0
  0
LINE
  5
779A
  8
011形状
  6
DASHED
 62
     1
 10
1284.681392662
 20
287.50996825599998
 30
0.0
 11
1249.72084062
 21
307.694452388
 31
0.0
  0
LINE
  5
779B
  8
011形状
 10
1202.5
 20
383.0
 30
0.0
 11
1202.5
 21
357.0
 31
0.0
  0
LINE
  5
779C
  8
011形状
 10
1190.0
 20
362.0
 30
0.0
 11
1190.0
 21
378.0
 31
0.0
  0
LINE
  5
779D
  8
011形状
 10
1201.0
 20
359.5
 30
0.0
 11
1201.0
 21
380.5
 31
0.0
  0
LINE
  5
779E
  8
011形状
 10
1202.5
 20
359.5
 30
0.0
 11
1202.5
 21
380.5
 31
0.0
  0
LINE
  5
779F
  8
011形状
 10
1201.0
 20
380.5
 30
0.0
 11
1202.5
 21
380.5
 31
0.0
  0
ARC
  5
77A0
  8
011形状
 10
1201.1025
 20
378.0
 30
0.0
 40
2.1025
 50
92.794362055005806
 51
267.20563794499418
  0
LINE
  5
77A1
  8
011形状
 10
1190.0
 20
378.0
 30
0.0
 11
1199.0
 21
378.0
 31
0.0
  0
LINE
  5
77A2
  8
001センタ
 10
1199.0
 20
378.0
 30
0.0
 11
1204.0
 21
378.0
 31
0.0
  0
LINE
  5
77A3
  8
011形状
 10
1201.0
 20
359.5
 30
0.0
 11
1202.5
 21
359.5
 31
0.0
  0
ARC
  5
77A4
  8
011形状
 10
1201.1025
 20
362.0
 30
0.0
 40
2.1025
 50
92.794362055005806
 51
267.20563794499418
  0
LINE
  5
77A5
  8
011形状
 10
1190.0
 20
362.0
 30
0.0
 11
1199.0
 21
362.0
 31
0.0
  0
LINE
  5
77A6
  8
001センタ
 10
1199.0
 20
362.0
 30
0.0
 11
1204.0
 21
362.0
 31
0.0
  0
LINE
  5
77A7
  8
011形状
 10
1202.5
 20
383.0
 30
0.0
 11
1200.0
 21
383.0
 31
0.0
  0
LINE
  5
77A8
  8
011形状
 10
1200.0
 20
357.0
 30
0.0
 11
1202.5
 21
357.0
 31
0.0
  0
LINE
  5
77A9
  8
011形状
 10
1200.0
 20
360.2097486209999
 30
0.0
 11
1200.0
 21
357.0
 31
0.0
  0
LINE
  5
77AA
  8
011形状
 10
1200.0
 20
383.0
 30
0.0
 11
1200.0
 21
379.79025137899998
 31
0.0
  0
LINE
  5
77AB
  8
011形状
 10
1200.0
 20
382.80000000000001
 30
0.0
 11
1199.0
 21
382.69999999999999
 31
0.0
  0
ARC
  5
77AC
  8
011形状
 10
1199.2
 20
381.80000000000001
 30
0.0
 40
0.9
 50
102.60000000000061
 51
153.3999999999975
  0
ARC
  5
77AD
  8
011形状
 10
1204.3
 20
380.0
 30
0.0
 40
6.2999999999999989
 50
159.3999999999966
 51
198.50940498199739
  0
LINE
  5
77AE
  8
001センタ
 10
1196.5
 20
380.0
 30
0.0
 11
1204.0
 21
380.0
 31
0.0
  0
LINE
  5
77AF
  8
011形状
 10
1200.0
 20
357.19999999999999
 30
0.0
 11
1199.0
 21
357.30000000000001
 31
0.0
  0
ARC
  5
77B0
  8
011形状
 10
1199.2
 20
358.19999999999999
 30
0.0
 40
0.9
 50
206.6000000000025
 51
257.39999999999941
  0
ARC
  5
77B1
  8
011形状
 10
1204.3
 20
360.0
 30
0.0
 40
6.2999999999999989
 50
161.49059501800261
 51
200.60000000000329
  0
LINE
  5
77B2
  8
001センタ
 10
1196.5
 20
360.0
 30
0.0
 11
1204.0
 21
360.0
 31
0.0
  0
LINE
  5
77B3
  8
011形状
 10
1202.5
 20
357.0
 30
0.0
 11
1223.9882361079999
 21
357.0
 31
0.0
  0
LINE
  5
77B4
  8
011形状
 10
1202.5
 20
383.0
 30
0.0
 11
1223.9882361079999
 21
383.0
 31
0.0
  0
LINE
  5
77B5
  8
011形状
 10
1204.8882504119999
 20
354.48476057800002
 30
0.0
 11
1215.8379576120001
 21
355.53543285299997
 31
0.0
  0
POINT
  5
77B6
  8
011形状
 10
1202.3921940770001
 20
364.79348032299998
 30
0.0
  0
LINE
  5
77B7
  8
011形状
 10
1203.347350691
 20
354.83920104999999
 30
0.0
 11
1204.840492582
 21
354.98247454199998
 31
0.0
  0
LINE
  5
77B8
  8
011形状
 10
1219.7719114910001
 20
356.41520946300011
 30
0.0
 11
1215.7901997819999
 21
356.03314681699999
 31
0.0
  0
LINE
  5
77B9
  8
001センタ
 10
1232.892131547
 20
362.69711729800002
 30
0.0
 11
1197.8926327470001
 21
359.338762379
 31
0.0
  0
LINE
  5
77BA
  8
011形状
 10
1204.6469021939999
 20
357.0
 30
0.0
 11
1204.8882504119999
 21
354.48476057800002
 31
0.0
  0
LINE
  5
77BB
  8
011形状
 10
1203.140012585
 20
357.0
 30
0.0
 11
1203.347350691
 21
354.83920104999999
 31
0.0
  0
LINE
  5
77BC
  8
011形状
 10
1219.7157982819999
 20
357.0
 30
0.0
 11
1219.7719114910001
 21
356.41520946300011
 31
0.0
  0
LINE
  5
77BD
  8
011形状
 10
1219.7719114910001
 20
356.41520946300011
 30
0.0
 11
1220.5923329279999
 21
357.0
 31
0.0
  0
LINE
  5
77BE
  8
011形状
 10
1215.8379576120001
 20
355.53543285299997
 30
0.0
 11
1215.697425992
 21
357.0
 31
0.0
  0
LINE
  5
77BF
  8
011形状
  6
DASHED
 62
     1
 10
1218.816754877
 20
366.36948873599999
 30
0.0
 11
1219.7157982819999
 21
357.0
 31
0.0
  0
LINE
  5
77C0
  8
011形状
  6
DASHED
 62
     1
 10
1215.697425992
 20
357.0
 30
0.0
 11
1214.787285337
 21
366.485140054
 31
0.0
  0
LINE
  5
77C1
  8
011形状
  6
DASHED
 62
     1
 10
1220.5923329279999
 20
357.0
 30
0.0
 11
1222.7576293489999
 21
358.54340781399998
 31
0.0
  0
LINE
  5
77C2
  8
011形状
  6
DASHED
 62
     1
 10
1214.8350431680001
 20
365.98742608999999
 30
0.0
 11
1218.816754877
 21
366.36948873599999
 31
0.0
  0
LINE
  5
77C3
  8
011形状
  6
DASHED
 62
     1
 10
1218.816754877
 20
366.36948873599999
 30
0.0
 11
1222.152687643
 21
364.84788039799997
 31
0.0
  0
LINE
  5
77C4
  8
011形状
  6
DASHED
 62
     1
 10
1214.787285337
 20
366.485140054
 30
0.0
 11
1203.837578137
 21
365.43446777800011
 31
0.0
  0
LINE
  5
77C5
  8
011形状
  6
DASHED
 62
     1
 10
1202.3921940770001
 20
364.79348032299998
 30
0.0
 11
1203.8853359679999
 21
364.93675381499997
 31
0.0
  0
POINT
  5
77C6
  8
011形状
  6
DASHED
 62
     1
 10
1203.8853359679999
 20
364.93675381499997
 30
0.0
  0
LINE
  5
77C7
  8
011形状
  6
DASHED
 62
     1
 10
1203.8853359679999
 20
364.93675381499997
 30
0.0
 11
1202.3921940770001
 21
364.79348032299998
 31
0.0
  0
LINE
  5
77C8
  8
011形状
  6
DASHED
 62
     1
 10
1203.837578137
 20
365.43446777800011
 30
0.0
 11
1204.6469021939999
 21
357.0
 31
0.0
  0
LINE
  5
77C9
  8
011形状
  6
DASHED
 62
     1
 10
1202.3921940770001
 20
364.79348032299998
 30
0.0
 11
1203.140012585
 21
357.0
 31
0.0
  0
LINE
  5
77CA
  8
011形状
 10
1299.0
 20
455.41662601600001
 30
0.0
 11
1299.0
 21
478.0
 31
0.0
  0
LINE
  5
77CB
  8
011形状
 10
1299.0
 20
478.0
 30
0.0
 11
1319.0
 21
478.0
 31
0.0
  0
LINE
  5
77CC
  8
011形状
 10
1299.0
 20
476.0
 30
0.0
 11
1319.0
 21
476.0
 31
0.0
  0
LINE
  5
77CD
  8
011形状
  6
DASHED
 62
     1
 10
1299.0
 20
474.0
 30
0.0
 11
1319.0
 21
474.0
 31
0.0
  0
LINE
  5
77CE
  8
011形状
  6
DASHED
 62
     1
 10
1299.0
 20
464.0
 30
0.0
 11
1319.0
 21
464.0
 31
0.0
  0
LINE
  5
77CF
  8
011形状
  6
DASHED
 62
     1
 10
1299.0
 20
460.0
 30
0.0
 11
1319.0
 21
460.0
 31
0.0
  0
LINE
  5
77D0
  8
001センタ
 10
1294.0
 20
469.0
 30
0.0
 11
1324.0
 21
469.0
 31
0.0
  0
LINE
  5
77D1
  8
011形状
 10
1319.0
 20
455.41662601600001
 30
0.0
 11
1319.0
 21
478.0
 31
0.0
  0
LINE
  5
77D2
  8
011形状
 10
1299.0
 20
284.58337398399999
 30
0.0
 11
1299.0
 21
262.0
 31
0.0
  0
LINE
  5
77D3
  8
011形状
 10
1299.0
 20
262.0
 30
0.0
 11
1319.0
 21
262.0
 31
0.0
  0
LINE
  5
77D4
  8
011形状
 10
1299.0
 20
264.0
 30
0.0
 11
1319.0
 21
264.0
 31
0.0
  0
LINE
  5
77D5
  8
011形状
  6
DASHED
 62
     1
 10
1299.0
 20
266.0
 30
0.0
 11
1319.0
 21
266.0
 31
0.0
  0
LINE
  5
77D6
  8
011形状
  6
DASHED
 62
     1
 10
1299.0
 20
276.0
 30
0.0
 11
1319.0
 21
276.0
 31
0.0
  0
LINE
  5
77D7
  8
011形状
  6
DASHED
 62
     1
 10
1299.0
 20
280.0
 30
0.0
 11
1319.0
 21
280.0
 31
0.0
  0
LINE
  5
77D8
  8
001センタ
 10
1294.0
 20
271.0
 30
0.0
 11
1324.0
 21
271.0
 31
0.0
  0
LINE
  5
77D9
  8
011形状
 10
1319.0
 20
284.58337398399999
 30
0.0
 11
1319.0
 21
262.0
 31
0.0
  0
CIRCLE
  5
77DA
  8
011形状
 10
1346.25
 20
305.48110741800002
 30
0.0
 40
3.5
  0
LINE
  5
77DB
  8
001センタ
 10
1349.0
 20
300.71796769700001
 30
0.0
 11
1343.5
 21
310.24424713899998
 31
0.0
  0
LINE
  5
77DC
  8
011形状
 10
1346.953589838
 20
303.46245406999998
 30
0.0
 11
1347.6464101619999
 21
303.86245407000001
 31
0.0
  0
LINE
  5
77DD
  8
011形状
 10
1348.268653348
 20
306.18469725699998
 30
0.0
 11
1347.868653348
 21
306.87751758000002
 31
0.0
  0
LINE
  5
77DE
  8
011形状
 10
1345.546410162
 20
307.49976076600001
 30
0.0
 11
1344.8535898380001
 21
307.09976076599997
 31
0.0
  0
LINE
  5
77DF
  8
011形状
 10
1344.631346652
 20
304.08469725700002
 30
0.0
 11
1344.231346652
 21
304.77751757999999
 31
0.0
  0
LINE
  5
77E0
  8
011形状
 10
1347.868653348
 20
306.87751758000002
 30
0.0
 11
1347.175833025
 21
306.47751757999998
 31
0.0
  0
LINE
  5
77E1
  8
011形状
 10
1348.268653348
 20
306.18469725699998
 30
0.0
 11
1347.5758330250001
 21
305.784697257
 31
0.0
  0
LINE
  5
77E2
  8
011形状
 10
1345.546410162
 20
307.49976076600001
 30
0.0
 11
1345.9464101619999
 21
306.80694044299997
 31
0.0
  0
LINE
  5
77E3
  8
011形状
 10
1344.231346652
 20
304.77751757999999
 30
0.0
 11
1344.9241669749999
 21
305.17751758000003
 31
0.0
  0
LINE
  5
77E4
  8
011形状
 10
1346.953589838
 20
303.46245406999998
 30
0.0
 11
1346.5535898380001
 21
304.15527439300001
 31
0.0
  0
LINE
  5
77E5
  8
011形状
 10
1344.8535898380001
 20
307.09976076599997
 30
0.0
 11
1345.2535898379999
 21
306.406940443
 31
0.0
  0
LINE
  5
77E6
  8
011形状
 10
1344.631346652
 20
304.08469725700002
 30
0.0
 11
1345.324166975
 21
304.48469725699999
 31
0.0
  0
LINE
  5
77E7
  8
011形状
 10
1347.6464101619999
 20
303.86245407000001
 30
0.0
 11
1347.2464101620001
 21
304.55527439299999
 31
0.0
  0
ARC
  5
77E8
  8
011形状
 10
1346.6892304850001
 20
307.12033790300001
 30
0.0
 40
0.8
 50
202.30000000000101
 51
307.69999999999982
  0
ARC
  5
77E9
  8
011形状
 10
1344.6107695149999
 20
305.92033790300002
 30
0.0
 40
0.8
 50
292.30000000000712
 51
37.699999999999839
  0
ARC
  5
77EA
  8
011形状
 10
1345.8107695149999
 20
303.84187693400003
 30
0.0
 40
0.8
 50
22.30000000000102
 51
127.6999999999997
  0
ARC
  5
77EB
  8
011形状
 10
1347.8892304850001
 20
305.04187693400002
 30
0.0
 40
0.8
 50
112.3000000000071
 51
217.6999999999999
  0
CIRCLE
  5
77EC
  8
011形状
 10
1346.25
 20
434.51889258199992
 30
0.0
 40
3.5
  0
LINE
  5
77ED
  8
001センタ
 10
1349.0
 20
439.28203230299999
 30
0.0
 11
1343.5
 21
429.75575286099991
 31
0.0
  0
LINE
  5
77EE
  8
011形状
 10
1347.6464101619999
 20
436.13754592999987
 30
0.0
 11
1346.953589838
 21
436.53754593000002
 31
0.0
  0
LINE
  5
77EF
  8
011形状
 10
1344.631346652
 20
435.91530274299998
 30
0.0
 11
1344.231346652
 21
435.22248242000001
 31
0.0
  0
LINE
  5
77F0
  8
011形状
 10
1344.8535898380001
 20
432.90023923400003
 30
0.0
 11
1345.546410162
 21
432.50023923399999
 31
0.0
  0
LINE
  5
77F1
  8
011形状
 10
1348.268653348
 20
433.81530274300002
 30
0.0
 11
1347.868653348
 21
433.12248241999993
 31
0.0
  0
LINE
  5
77F2
  8
011形状
 10
1344.231346652
 20
435.22248242000001
 30
0.0
 11
1344.9241669749999
 21
434.82248241999991
 31
0.0
  0
LINE
  5
77F3
  8
011形状
 10
1344.631346652
 20
435.91530274299998
 30
0.0
 11
1345.324166975
 21
435.51530274300001
 31
0.0
  0
LINE
  5
77F4
  8
011形状
 10
1344.8535898380001
 20
432.90023923400003
 30
0.0
 11
1345.2535898379999
 21
433.59305955699989
 31
0.0
  0
LINE
  5
77F5
  8
011形状
 10
1347.868653348
 20
433.12248241999993
 30
0.0
 11
1347.175833025
 21
433.5224824199999
 31
0.0
  0
LINE
  5
77F6
  8
011形状
 10
1347.6464101619999
 20
436.13754592999987
 30
0.0
 11
1347.2464101620001
 21
435.4447256069999
 31
0.0
  0
LINE
  5
77F7
  8
011形状
 10
1345.546410162
 20
432.50023923399999
 30
0.0
 11
1345.9464101619999
 21
433.19305955699991
 31
0.0
  0
LINE
  5
77F8
  8
011形状
 10
1348.268653348
 20
433.81530274300002
 30
0.0
 11
1347.5758330250001
 21
434.215302743
 31
0.0
  0
LINE
  5
77F9
  8
011形状
 10
1346.953589838
 20
436.53754593000002
 30
0.0
 11
1346.5535898380001
 21
435.84472560699987
 31
0.0
  0
ARC
  5
77FA
  8
011形状
 10
1344.6107695149999
 20
434.07966209699993
 30
0.0
 40
0.8
 50
322.30000000000018
 51
67.699999999992912
  0
ARC
  5
77FB
  8
011形状
 10
1346.6892304850001
 20
432.87966209699999
 30
0.0
 40
0.8
 50
52.300000000000239
 51
157.69999999999899
  0
ARC
  5
77FC
  8
011形状
 10
1347.8892304850001
 20
434.95812306599998
 30
0.0
 40
0.8
 50
142.3000000000001
 51
247.69999999999291
  0
ARC
  5
77FD
  8
011形状
 10
1345.8107695149999
 20
436.15812306599992
 30
0.0
 40
0.8
 50
232.30000000000021
 51
337.69999999999902
  0
CIRCLE
  5
77FE
  8
011形状
 10
1234.5
 20
370.0
 30
0.0
 40
3.5
  0
LINE
  5
77FF
  8
011形状
 10
1232.4000000000001
 20
370.39999999999998
 30
0.0
 11
1232.4000000000001
 21
369.60000000000002
 31
0.0
  0
LINE
  5
7800
  8
011形状
 10
1234.0999999999999
 20
367.89999999999998
 30
0.0
 11
1234.9000000000001
 21
367.89999999999998
 31
0.0
  0
LINE
  5
7801
  8
011形状
 10
1236.5999999999999
 20
369.60000000000002
 30
0.0
 11
1236.5999999999999
 21
370.39999999999998
 31
0.0
  0
LINE
  5
7802
  8
011形状
 10
1234.0999999999999
 20
372.10000000000002
 30
0.0
 11
1234.9000000000001
 21
372.10000000000002
 31
0.0
  0
LINE
  5
7803
  8
011形状
 10
1234.9000000000001
 20
367.89999999999998
 30
0.0
 11
1234.9000000000001
 21
368.69999999999999
 31
0.0
  0
LINE
  5
7804
  8
011形状
 10
1234.0999999999999
 20
367.89999999999998
 30
0.0
 11
1234.0999999999999
 21
368.69999999999999
 31
0.0
  0
LINE
  5
7805
  8
011形状
 10
1236.5999999999999
 20
369.60000000000002
 30
0.0
 11
1235.8
 21
369.60000000000002
 31
0.0
  0
LINE
  5
7806
  8
011形状
 10
1234.9000000000001
 20
372.10000000000002
 30
0.0
 11
1234.9000000000001
 21
371.30000000000001
 31
0.0
  0
LINE
  5
7807
  8
011形状
 10
1232.4000000000001
 20
370.39999999999998
 30
0.0
 11
1233.2
 21
370.39999999999998
 31
0.0
  0
LINE
  5
7808
  8
011形状
 10
1236.5999999999999
 20
370.39999999999998
 30
0.0
 11
1235.8
 21
370.39999999999998
 31
0.0
  0
LINE
  5
7809
  8
011形状
 10
1234.0999999999999
 20
372.10000000000002
 30
0.0
 11
1234.0999999999999
 21
371.30000000000001
 31
0.0
  0
LINE
  5
780A
  8
011形状
 10
1232.4000000000001
 20
369.60000000000002
 30
0.0
 11
1233.2
 21
369.60000000000002
 31
0.0
  0
ARC
  5
780B
  8
011形状
 10
1235.7
 20
368.80000000000001
 30
0.0
 40
0.8
 50
82.300000000000693
 51
187.69999999999851
  0
ARC
  5
780C
  8
011形状
 10
1235.7
 20
371.19999999999999
 30
0.0
 40
0.8
 50
172.30000000000149
 51
277.69999999999931
  0
ARC
  5
780D
  8
011形状
 10
1233.3
 20
371.19999999999999
 30
0.0
 40
0.8
 50
262.30000000000069
 51
7.6999999999984663
  0
ARC
  5
780E
  8
011形状
 10
1233.3
 20
368.80000000000001
 30
0.0
 40
0.8
 50
352.3000000000016
 51
97.699999999999321
  0
CIRCLE
  5
780F
  8
011形状
 10
1309.0
 20
370.0
 30
0.0
 40
86.0
  0
CIRCLE
  5
7810
  8
011形状
 10
1309.0
 20
370.0
 30
0.0
 40
84.500000000000014
  0
CIRCLE
  5
7811
  8
011形状
 10
1309.0
 20
370.0
 30
0.0
 40
81.0
  0
CIRCLE
  5
7812
  8
011形状
 10
1309.0
 20
370.0
 30
0.0
 40
80.0
  0
CIRCLE
  5
7813
  8
001センタ
 10
1309.0
 20
370.0
 30
0.0
 40
74.5
  0
LINE
  5
7814
  8
011形状
 10
1224.8933243649999
 20
347.74989632299997
 30
0.0
 11
1225.860067763
 21
348.005644641
 31
0.0
  0
ARC
  5
7815
  8
011形状
 10
1309.0
 20
370.0
 30
0.0
 40
87.0
 50
188.5936225989999
 51
194.8179310300014
  0
ARC
  5
7816
  8
011形状
 10
1309.0
 20
370.0
 30
0.0
 40
87.0
 50
171.40637740099999
 51
188.5936225989999
  0
CIRCLE
  5
7817
  8
011形状
 10
1309.0
 20
370.0
 30
0.0
 40
45.0
  0
CIRCLE
  5
7818
  8
011形状
 10
1309.0
 20
370.0
 30
0.0
 40
54.0
  0
CIRCLE
  5
7819
  8
011形状
 10
1309.0
 20
370.0
 30
0.0
 40
55.0
  0
CIRCLE
  5
781A
  8
011形状
 10
1309.0
 20
370.0
 30
0.0
 40
46.0
  0
LINE
  5
781B
  8
011形状
 10
1265.629503116
 20
382.0
 30
0.0
 11
1272.0
 21
382.0
 31
0.0
  0
LINE
  5
781C
  8
011形状
 10
1272.0
 20
382.0
 30
0.0
 11
1272.0
 21
358.0
 31
0.0
  0
ARC
  5
781D
  8
011形状
 10
1309.0
 20
370.0
 30
0.0
 40
43.0
 50
196.20469337699899
 51
163.79530662300101
  0
LINE
  5
781E
  8
011形状
 10
1224.8933243649999
 20
392.25010367700003
 30
0.0
 11
1225.860067763
 21
391.994355359
 31
0.0
  0
ARC
  5
781F
  8
011形状
 10
1309.0
 20
370.0
 30
0.0
 40
87.0
 50
165.18206896999851
 51
171.40637740099999
  0
LINE
  5
7820
  8
011形状
 10
1272.0
 20
358.0
 30
0.0
 11
1265.629503116
 21
358.0
 31
0.0
  0
LINE
  5
7821
  8
001センタ
 10
1405.0
 20
370.0
 30
0.0
 11
1180.0
 21
370.0
 31
0.0
  0
LINE
  5
7822
  8
011形状
 10
662.0
 20
415.0
 30
0.0
 11
660.0
 21
413.0
 31
0.0
  0
LINE
  5
7823
  8
011形状
 10
662.0
 20
325.0
 30
0.0
 11
660.0
 21
327.0
 31
0.0
  0
LINE
  5
7824
  8
011形状
 10
660.0
 20
413.0
 30
0.0
 11
660.0
 21
327.0
 31
0.0
  0
LINE
  5
7825
  8
011形状
 10
660.0
 20
358.0
 30
0.0
 11
763.0
 21
358.0
 31
0.0
  0
LINE
  5
7826
  8
011形状
 10
660.0
 20
382.0
 30
0.0
 11
763.0
 21
382.0
 31
0.0
  0
LINE
  5
7827
  8
011形状
 10
662.0
 20
415.0
 30
0.0
 11
662.0
 21
382.0
 31
0.0
  0
LINE
  5
7828
  8
011形状
 10
662.0
 20
358.0
 30
0.0
 11
662.0
 21
325.0
 31
0.0
  0
LINE
  5
7829
  8
011形状
 10
804.0
 20
373.5
 30
0.0
 11
804.0
 21
366.5
 31
0.0
  0
LINE
  5
782A
  8
011形状
 10
804.0
 20
373.5
 30
0.0
 11
802.79999999999995
 21
373.39999999999998
 31
0.0
  0
LINE
  5
782B
  8
011形状
 10
804.0
 20
366.5
 30
0.0
 11
802.79999999999995
 21
366.60000000000002
 31
0.0
  0
ARC
  5
782C
  8
011形状
 10
803.10000000000002
 20
368.10000000000002
 30
0.0
 40
1.5
 50
202.39999999999949
 51
259.00000000000063
  0
ARC
  5
782D
  8
011形状
 10
803.10000000000002
 20
371.89999999999998
 30
0.0
 40
1.5
 50
100.9999999999994
 51
157.60000000000051
  0
ARC
  5
782E
  8
011形状
 10
811.20000000000005
 20
370.0
 30
0.0
 40
9.8000000000000007
 50
165.69999999999899
 51
194.20000000000019
  0
LINE
  5
782F
  8
011形状
 10
805.49999999999989
 20
456.0
 30
0.0
 11
805.49999999999989
 21
456.0
 31
0.0
  0
LINE
  5
7830
  8
011形状
 10
804.0
 20
454.49999999999989
 30
0.0
 11
805.49999999999989
 21
456.0
 31
0.0
  0
LINE
  5
7831
  8
011形状
 10
804.0
 20
285.5
 30
0.0
 11
805.49999999999989
 21
284.0
 31
0.0
  0
LINE
  5
7832
  8
011形状
 10
805.49999999999989
 20
284.0
 30
0.0
 11
805.49999999999989
 21
456.0
 31
0.0
  0
LINE
  5
7833
  8
011形状
 10
804.0
 20
454.49999999999989
 30
0.0
 11
804.0
 21
285.5
 31
0.0
  0
LINE
  5
7834
  8
011形状
 10
933.0
 20
373.5
 30
0.0
 11
933.0
 21
366.5
 31
0.0
  0
LINE
  5
7835
  8
011形状
 10
933.0
 20
373.5
 30
0.0
 11
934.20000000000005
 21
373.39999999999998
 31
0.0
  0
LINE
  5
7836
  8
011形状
 10
933.0
 20
366.5
 30
0.0
 11
934.20000000000005
 21
366.60000000000002
 31
0.0
  0
ARC
  5
7837
  8
011形状
 10
933.89999999999998
 20
368.10000000000002
 30
0.0
 40
1.5
 50
280.99999999999937
 51
337.60000000000048
  0
ARC
  5
7838
  8
011形状
 10
933.89999999999998
 20
371.89999999999998
 30
0.0
 40
1.5
 50
22.39999999999948
 51
79.000000000000554
  0
ARC
  5
7839
  8
011形状
 10
925.79999999999995
 20
370.0
 30
0.0
 40
9.8000000000000007
 50
345.79999999999978
 51
14.30000000000099
  0
LINE
  5
783A
  8
011形状
 10
932.0
 20
451.0
 30
0.0
 11
933.0
 21
450.0
 31
0.0
  0
LINE
  5
783B
  8
011形状
 10
932.0
 20
454.49999999999989
 30
0.0
 11
930.49999999999989
 21
456.0
 31
0.0
  0
LINE
  5
783C
  8
011形状
 10
933.0
 20
290.0
 30
0.0
 11
932.0
 21
289.0
 31
0.0
  0
LINE
  5
783D
  8
011形状
 10
930.49999999999989
 20
284.0
 30
0.0
 11
932.0
 21
285.5
 31
0.0
  0
LINE
  5
783E
  8
011形状
 10
933.0
 20
450.0
 30
0.0
 11
933.0
 21
290.0
 31
0.0
  0
LINE
  5
783F
  8
011形状
 10
932.0
 20
285.5
 30
0.0
 11
932.0
 21
454.49999999999989
 31
0.0
  0
LINE
  5
7840
  8
011形状
 10
930.49999999999989
 20
456.0
 30
0.0
 11
930.49999999999989
 21
284.0
 31
0.0
  0
ARC
  5
7841
  8
011形状
 10
844.5
 20
378.31021434299998
 30
0.0
 40
3.2000000000000002
 50
303.1528879289944
 51
236.8471120710056
  0
LINE
  5
7842
  8
011形状
 10
861.5
 20
357.0
 30
0.0
 11
910.5
 21
357.0
 31
0.0
  0
LINE
  5
7843
  8
011形状
 10
910.5
 20
357.0
 30
0.0
 11
910.5
 21
383.0
 31
0.0
  0
LINE
  5
7844
  8
011形状
 10
910.5
 20
383.0
 30
0.0
 11
861.5
 21
383.0
 31
0.0
  0
LINE
  5
7845
  8
011形状
 10
861.5
 20
383.0
 30
0.0
 11
861.5
 21
357.0
 31
0.0
  0
LINE
  5
7846
  8
011形状
 10
887.5
 20
383.0
 30
0.0
 11
887.5
 21
357.0
 31
0.0
  0
CIRCLE
  5
7847
  8
011形状
 10
864.49999999999989
 20
380.0
 30
0.0
 40
2.7999999999999989
  0
LINE
  5
7848
  8
001センタ
 10
860.20000000000005
 20
380.0
 30
0.0
 11
868.79999999999995
 21
380.0
 31
0.0
  0
LINE
  5
7849
  8
001センタ
 10
864.49999999999989
 20
375.69999999999999
 30
0.0
 11
864.49999999999989
 21
384.30000000000001
 31
0.0
  0
LINE
  5
784A
  8
011形状
 10
864.79999999999995
 20
378.19999999999999
 30
0.0
 11
864.20000000000005
 21
378.19999999999999
 31
0.0
  0
LINE
  5
784B
  8
011形状
 10
862.70000000000005
 20
379.69999999999999
 30
0.0
 11
862.70000000000005
 21
380.30000000000001
 31
0.0
  0
LINE
  5
784C
  8
011形状
 10
864.79999999999995
 20
381.80000000000001
 30
0.0
 11
864.20000000000005
 21
381.80000000000001
 31
0.0
  0
LINE
  5
784D
  8
011形状
 10
866.29999999999995
 20
379.69999999999999
 30
0.0
 11
866.29999999999995
 21
380.30000000000001
 31
0.0
  0
LINE
  5
784E
  8
011形状
 10
864.79999999999995
 20
381.80000000000001
 30
0.0
 11
864.79999999999995
 21
381.19999999999999
 31
0.0
  0
LINE
  5
784F
  8
011形状
 10
866.29999999999995
 20
380.30000000000001
 30
0.0
 11
865.70000000000005
 21
380.30000000000001
 31
0.0
  0
LINE
  5
7850
  8
011形状
 10
866.29999999999995
 20
379.69999999999999
 30
0.0
 11
865.70000000000005
 21
379.69999999999999
 31
0.0
  0
LINE
  5
7851
  8
011形状
 10
864.20000000000005
 20
378.19999999999999
 30
0.0
 11
864.20000000000005
 21
378.80000000000001
 31
0.0
  0
LINE
  5
7852
  8
011形状
 10
862.70000000000005
 20
380.30000000000001
 30
0.0
 11
863.29999999999995
 21
380.30000000000001
 31
0.0
  0
LINE
  5
7853
  8
011形状
 10
864.79999999999995
 20
381.80000000000001
 30
0.0
 11
864.79999999999995
 21
381.19999999999999
 31
0.0
  0
LINE
  5
7854
  8
011形状
 10
864.20000000000005
 20
381.80000000000001
 30
0.0
 11
864.20000000000005
 21
381.19999999999999
 31
0.0
  0
LINE
  5
7855
  8
011形状
 10
862.70000000000005
 20
379.69999999999999
 30
0.0
 11
863.29999999999995
 21
379.69999999999999
 31
0.0
  0
LINE
  5
7856
  8
011形状
 10
864.79999999999995
 20
378.19999999999999
 30
0.0
 11
864.79999999999995
 21
378.80000000000001
 31
0.0
  0
ARC
  5
7857
  8
011形状
 10
863.39999999999998
 20
381.10000000000002
 30
0.0
 40
0.8
 50
262.30000000000069
 51
7.6999999999984663
  0
ARC
  5
7858
  8
011形状
 10
863.39999999999998
 20
378.89999999999998
 30
0.0
 40
0.8
 50
352.3000000000016
 51
97.699999999999321
  0
ARC
  5
7859
  8
011形状
 10
865.60000000000002
 20
378.89999999999998
 30
0.0
 40
0.8
 50
82.300000000000693
 51
187.69999999999851
  0
ARC
  5
785A
  8
011形状
 10
865.60000000000002
 20
381.10000000000002
 30
0.0
 40
0.8
 50
172.30000000000149
 51
277.69999999999931
  0
CIRCLE
  5
785B
  8
011形状
 10
884.5
 20
380.0
 30
0.0
 40
2.7999999999999989
  0
LINE
  5
785C
  8
001センタ
 10
880.20000000000005
 20
380.0
 30
0.0
 11
888.79999999999995
 21
380.0
 31
0.0
  0
LINE
  5
785D
  8
001センタ
 10
884.5
 20
375.69999999999999
 30
0.0
 11
884.5
 21
384.30000000000001
 31
0.0
  0
LINE
  5
785E
  8
011形状
 10
884.79999999999984
 20
378.19999999999999
 30
0.0
 11
884.20000000000005
 21
378.19999999999999
 31
0.0
  0
LINE
  5
785F
  8
011形状
 10
882.69999999999993
 20
379.69999999999999
 30
0.0
 11
882.69999999999993
 21
380.30000000000001
 31
0.0
  0
LINE
  5
7860
  8
011形状
 10
884.79999999999984
 20
381.80000000000001
 30
0.0
 11
884.20000000000005
 21
381.80000000000001
 31
0.0
  0
LINE
  5
7861
  8
011形状
 10
886.29999999999995
 20
379.69999999999999
 30
0.0
 11
886.29999999999995
 21
380.30000000000001
 31
0.0
  0
LINE
  5
7862
  8
011形状
 10
884.79999999999984
 20
381.80000000000001
 30
0.0
 11
884.79999999999984
 21
381.19999999999999
 31
0.0
  0
LINE
  5
7863
  8
011形状
 10
886.29999999999995
 20
380.30000000000001
 30
0.0
 11
885.70000000000005
 21
380.30000000000001
 31
0.0
  0
LINE
  5
7864
  8
011形状
 10
886.29999999999995
 20
379.69999999999999
 30
0.0
 11
885.70000000000005
 21
379.69999999999999
 31
0.0
  0
LINE
  5
7865
  8
011形状
 10
884.20000000000005
 20
378.19999999999999
 30
0.0
 11
884.20000000000005
 21
378.80000000000001
 31
0.0
  0
LINE
  5
7866
  8
011形状
 10
882.69999999999993
 20
380.30000000000001
 30
0.0
 11
883.29999999999995
 21
380.30000000000001
 31
0.0
  0
LINE
  5
7867
  8
011形状
 10
884.79999999999984
 20
381.80000000000001
 30
0.0
 11
884.79999999999984
 21
381.19999999999999
 31
0.0
  0
LINE
  5
7868
  8
011形状
 10
884.20000000000005
 20
381.80000000000001
 30
0.0
 11
884.20000000000005
 21
381.19999999999999
 31
0.0
  0
LINE
  5
7869
  8
011形状
 10
882.69999999999993
 20
379.69999999999999
 30
0.0
 11
883.29999999999995
 21
379.69999999999999
 31
0.0
  0
LINE
  5
786A
  8
011形状
 10
884.79999999999984
 20
378.19999999999999
 30
0.0
 11
884.79999999999984
 21
378.80000000000001
 31
0.0
  0
ARC
  5
786B
  8
011形状
 10
883.39999999999986
 20
381.10000000000002
 30
0.0
 40
0.8
 50
262.30000000000069
 51
7.6999999999984663
  0
ARC
  5
786C
  8
011形状
 10
883.39999999999986
 20
378.89999999999998
 30
0.0
 40
0.8
 50
352.3000000000016
 51
97.699999999999321
  0
ARC
  5
786D
  8
011形状
 10
885.59999999999991
 20
378.89999999999998
 30
0.0
 40
0.8
 50
82.300000000000693
 51
187.69999999999851
  0
ARC
  5
786E
  8
011形状
 10
885.59999999999991
 20
381.10000000000002
 30
0.0
 40
0.8
 50
172.30000000000149
 51
277.69999999999931
  0
CIRCLE
  5
786F
  8
011形状
 10
864.49999999999989
 20
360.0
 30
0.0
 40
2.7999999999999989
  0
LINE
  5
7870
  8
001センタ
 10
860.20000000000005
 20
360.0
 30
0.0
 11
868.79999999999995
 21
360.0
 31
0.0
  0
LINE
  5
7871
  8
001センタ
 10
864.49999999999989
 20
364.30000000000001
 30
0.0
 11
864.49999999999989
 21
355.69999999999999
 31
0.0
  0
LINE
  5
7872
  8
011形状
 10
864.79999999999995
 20
361.80000000000001
 30
0.0
 11
864.20000000000005
 21
361.80000000000001
 31
0.0
  0
LINE
  5
7873
  8
011形状
 10
862.70000000000005
 20
360.30000000000001
 30
0.0
 11
862.70000000000005
 21
359.69999999999999
 31
0.0
  0
LINE
  5
7874
  8
011形状
 10
864.79999999999995
 20
358.19999999999999
 30
0.0
 11
864.20000000000005
 21
358.19999999999999
 31
0.0
  0
LINE
  5
7875
  8
011形状
 10
866.29999999999995
 20
360.30000000000001
 30
0.0
 11
866.29999999999995
 21
359.69999999999999
 31
0.0
  0
LINE
  5
7876
  8
011形状
 10
864.79999999999995
 20
358.19999999999999
 30
0.0
 11
864.79999999999995
 21
358.80000000000001
 31
0.0
  0
LINE
  5
7877
  8
011形状
 10
866.29999999999995
 20
359.69999999999999
 30
0.0
 11
865.70000000000005
 21
359.69999999999999
 31
0.0
  0
LINE
  5
7878
  8
011形状
 10
866.29999999999995
 20
360.30000000000001
 30
0.0
 11
865.70000000000005
 21
360.30000000000001
 31
0.0
  0
LINE
  5
7879
  8
011形状
 10
864.20000000000005
 20
361.80000000000001
 30
0.0
 11
864.20000000000005
 21
361.19999999999999
 31
0.0
  0
LINE
  5
787A
  8
011形状
 10
862.70000000000005
 20
359.69999999999999
 30
0.0
 11
863.29999999999995
 21
359.69999999999999
 31
0.0
  0
LINE
  5
787B
  8
011形状
 10
864.79999999999995
 20
358.19999999999999
 30
0.0
 11
864.79999999999995
 21
358.80000000000001
 31
0.0
  0
LINE
  5
787C
  8
011形状
 10
864.20000000000005
 20
358.19999999999999
 30
0.0
 11
864.20000000000005
 21
358.80000000000001
 31
0.0
  0
LINE
  5
787D
  8
011形状
 10
862.70000000000005
 20
360.30000000000001
 30
0.0
 11
863.29999999999995
 21
360.30000000000001
 31
0.0
  0
LINE
  5
787E
  8
011形状
 10
864.79999999999995
 20
361.80000000000001
 30
0.0
 11
864.79999999999995
 21
361.19999999999999
 31
0.0
  0
ARC
  5
787F
  8
011形状
 10
863.39999999999998
 20
358.89999999999998
 30
0.0
 40
0.8
 50
352.3000000000016
 51
97.699999999999321
  0
ARC
  5
7880
  8
011形状
 10
863.39999999999998
 20
361.10000000000002
 30
0.0
 40
0.8
 50
262.30000000000069
 51
7.6999999999984663
  0
ARC
  5
7881
  8
011形状
 10
865.60000000000002
 20
361.10000000000002
 30
0.0
 40
0.8
 50
172.30000000000149
 51
277.69999999999931
  0
ARC
  5
7882
  8
011形状
 10
865.60000000000002
 20
358.89999999999998
 30
0.0
 40
0.8
 50
82.300000000000693
 51
187.69999999999851
  0
CIRCLE
  5
7883
  8
011形状
 10
884.5
 20
360.0
 30
0.0
 40
2.7999999999999989
  0
LINE
  5
7884
  8
001センタ
 10
880.20000000000005
 20
360.0
 30
0.0
 11
888.79999999999995
 21
360.0
 31
0.0
  0
LINE
  5
7885
  8
001センタ
 10
884.5
 20
364.30000000000001
 30
0.0
 11
884.5
 21
355.69999999999999
 31
0.0
  0
LINE
  5
7886
  8
011形状
 10
884.79999999999984
 20
361.80000000000001
 30
0.0
 11
884.20000000000005
 21
361.80000000000001
 31
0.0
  0
LINE
  5
7887
  8
011形状
 10
882.69999999999993
 20
360.30000000000001
 30
0.0
 11
882.69999999999993
 21
359.69999999999999
 31
0.0
  0
LINE
  5
7888
  8
011形状
 10
884.79999999999984
 20
358.19999999999999
 30
0.0
 11
884.20000000000005
 21
358.19999999999999
 31
0.0
  0
LINE
  5
7889
  8
011形状
 10
886.29999999999995
 20
360.30000000000001
 30
0.0
 11
886.29999999999995
 21
359.69999999999999
 31
0.0
  0
LINE
  5
788A
  8
011形状
 10
884.79999999999984
 20
358.19999999999999
 30
0.0
 11
884.79999999999984
 21
358.80000000000001
 31
0.0
  0
LINE
  5
788B
  8
011形状
 10
886.29999999999995
 20
359.69999999999999
 30
0.0
 11
885.70000000000005
 21
359.69999999999999
 31
0.0
  0
LINE
  5
788C
  8
011形状
 10
886.29999999999995
 20
360.30000000000001
 30
0.0
 11
885.70000000000005
 21
360.30000000000001
 31
0.0
  0
LINE
  5
788D
  8
011形状
 10
884.20000000000005
 20
361.80000000000001
 30
0.0
 11
884.20000000000005
 21
361.19999999999999
 31
0.0
  0
LINE
  5
788E
  8
011形状
 10
882.69999999999993
 20
359.69999999999999
 30
0.0
 11
883.29999999999995
 21
359.69999999999999
 31
0.0
  0
LINE
  5
788F
  8
011形状
 10
884.79999999999984
 20
358.19999999999999
 30
0.0
 11
884.79999999999984
 21
358.80000000000001
 31
0.0
  0
LINE
  5
7890
  8
011形状
 10
884.20000000000005
 20
358.19999999999999
 30
0.0
 11
884.20000000000005
 21
358.80000000000001
 31
0.0
  0
LINE
  5
7891
  8
011形状
 10
882.69999999999993
 20
360.30000000000001
 30
0.0
 11
883.29999999999995
 21
360.30000000000001
 31
0.0
  0
LINE
  5
7892
  8
011形状
 10
884.79999999999984
 20
361.80000000000001
 30
0.0
 11
884.79999999999984
 21
361.19999999999999
 31
0.0
  0
ARC
  5
7893
  8
011形状
 10
883.39999999999986
 20
358.89999999999998
 30
0.0
 40
0.8
 50
352.3000000000016
 51
97.699999999999321
  0
ARC
  5
7894
  8
011形状
 10
883.39999999999986
 20
361.10000000000002
 30
0.0
 40
0.8
 50
262.30000000000069
 51
7.6999999999984663
  0
ARC
  5
7895
  8
011形状
 10
885.59999999999991
 20
361.10000000000002
 30
0.0
 40
0.8
 50
172.30000000000149
 51
277.69999999999931
  0
ARC
  5
7896
  8
011形状
 10
885.59999999999991
 20
358.89999999999998
 30
0.0
 40
0.8
 50
82.300000000000693
 51
187.69999999999851
  0
LINE
  5
7897
  8
001センタ
 10
899.0
 20
383.0
 30
0.0
 11
899.0
 21
357.0
 31
0.0
  0
CIRCLE
  5
7898
  8
011形状
 10
899.0
 20
370.0
 30
0.0
 40
8.0
  0
CIRCLE
  5
7899
  8
011形状
 10
899.0
 20
370.0
 30
0.0
 40
6.4000000000000004
  0
CIRCLE
  5
789A
  8
011形状
 10
899.0
 20
370.0
 30
0.0
 40
5.0
  0
LINE
  5
789B
  8
011形状
 10
888.49999999999989
 20
378.5
 30
0.0
 11
888.49999999999989
 21
361.5
 31
0.0
  0
ARC
  5
789C
  8
011形状
 10
890.49999999999989
 20
378.5
 30
0.0
 40
2.0
 50
90.0
 51
180.0
  0
LINE
  5
789D
  8
011形状
 10
907.50000000000011
 20
380.5
 30
0.0
 11
890.49999999999989
 21
380.5
 31
0.0
  0
CIRCLE
  5
789E
  8
011形状
 10
891.0
 20
378.0
 30
0.0
 40
2.1000000000000001
  0
LINE
  5
789F
  8
011形状
 10
892.25999999999999
 20
378.20999999999998
 30
0.0
 11
892.25999999999999
 21
377.79000000000002
 31
0.0
  0
LINE
  5
78A0
  8
011形状
 10
891.21000000000004
 20
376.74000000000001
 30
0.0
 11
890.78999999999985
 21
376.74000000000001
 31
0.0
  0
LINE
  5
78A1
  8
011形状
 10
889.74000000000012
 20
378.20999999999998
 30
0.0
 11
889.74000000000012
 21
377.79000000000002
 31
0.0
  0
LINE
  5
78A2
  8
011形状
 10
891.21000000000004
 20
379.25999999999999
 30
0.0
 11
890.78999999999985
 21
379.25999999999999
 31
0.0
  0
LINE
  5
78A3
  8
011形状
 10
889.74000000000012
 20
378.20999999999998
 30
0.0
 11
890.15999999999997
 21
378.20999999999998
 31
0.0
  0
LINE
  5
78A4
  8
011形状
 10
890.78999999999985
 20
379.25999999999999
 30
0.0
 11
890.78999999999985
 21
378.83999999999997
 31
0.0
  0
LINE
  5
78A5
  8
011形状
 10
891.21000000000004
 20
379.25999999999999
 30
0.0
 11
891.21000000000004
 21
378.83999999999997
 31
0.0
  0
LINE
  5
78A6
  8
011形状
 10
892.25999999999999
 20
377.79000000000002
 30
0.0
 11
891.84000000000003
 21
377.79000000000002
 31
0.0
  0
LINE
  5
78A7
  8
011形状
 10
890.78999999999985
 20
376.74000000000001
 30
0.0
 11
890.78999999999985
 21
377.16000000000003
 31
0.0
  0
LINE
  5
78A8
  8
011形状
 10
889.74000000000012
 20
378.20999999999998
 30
0.0
 11
890.15999999999997
 21
378.20999999999998
 31
0.0
  0
LINE
  5
78A9
  8
011形状
 10
889.74000000000012
 20
377.79000000000002
 30
0.0
 11
890.15999999999997
 21
377.79000000000002
 31
0.0
  0
LINE
  5
78AA
  8
011形状
 10
891.21000000000004
 20
376.74000000000001
 30
0.0
 11
891.21000000000004
 21
377.16000000000003
 31
0.0
  0
LINE
  5
78AB
  8
011形状
 10
892.25999999999999
 20
378.20999999999998
 30
0.0
 11
891.84000000000003
 21
378.20999999999998
 31
0.0
  0
ARC
  5
78AC
  8
011形状
 10
890.23000000000002
 20
377.23000000000002
 30
0.0
 40
0.5600000000000001
 50
352.3000000000016
 51
97.699999999999321
  0
ARC
  5
78AD
  8
011形状
 10
891.76999999999987
 20
377.23000000000002
 30
0.0
 40
0.5600000000000001
 50
82.300000000000693
 51
187.69999999999851
  0
ARC
  5
78AE
  8
011形状
 10
891.76999999999987
 20
378.76999999999998
 30
0.0
 40
0.5600000000000001
 50
172.30000000000149
 51
277.69999999999931
  0
ARC
  5
78AF
  8
011形状
 10
890.23000000000002
 20
378.76999999999998
 30
0.0
 40
0.5600000000000001
 50
262.30000000000069
 51
7.6999999999984663
  0
LINE
  5
78B0
  8
001センタ
 10
891.0
 20
380.5
 30
0.0
 11
891.0
 21
375.5
 31
0.0
  0
LINE
  5
78B1
  8
001センタ
 10
893.5
 20
378.0
 30
0.0
 11
888.49999999999989
 21
378.0
 31
0.0
  0
LINE
  5
78B2
  8
011形状
 10
909.5
 20
378.5
 30
0.0
 11
909.5
 21
361.5
 31
0.0
  0
ARC
  5
78B3
  8
011形状
 10
907.50000000000011
 20
378.5
 30
0.0
 40
2.0
 50
0.0
 51
90.0
  0
CIRCLE
  5
78B4
  8
011形状
 10
907.0
 20
378.0
 30
0.0
 40
2.1000000000000001
  0
LINE
  5
78B5
  8
011形状
 10
908.25999999999988
 20
378.20999999999998
 30
0.0
 11
908.25999999999988
 21
377.79000000000002
 31
0.0
  0
LINE
  5
78B6
  8
011形状
 10
907.21000000000004
 20
376.74000000000001
 30
0.0
 11
906.78999999999985
 21
376.74000000000001
 31
0.0
  0
LINE
  5
78B7
  8
011形状
 10
905.7399999999999
 20
378.20999999999998
 30
0.0
 11
905.7399999999999
 21
377.79000000000002
 31
0.0
  0
LINE
  5
78B8
  8
011形状
 10
907.21000000000004
 20
379.25999999999999
 30
0.0
 11
906.78999999999985
 21
379.25999999999999
 31
0.0
  0
LINE
  5
78B9
  8
011形状
 10
905.7399999999999
 20
378.20999999999998
 30
0.0
 11
906.15999999999997
 21
378.20999999999998
 31
0.0
  0
LINE
  5
78BA
  8
011形状
 10
906.78999999999985
 20
379.25999999999999
 30
0.0
 11
906.78999999999985
 21
378.83999999999997
 31
0.0
  0
LINE
  5
78BB
  8
011形状
 10
907.21000000000004
 20
379.25999999999999
 30
0.0
 11
907.21000000000004
 21
378.83999999999997
 31
0.0
  0
LINE
  5
78BC
  8
011形状
 10
908.25999999999988
 20
377.79000000000002
 30
0.0
 11
907.84000000000003
 21
377.79000000000002
 31
0.0
  0
LINE
  5
78BD
  8
011形状
 10
906.78999999999985
 20
376.74000000000001
 30
0.0
 11
906.78999999999985
 21
377.16000000000003
 31
0.0
  0
LINE
  5
78BE
  8
011形状
 10
905.7399999999999
 20
378.20999999999998
 30
0.0
 11
906.15999999999997
 21
378.20999999999998
 31
0.0
  0
LINE
  5
78BF
  8
011形状
 10
905.7399999999999
 20
377.79000000000002
 30
0.0
 11
906.15999999999997
 21
377.79000000000002
 31
0.0
  0
LINE
  5
78C0
  8
011形状
 10
907.21000000000004
 20
376.74000000000001
 30
0.0
 11
907.21000000000004
 21
377.16000000000003
 31
0.0
  0
LINE
  5
78C1
  8
011形状
 10
908.25999999999988
 20
378.20999999999998
 30
0.0
 11
907.84000000000003
 21
378.20999999999998
 31
0.0
  0
ARC
  5
78C2
  8
011形状
 10
906.23000000000002
 20
377.23000000000002
 30
0.0
 40
0.5600000000000001
 50
352.3000000000016
 51
97.699999999999321
  0
ARC
  5
78C3
  8
011形状
 10
907.76999999999998
 20
377.23000000000002
 30
0.0
 40
0.5600000000000001
 50
82.300000000000693
 51
187.69999999999851
  0
ARC
  5
78C4
  8
011形状
 10
907.76999999999998
 20
378.76999999999998
 30
0.0
 40
0.5600000000000001
 50
172.30000000000149
 51
277.69999999999931
  0
ARC
  5
78C5
  8
011形状
 10
906.23000000000002
 20
378.76999999999998
 30
0.0
 40
0.5600000000000001
 50
262.30000000000069
 51
7.6999999999984663
  0
LINE
  5
78C6
  8
001センタ
 10
909.5
 20
378.0
 30
0.0
 11
904.49999999999989
 21
378.0
 31
0.0
  0
LINE
  5
78C7
  8
001センタ
 10
907.0
 20
380.64999999999998
 30
0.0
 11
907.0
 21
375.35000000000002
 31
0.0
  0
LINE
  5
78C8
  8
011形状
 10
907.50000000000011
 20
359.5
 30
0.0
 11
890.49999999999989
 21
359.5
 31
0.0
  0
ARC
  5
78C9
  8
011形状
 10
907.50000000000011
 20
361.5
 30
0.0
 40
2.0
 50
270.0
 51
0.0
  0
CIRCLE
  5
78CA
  8
011形状
 10
907.0
 20
362.0
 30
0.0
 40
2.1000000000000001
  0
LINE
  5
78CB
  8
011形状
 10
908.25999999999988
 20
362.20999999999998
 30
0.0
 11
908.25999999999988
 21
361.79000000000002
 31
0.0
  0
LINE
  5
78CC
  8
011形状
 10
907.21000000000004
 20
360.74000000000001
 30
0.0
 11
906.78999999999985
 21
360.74000000000001
 31
0.0
  0
LINE
  5
78CD
  8
011形状
 10
905.7399999999999
 20
362.20999999999998
 30
0.0
 11
905.7399999999999
 21
361.79000000000002
 31
0.0
  0
LINE
  5
78CE
  8
011形状
 10
907.21000000000004
 20
363.25999999999999
 30
0.0
 11
906.78999999999985
 21
363.25999999999999
 31
0.0
  0
LINE
  5
78CF
  8
011形状
 10
905.7399999999999
 20
362.20999999999998
 30
0.0
 11
906.15999999999997
 21
362.20999999999998
 31
0.0
  0
LINE
  5
78D0
  8
011形状
 10
906.78999999999985
 20
363.25999999999999
 30
0.0
 11
906.78999999999985
 21
362.83999999999997
 31
0.0
  0
LINE
  5
78D1
  8
011形状
 10
907.21000000000004
 20
363.25999999999999
 30
0.0
 11
907.21000000000004
 21
362.83999999999997
 31
0.0
  0
LINE
  5
78D2
  8
011形状
 10
908.25999999999988
 20
361.79000000000002
 30
0.0
 11
907.84000000000003
 21
361.79000000000002
 31
0.0
  0
LINE
  5
78D3
  8
011形状
 10
906.78999999999985
 20
360.74000000000001
 30
0.0
 11
906.78999999999985
 21
361.16000000000003
 31
0.0
  0
LINE
  5
78D4
  8
011形状
 10
905.7399999999999
 20
362.20999999999998
 30
0.0
 11
906.15999999999997
 21
362.20999999999998
 31
0.0
  0
LINE
  5
78D5
  8
011形状
 10
905.7399999999999
 20
361.79000000000002
 30
0.0
 11
906.15999999999997
 21
361.79000000000002
 31
0.0
  0
LINE
  5
78D6
  8
011形状
 10
907.21000000000004
 20
360.74000000000001
 30
0.0
 11
907.21000000000004
 21
361.16000000000003
 31
0.0
  0
LINE
  5
78D7
  8
011形状
 10
908.25999999999988
 20
362.20999999999998
 30
0.0
 11
907.84000000000003
 21
362.20999999999998
 31
0.0
  0
ARC
  5
78D8
  8
011形状
 10
906.23000000000002
 20
361.23000000000002
 30
0.0
 40
0.5600000000000001
 50
352.3000000000016
 51
97.699999999999321
  0
ARC
  5
78D9
  8
011形状
 10
907.76999999999998
 20
361.23000000000002
 30
0.0
 40
0.5600000000000001
 50
82.300000000000693
 51
187.69999999999851
  0
ARC
  5
78DA
  8
011形状
 10
907.76999999999998
 20
362.76999999999998
 30
0.0
 40
0.5600000000000001
 50
172.30000000000149
 51
277.69999999999931
  0
ARC
  5
78DB
  8
011形状
 10
906.23000000000002
 20
362.76999999999998
 30
0.0
 40
0.5600000000000001
 50
262.30000000000069
 51
7.6999999999984663
  0
LINE
  5
78DC
  8
001センタ
 10
909.5
 20
362.0
 30
0.0
 11
904.49999999999989
 21
362.0
 31
0.0
  0
LINE
  5
78DD
  8
001センタ
 10
907.0
 20
364.5
 30
0.0
 11
907.0
 21
359.55000000000001
 31
0.0
  0
ARC
  5
78DE
  8
011形状
 10
890.49999999999989
 20
361.5
 30
0.0
 40
2.0
 50
180.0
 51
270.0
  0
CIRCLE
  5
78DF
  8
011形状
 10
891.0
 20
362.0
 30
0.0
 40
2.1000000000000001
  0
LINE
  5
78E0
  8
011形状
 10
892.25999999999999
 20
362.20999999999998
 30
0.0
 11
892.25999999999999
 21
361.79000000000002
 31
0.0
  0
LINE
  5
78E1
  8
011形状
 10
891.21000000000004
 20
360.74000000000001
 30
0.0
 11
890.78999999999985
 21
360.74000000000001
 31
0.0
  0
LINE
  5
78E2
  8
011形状
 10
889.74000000000012
 20
362.20999999999998
 30
0.0
 11
889.74000000000012
 21
361.79000000000002
 31
0.0
  0
LINE
  5
78E3
  8
011形状
 10
891.21000000000004
 20
363.25999999999999
 30
0.0
 11
890.78999999999985
 21
363.25999999999999
 31
0.0
  0
LINE
  5
78E4
  8
011形状
 10
889.74000000000012
 20
362.20999999999998
 30
0.0
 11
890.15999999999997
 21
362.20999999999998
 31
0.0
  0
LINE
  5
78E5
  8
011形状
 10
890.78999999999985
 20
363.25999999999999
 30
0.0
 11
890.78999999999985
 21
362.83999999999997
 31
0.0
  0
LINE
  5
78E6
  8
011形状
 10
891.21000000000004
 20
363.25999999999999
 30
0.0
 11
891.21000000000004
 21
362.83999999999997
 31
0.0
  0
LINE
  5
78E7
  8
011形状
 10
892.25999999999999
 20
361.79000000000002
 30
0.0
 11
891.84000000000003
 21
361.79000000000002
 31
0.0
  0
LINE
  5
78E8
  8
011形状
 10
890.78999999999985
 20
360.74000000000001
 30
0.0
 11
890.78999999999985
 21
361.16000000000003
 31
0.0
  0
LINE
  5
78E9
  8
011形状
 10
889.74000000000012
 20
362.20999999999998
 30
0.0
 11
890.15999999999997
 21
362.20999999999998
 31
0.0
  0
LINE
  5
78EA
  8
011形状
 10
889.74000000000012
 20
361.79000000000002
 30
0.0
 11
890.15999999999997
 21
361.79000000000002
 31
0.0
  0
LINE
  5
78EB
  8
011形状
 10
891.21000000000004
 20
360.74000000000001
 30
0.0
 11
891.21000000000004
 21
361.16000000000003
 31
0.0
  0
LINE
  5
78EC
  8
011形状
 10
892.25999999999999
 20
362.20999999999998
 30
0.0
 11
891.84000000000003
 21
362.20999999999998
 31
0.0
  0
ARC
  5
78ED
  8
011形状
 10
890.23000000000002
 20
361.23000000000002
 30
0.0
 40
0.5600000000000001
 50
352.3000000000016
 51
97.699999999999321
  0
ARC
  5
78EE
  8
011形状
 10
891.76999999999987
 20
361.23000000000002
 30
0.0
 40
0.5600000000000001
 50
82.300000000000693
 51
187.69999999999851
  0
ARC
  5
78EF
  8
011形状
 10
891.76999999999987
 20
362.76999999999998
 30
0.0
 40
0.5600000000000001
 50
172.30000000000149
 51
277.69999999999931
  0
ARC
  5
78F0
  8
011形状
 10
890.23000000000002
 20
362.76999999999998
 30
0.0
 40
0.5600000000000001
 50
262.30000000000069
 51
7.6999999999984663
  0
LINE
  5
78F1
  8
001センタ
 10
891.0
 20
364.64999999999998
 30
0.0
 11
891.0
 21
359.5
 31
0.0
  0
LINE
  5
78F2
  8
001センタ
 10
893.5
 20
362.0
 30
0.0
 11
888.49999999999989
 21
362.0
 31
0.0
  0
LINE
  5
78F3
  8
011形状
 10
933.0
 20
438.01889258199992
 30
0.0
 11
933.0
 21
431.01889258199992
 31
0.0
  0
LINE
  5
78F4
  8
011形状
 10
933.0
 20
438.01889258199992
 30
0.0
 11
934.20000000000005
 21
437.9188925819999
 31
0.0
  0
LINE
  5
78F5
  8
011形状
 10
933.0
 20
431.01889258199992
 30
0.0
 11
934.20000000000005
 21
431.11889258199989
 31
0.0
  0
ARC
  5
78F6
  8
011形状
 10
933.89999999999998
 20
432.61889258199989
 30
0.0
 40
1.5
 50
280.99999999999937
 51
337.60000000000048
  0
ARC
  5
78F7
  8
011形状
 10
933.89999999999998
 20
436.4188925819999
 30
0.0
 40
1.5
 50
22.39999999999948
 51
79.000000000000554
  0
ARC
  5
78F8
  8
011形状
 10
925.79999999999995
 20
434.51889258199992
 30
0.0
 40
9.8000000000000007
 50
345.79999999999978
 51
14.30000000000099
  0
LINE
  5
78F9
  8
001センタ
 10
937.60000000000014
 20
434.51889258199992
 30
0.0
 11
929.0
 21
434.51889258199992
 31
0.0
  0
LINE
  5
78FA
  8
011形状
 10
933.0
 20
301.98110741800002
 30
0.0
 11
933.0
 21
308.98110741800002
 31
0.0
  0
LINE
  5
78FB
  8
011形状
 10
933.0
 20
301.98110741800002
 30
0.0
 11
934.20000000000005
 21
302.08110741799999
 31
0.0
  0
LINE
  5
78FC
  8
011形状
 10
933.0
 20
308.98110741800002
 30
0.0
 11
934.20000000000005
 21
308.881107418
 31
0.0
  0
ARC
  5
78FD
  8
011形状
 10
933.89999999999998
 20
307.381107418
 30
0.0
 40
1.5
 50
22.39999999999948
 51
79.000000000000554
  0
ARC
  5
78FE
  8
011形状
 10
933.89999999999998
 20
303.58110741799999
 30
0.0
 40
1.5
 50
280.99999999999937
 51
337.60000000000048
  0
ARC
  5
78FF
  8
011形状
 10
925.79999999999995
 20
305.48110741800002
 30
0.0
 40
9.8000000000000007
 50
345.69999999999902
 51
14.200000000000211
  0
LINE
  5
7900
  8
001センタ
 10
937.60000000000014
 20
305.48110741800002
 30
0.0
 11
929.0
 21
305.48110741800002
 31
0.0
  0
LINE
  5
7901
  8
011形状
 10
804.0
 20
438.01889258199992
 30
0.0
 11
804.0
 21
431.01889258199992
 31
0.0
  0
LINE
  5
7902
  8
011形状
 10
804.0
 20
438.01889258199992
 30
0.0
 11
802.79999999999995
 21
437.9188925819999
 31
0.0
  0
LINE
  5
7903
  8
011形状
 10
804.0
 20
431.01889258199992
 30
0.0
 11
802.79999999999995
 21
431.11889258199989
 31
0.0
  0
ARC
  5
7904
  8
011形状
 10
803.10000000000002
 20
432.61889258199989
 30
0.0
 40
1.5
 50
202.39999999999949
 51
259.00000000000063
  0
ARC
  5
7905
  8
011形状
 10
803.10000000000002
 20
436.4188925819999
 30
0.0
 40
1.5
 50
100.9999999999994
 51
157.60000000000051
  0
ARC
  5
7906
  8
011形状
 10
811.20000000000005
 20
434.51889258199992
 30
0.0
 40
9.8000000000000007
 50
165.69999999999899
 51
194.20000000000019
  0
LINE
  5
7907
  8
001センタ
 10
799.39999999999986
 20
434.51889258199992
 30
0.0
 11
808.0
 21
434.51889258199992
 31
0.0
  0
LINE
  5
7908
  8
011形状
 10
804.0
 20
301.98110741800002
 30
0.0
 11
804.0
 21
308.98110741800002
 31
0.0
  0
LINE
  5
7909
  8
011形状
 10
804.0
 20
301.98110741800002
 30
0.0
 11
802.79999999999995
 21
302.08110741799999
 31
0.0
  0
LINE
  5
790A
  8
011形状
 10
804.0
 20
308.98110741800002
 30
0.0
 11
802.79999999999995
 21
308.881107418
 31
0.0
  0
ARC
  5
790B
  8
011形状
 10
803.10000000000002
 20
307.381107418
 30
0.0
 40
1.5
 50
100.9999999999994
 51
157.60000000000051
  0
ARC
  5
790C
  8
011形状
 10
803.10000000000002
 20
303.58110741799999
 30
0.0
 40
1.5
 50
202.39999999999949
 51
259.00000000000063
  0
ARC
  5
790D
  8
011形状
 10
811.20000000000005
 20
305.48110741800002
 30
0.0
 40
9.8000000000000007
 50
165.7999999999997
 51
194.30000000000101
  0
LINE
  5
790E
  8
001センタ
 10
799.39999999999986
 20
305.48110741800002
 30
0.0
 11
808.0
 21
305.48110741800002
 31
0.0
  0
LINE
  5
790F
  8
011形状
 10
1018.0
 20
425.0
 30
0.0
 11
933.0
 21
425.0
 31
0.0
  0
LINE
  5
7910
  8
011形状
 10
1019.0
 20
424.0
 30
0.0
 11
1018.0
 21
425.0
 31
0.0
  0
LINE
  5
7911
  8
011形状
 10
1018.0
 20
315.0
 30
0.0
 11
933.0
 21
315.0
 31
0.0
  0
LINE
  5
7912
  8
011形状
 10
1018.0
 20
315.0
 30
0.0
 11
1019.0
 21
316.0
 31
0.0
  0
LINE
  5
7913
  8
011形状
 10
1018.0
 20
425.0
 30
0.0
 11
1018.0
 21
315.0
 31
0.0
  0
LINE
  5
7914
  8
011形状
 10
1019.0
 20
424.0
 30
0.0
 11
1019.0
 21
316.0
 31
0.0
  0
LINE
  5
7915
  8
011形状
 10
1019.0
 20
415.0
 30
0.0
 11
1158.0
 21
415.0
 31
0.0
  0
LINE
  5
7916
  8
011形状
 10
1158.0
 20
415.0
 30
0.0
 11
1160.0
 21
413.0
 31
0.0
  0
LINE
  5
7917
  8
011形状
 10
1019.0
 20
325.0
 30
0.0
 11
1158.0
 21
325.0
 31
0.0
  0
LINE
  5
7918
  8
011形状
 10
1158.0
 20
325.0
 30
0.0
 11
1160.0
 21
327.0
 31
0.0
  0
LINE
  5
7919
  8
011形状
 10
1160.0
 20
327.0
 30
0.0
 11
1160.0
 21
413.0
 31
0.0
  0
LINE
  5
791A
  8
011形状
 10
1158.0
 20
382.0
 30
0.0
 11
1158.0
 21
415.0
 31
0.0
  0
LINE
  5
791B
  8
011形状
 10
1158.0
 20
325.0
 30
0.0
 11
1158.0
 21
358.0
 31
0.0
  0
LINE
  5
791C
  8
011形状
 10
1160.0
 20
382.0
 30
0.0
 11
1057.0
 21
382.0
 31
0.0
  0
LINE
  5
791D
  8
011形状
 10
1160.0
 20
358.0
 30
0.0
 11
1057.0
 21
358.0
 31
0.0
  0
LINE
  5
791E
  8
011形状
 10
860.5
 20
392.25010367700003
 30
0.0
 11
821.49999999999989
 21
392.25010367700003
 31
0.0
  0
CIRCLE
  5
791F
  8
011形状
 10
857.50000000000011
 20
389.39019879
 30
0.0
 40
2.7999999999999989
  0
LINE
  5
7920
  8
001センタ
 10
853.20000000000005
 20
389.39019879
 30
0.0
 11
861.79999999999995
 21
389.39019879
 31
0.0
  0
LINE
  5
7921
  8
001センタ
 10
857.50000000000011
 20
385.09019878999999
 30
0.0
 11
857.50000000000011
 21
393.69019879000001
 31
0.0
  0
LINE
  5
7922
  8
011形状
 10
857.79999999999995
 20
387.59019878999999
 30
0.0
 11
857.20000000000005
 21
387.59019878999999
 31
0.0
  0
LINE
  5
7923
  8
011形状
 10
855.70000000000005
 20
389.09019878999999
 30
0.0
 11
855.70000000000005
 21
389.69019879000001
 31
0.0
  0
LINE
  5
7924
  8
011形状
 10
857.79999999999995
 20
391.19019879000001
 30
0.0
 11
857.20000000000005
 21
391.19019879000001
 31
0.0
  0
LINE
  5
7925
  8
011形状
 10
859.29999999999995
 20
389.09019878999999
 30
0.0
 11
859.29999999999995
 21
389.69019879000001
 31
0.0
  0
LINE
  5
7926
  8
011形状
 10
857.79999999999995
 20
391.19019879000001
 30
0.0
 11
857.79999999999995
 21
390.59019878999999
 31
0.0
  0
LINE
  5
7927
  8
011形状
 10
859.29999999999995
 20
389.69019879000001
 30
0.0
 11
858.70000000000005
 21
389.69019879000001
 31
0.0
  0
LINE
  5
7928
  8
011形状
 10
859.29999999999995
 20
389.09019878999999
 30
0.0
 11
858.70000000000005
 21
389.09019878999999
 31
0.0
  0
LINE
  5
7929
  8
011形状
 10
857.20000000000005
 20
387.59019878999999
 30
0.0
 11
857.20000000000005
 21
388.19019879000001
 31
0.0
  0
LINE
  5
792A
  8
011形状
 10
855.70000000000005
 20
389.69019879000001
 30
0.0
 11
856.29999999999995
 21
389.69019879000001
 31
0.0
  0
LINE
  5
792B
  8
011形状
 10
857.79999999999995
 20
391.19019879000001
 30
0.0
 11
857.79999999999995
 21
390.59019878999999
 31
0.0
  0
LINE
  5
792C
  8
011形状
 10
857.20000000000005
 20
391.19019879000001
 30
0.0
 11
857.20000000000005
 21
390.59019878999999
 31
0.0
  0
LINE
  5
792D
  8
011形状
 10
855.70000000000005
 20
389.09019878999999
 30
0.0
 11
856.29999999999995
 21
389.09019878999999
 31
0.0
  0
LINE
  5
792E
  8
011形状
 10
857.79999999999995
 20
387.59019878999999
 30
0.0
 11
857.79999999999995
 21
388.19019879000001
 31
0.0
  0
ARC
  5
792F
  8
011形状
 10
856.39999999999998
 20
390.49019879000002
 30
0.0
 40
0.8
 50
262.30000000000069
 51
7.6999999999984663
  0
ARC
  5
7930
  8
011形状
 10
856.39999999999998
 20
388.29019878999998
 30
0.0
 40
0.8
 50
352.3000000000016
 51
97.699999999999321
  0
ARC
  5
7931
  8
011形状
 10
858.60000000000002
 20
388.29019878999998
 30
0.0
 40
0.8
 50
82.300000000000693
 51
187.69999999999851
  0
ARC
  5
7932
  8
011形状
 10
858.60000000000002
 20
390.49019879000002
 30
0.0
 40
0.8
 50
172.30000000000149
 51
277.69999999999931
  0
CIRCLE
  5
7933
  8
011形状
 10
824.5
 20
389.39019879
 30
0.0
 40
2.7999999999999989
  0
LINE
  5
7934
  8
001センタ
 10
820.19999999999993
 20
389.39019879
 30
0.0
 11
828.79999999999995
 21
389.39019879
 31
0.0
  0
LINE
  5
7935
  8
001センタ
 10
824.5
 20
385.09019878999999
 30
0.0
 11
824.5
 21
393.69019879000001
 31
0.0
  0
LINE
  5
7936
  8
011形状
 10
824.79999999999995
 20
387.59019878999999
 30
0.0
 11
824.20000000000005
 21
387.59019878999999
 31
0.0
  0
LINE
  5
7937
  8
011形状
 10
822.70000000000005
 20
389.09019878999999
 30
0.0
 11
822.70000000000005
 21
389.69019879000001
 31
0.0
  0
LINE
  5
7938
  8
011形状
 10
824.79999999999995
 20
391.19019879000001
 30
0.0
 11
824.20000000000005
 21
391.19019879000001
 31
0.0
  0
LINE
  5
7939
  8
011形状
 10
826.29999999999995
 20
389.09019878999999
 30
0.0
 11
826.29999999999995
 21
389.69019879000001
 31
0.0
  0
LINE
  5
793A
  8
011形状
 10
824.79999999999995
 20
391.19019879000001
 30
0.0
 11
824.79999999999995
 21
390.59019878999999
 31
0.0
  0
LINE
  5
793B
  8
011形状
 10
826.29999999999995
 20
389.69019879000001
 30
0.0
 11
825.70000000000005
 21
389.69019879000001
 31
0.0
  0
LINE
  5
793C
  8
011形状
 10
826.29999999999995
 20
389.09019878999999
 30
0.0
 11
825.70000000000005
 21
389.09019878999999
 31
0.0
  0
LINE
  5
793D
  8
011形状
 10
824.20000000000005
 20
387.59019878999999
 30
0.0
 11
824.20000000000005
 21
388.19019879000001
 31
0.0
  0
LINE
  5
793E
  8
011形状
 10
822.70000000000005
 20
389.69019879000001
 30
0.0
 11
823.29999999999995
 21
389.69019879000001
 31
0.0
  0
LINE
  5
793F
  8
011形状
 10
824.79999999999995
 20
391.19019879000001
 30
0.0
 11
824.79999999999995
 21
390.59019878999999
 31
0.0
  0
LINE
  5
7940
  8
011形状
 10
824.20000000000005
 20
391.19019879000001
 30
0.0
 11
824.20000000000005
 21
390.59019878999999
 31
0.0
  0
LINE
  5
7941
  8
011形状
 10
822.70000000000005
 20
389.09019878999999
 30
0.0
 11
823.29999999999995
 21
389.09019878999999
 31
0.0
  0
LINE
  5
7942
  8
011形状
 10
824.79999999999995
 20
387.59019878999999
 30
0.0
 11
824.79999999999995
 21
388.19019879000001
 31
0.0
  0
ARC
  5
7943
  8
011形状
 10
823.39999999999986
 20
390.49019879000002
 30
0.0
 40
0.8
 50
262.30000000000069
 51
7.6999999999984663
  0
ARC
  5
7944
  8
011形状
 10
823.39999999999986
 20
388.29019878999998
 30
0.0
 40
0.8
 50
352.3000000000016
 51
97.699999999999321
  0
ARC
  5
7945
  8
011形状
 10
825.60000000000002
 20
388.29019878999998
 30
0.0
 40
0.8
 50
82.300000000000693
 51
187.69999999999851
  0
ARC
  5
7946
  8
011形状
 10
825.60000000000002
 20
390.49019879000002
 30
0.0
 40
0.8
 50
172.30000000000149
 51
277.69999999999931
  0
LINE
  5
7947
  8
001センタ
 10
844.5
 20
350.0
 30
0.0
 11
844.5
 21
390.152434777
 31
0.0
  0
LINE
  5
7948
  8
011形状
 10
821.49999999999989
 20
347.74989632299997
 30
0.0
 11
860.5
 21
347.74989632299997
 31
0.0
  0
LINE
  5
7949
  8
011形状
 10
860.5
 20
347.74989632299997
 30
0.0
 11
860.5
 21
392.25010367700003
 31
0.0
  0
LINE
  5
794A
  8
011形状
 10
821.49999999999989
 20
392.25010367700003
 30
0.0
 11
821.49999999999989
 21
347.74989632299997
 31
0.0
  0
CIRCLE
  5
794B
  8
011形状
 10
824.5
 20
350.60980121
 30
0.0
 40
2.7999999999999989
  0
LINE
  5
794C
  8
001センタ
 10
820.19999999999993
 20
350.60980121
 30
0.0
 11
828.79999999999995
 21
350.60980121
 31
0.0
  0
LINE
  5
794D
  8
001センタ
 10
824.5
 20
354.90980121000001
 30
0.0
 11
824.5
 21
346.30980120999999
 31
0.0
  0
LINE
  5
794E
  8
011形状
 10
824.79999999999995
 20
352.40980121000001
 30
0.0
 11
824.20000000000005
 21
352.40980121000001
 31
0.0
  0
LINE
  5
794F
  8
011形状
 10
822.70000000000005
 20
350.90980121000001
 30
0.0
 11
822.70000000000005
 21
350.30980120999999
 31
0.0
  0
LINE
  5
7950
  8
011形状
 10
824.79999999999995
 20
348.80980120999999
 30
0.0
 11
824.20000000000005
 21
348.80980120999999
 31
0.0
  0
LINE
  5
7951
  8
011形状
 10
826.29999999999995
 20
350.90980121000001
 30
0.0
 11
826.29999999999995
 21
350.30980120999999
 31
0.0
  0
LINE
  5
7952
  8
011形状
 10
824.79999999999995
 20
348.80980120999999
 30
0.0
 11
824.79999999999995
 21
349.40980121000001
 31
0.0
  0
LINE
  5
7953
  8
011形状
 10
826.29999999999995
 20
350.30980120999999
 30
0.0
 11
825.70000000000005
 21
350.30980120999999
 31
0.0
  0
LINE
  5
7954
  8
011形状
 10
826.29999999999995
 20
350.90980121000001
 30
0.0
 11
825.70000000000005
 21
350.90980121000001
 31
0.0
  0
LINE
  5
7955
  8
011形状
 10
824.20000000000005
 20
352.40980121000001
 30
0.0
 11
824.20000000000005
 21
351.80980120999999
 31
0.0
  0
LINE
  5
7956
  8
011形状
 10
822.70000000000005
 20
350.30980120999999
 30
0.0
 11
823.29999999999995
 21
350.30980120999999
 31
0.0
  0
LINE
  5
7957
  8
011形状
 10
824.79999999999995
 20
348.80980120999999
 30
0.0
 11
824.79999999999995
 21
349.40980121000001
 31
0.0
  0
LINE
  5
7958
  8
011形状
 10
824.20000000000005
 20
348.80980120999999
 30
0.0
 11
824.20000000000005
 21
349.40980121000001
 31
0.0
  0
LINE
  5
7959
  8
011形状
 10
822.70000000000005
 20
350.90980121000001
 30
0.0
 11
823.29999999999995
 21
350.90980121000001
 31
0.0
  0
LINE
  5
795A
  8
011形状
 10
824.79999999999995
 20
352.40980121000001
 30
0.0
 11
824.79999999999995
 21
351.80980120999999
 31
0.0
  0
ARC
  5
795B
  8
011形状
 10
823.39999999999986
 20
349.50980120999998
 30
0.0
 40
0.8
 50
352.3000000000016
 51
97.699999999999321
  0
ARC
  5
795C
  8
011形状
 10
823.39999999999986
 20
351.70980121000002
 30
0.0
 40
0.8
 50
262.30000000000069
 51
7.6999999999984663
  0
ARC
  5
795D
  8
011形状
 10
825.60000000000002
 20
351.70980121000002
 30
0.0
 40
0.8
 50
172.30000000000149
 51
277.69999999999931
  0
ARC
  5
795E
  8
011形状
 10
825.60000000000002
 20
349.50980120999998
 30
0.0
 40
0.8
 50
82.300000000000693
 51
187.69999999999851
  0
CIRCLE
  5
795F
  8
011形状
 10
857.50000000000011
 20
350.60980121
 30
0.0
 40
2.7999999999999989
  0
LINE
  5
7960
  8
001センタ
 10
853.20000000000005
 20
350.60980121
 30
0.0
 11
861.79999999999995
 21
350.60980121
 31
0.0
  0
LINE
  5
7961
  8
001センタ
 10
857.50000000000011
 20
354.90980121000001
 30
0.0
 11
857.50000000000011
 21
346.30980120999999
 31
0.0
  0
LINE
  5
7962
  8
011形状
 10
857.79999999999995
 20
352.40980121000001
 30
0.0
 11
857.20000000000005
 21
352.40980121000001
 31
0.0
  0
LINE
  5
7963
  8
011形状
 10
855.70000000000005
 20
350.90980121000001
 30
0.0
 11
855.70000000000005
 21
350.30980120999999
 31
0.0
  0
LINE
  5
7964
  8
011形状
 10
857.79999999999995
 20
348.80980120999999
 30
0.0
 11
857.20000000000005
 21
348.80980120999999
 31
0.0
  0
LINE
  5
7965
  8
011形状
 10
859.29999999999995
 20
350.90980121000001
 30
0.0
 11
859.29999999999995
 21
350.30980120999999
 31
0.0
  0
LINE
  5
7966
  8
011形状
 10
857.79999999999995
 20
348.80980120999999
 30
0.0
 11
857.79999999999995
 21
349.40980121000001
 31
0.0
  0
LINE
  5
7967
  8
011形状
 10
859.29999999999995
 20
350.30980120999999
 30
0.0
 11
858.70000000000005
 21
350.30980120999999
 31
0.0
  0
LINE
  5
7968
  8
011形状
 10
859.29999999999995
 20
350.90980121000001
 30
0.0
 11
858.70000000000005
 21
350.90980121000001
 31
0.0
  0
LINE
  5
7969
  8
011形状
 10
857.20000000000005
 20
352.40980121000001
 30
0.0
 11
857.20000000000005
 21
351.80980120999999
 31
0.0
  0
LINE
  5
796A
  8
011形状
 10
855.70000000000005
 20
350.30980120999999
 30
0.0
 11
856.29999999999995
 21
350.30980120999999
 31
0.0
  0
LINE
  5
796B
  8
011形状
 10
857.79999999999995
 20
348.80980120999999
 30
0.0
 11
857.79999999999995
 21
349.40980121000001
 31
0.0
  0
LINE
  5
796C
  8
011形状
 10
857.20000000000005
 20
348.80980120999999
 30
0.0
 11
857.20000000000005
 21
349.40980121000001
 31
0.0
  0
LINE
  5
796D
  8
011形状
 10
855.70000000000005
 20
350.90980121000001
 30
0.0
 11
856.29999999999995
 21
350.90980121000001
 31
0.0
  0
LINE
  5
796E
  8
011形状
 10
857.79999999999995
 20
352.40980121000001
 30
0.0
 11
857.79999999999995
 21
351.80980120999999
 31
0.0
  0
ARC
  5
796F
  8
011形状
 10
856.39999999999998
 20
349.50980120999998
 30
0.0
 40
0.8
 50
352.3000000000016
 51
97.699999999999321
  0
ARC
  5
7970
  8
011形状
 10
856.39999999999998
 20
351.70980121000002
 30
0.0
 40
0.8
 50
262.30000000000069
 51
7.6999999999984663
  0
ARC
  5
7971
  8
011形状
 10
858.60000000000002
 20
351.70980121000002
 30
0.0
 40
0.8
 50
172.30000000000149
 51
277.69999999999931
  0
ARC
  5
7972
  8
011形状
 10
858.60000000000002
 20
349.50980120999998
 30
0.0
 40
0.8
 50
82.300000000000693
 51
187.69999999999851
  0
LINE
  5
7973
  8
011形状
 10
846.25
 20
375.63112867799998
 30
0.0
 11
846.25
 21
366.22444985700002
 31
0.0
  0
LINE
  5
7974
  8
011形状
 10
842.75
 20
375.63112867799998
 30
0.0
 11
842.75
 21
366.22444985700002
 31
0.0
  0
LINE
  5
7975
  8
011形状
 10
930.49999999999989
 20
456.0
 30
0.0
 11
930.0
 21
456.0
 31
0.0
  0
LINE
  5
7976
  8
011形状
 10
919.5
 20
456.0
 30
0.0
 11
901.5
 21
456.0
 31
0.0
  0
LINE
  5
7977
  8
011形状
 10
919.5
 20
284.0
 30
0.0
 11
901.5
 21
284.0
 31
0.0
  0
LINE
  5
7978
  8
011形状
 10
930.49999999999989
 20
284.0
 30
0.0
 11
930.0
 21
284.0
 31
0.0
  0
LINE
  5
7979
  8
011形状
 10
805.49999999999989
 20
284.0
 30
0.0
 11
806.0
 21
284.0
 31
0.0
  0
LINE
  5
797A
  8
011形状
 10
833.5
 20
284.0
 30
0.0
 11
817.5
 21
284.0
 31
0.0
  0
LINE
  5
797B
  8
011形状
 10
800.0
 20
416.5
 30
0.0
 11
800.0
 21
323.5
 31
0.0
  0
LINE
  5
797C
  8
011形状
 10
804.0
 20
416.5
 30
0.0
 11
800.0
 21
416.5
 31
0.0
  0
LINE
  5
797D
  8
011形状
 10
800.0
 20
415.0
 30
0.0
 11
662.0
 21
415.0
 31
0.0
  0
LINE
  5
797E
  8
011形状
 10
800.0
 20
325.0
 30
0.0
 11
662.0
 21
325.0
 31
0.0
  0
LINE
  5
797F
  8
011形状
 10
804.0
 20
323.5
 30
0.0
 11
800.0
 21
323.5
 31
0.0
  0
LINE
  5
7980
  8
011形状
 10
833.5
 20
424.7997134659999
 30
0.0
 11
901.5
 21
424.7997134659999
 31
0.0
  0
LINE
  5
7981
  8
011形状
 10
833.5
 20
456.39778967799998
 30
0.0
 11
833.5
 21
424.7997134659999
 31
0.0
  0
LINE
  5
7982
  8
011形状
 10
901.5
 20
425.66573886999993
 30
0.0
 11
833.5
 21
425.66573886999993
 31
0.0
  0
LINE
  5
7983
  8
011形状
 10
833.5
 20
428.39778967799998
 30
0.0
 11
901.5
 21
428.39778967799998
 31
0.0
  0
LINE
  5
7984
  8
011形状
 10
901.5
 20
456.39778967799998
 30
0.0
 11
901.5
 21
424.7997134659999
 31
0.0
  0
LINE
  5
7985
  8
011形状
 10
833.5
 20
456.39778967799998
 30
0.0
 11
901.5
 21
456.39778967799998
 31
0.0
  0
LINE
  5
7986
  8
011形状
 10
833.5
 20
315.20028653399999
 30
0.0
 11
901.5
 21
315.20028653399999
 31
0.0
  0
LINE
  5
7987
  8
011形状
 10
833.5
 20
283.60221032200002
 30
0.0
 11
833.5
 21
315.20028653399999
 31
0.0
  0
LINE
  5
7988
  8
011形状
 10
901.5
 20
314.33426113000002
 30
0.0
 11
833.5
 21
314.33426113000002
 31
0.0
  0
LINE
  5
7989
  8
011形状
 10
833.5
 20
311.60221032200002
 30
0.0
 11
901.5
 21
311.60221032200002
 31
0.0
  0
LINE
  5
798A
  8
011形状
 10
901.5
 20
283.60221032200002
 30
0.0
 11
901.5
 21
315.20028653399999
 31
0.0
  0
LINE
  5
798B
  8
011形状
 10
833.5
 20
283.60221032200002
 30
0.0
 11
901.5
 21
283.60221032200002
 31
0.0
  0
ARC
  5
798C
  8
011形状
 10
763.0
 20
370.0
 30
0.0
 40
12.0
 50
270.0
 51
90.0
  0
CIRCLE
  5
798D
  8
011形状
 10
844.5
 20
359.95961417800009
 30
0.0
 40
5.5
  0
LINE
  5
798E
  8
011形状
 10
850.0
 20
361.01028645399998
 30
0.0
 11
850.0
 21
359.95961417800009
 31
0.0
  0
LINE
  5
798F
  8
011形状
 10
839.0
 20
361.01028645399998
 30
0.0
 11
839.0
 21
359.95961417800009
 31
0.0
  0
ARC
  5
7990
  8
011形状
 10
844.5
 20
361.01028645399998
 30
0.0
 40
5.5
 50
0.0
 51
180.0
  0
CIRCLE
  5
7991
  8
011形状
 10
844.5
 20
359.81634068599999
 30
0.0
 40
5.0
  0
ARC
  5
7992
  8
011形状
 10
844.5
 20
359.95961417800009
 30
0.0
 40
5.0
 50
0.0
 51
180.0
  0
LINE
  5
7993
  8
011形状
 10
849.5
 20
359.81634068599999
 30
0.0
 11
849.5
 21
359.95961417800009
 31
0.0
  0
LINE
  5
7994
  8
011形状
 10
839.49999999999989
 20
359.81634068599999
 30
0.0
 11
839.49999999999989
 21
359.95961417800009
 31
0.0
  0
ARC
  5
7995
  8
011形状
 10
1057.0
 20
370.0
 30
0.0
 40
12.0
 50
90.0
 51
270.0
  0
LINE
  5
7996
  8
011形状
 10
833.5
 20
456.0
 30
0.0
 11
817.5
 21
456.0
 31
0.0
  0
LINE
  5
7997
  8
001センタ
 10
1170.0
 20
370.0
 30
0.0
 11
650.0
 21
370.0
 31
0.0
  0
LINE
  5
7998
  8
001センタ
 10
1309.0
 20
252.0
 30
0.0
 11
1309.0
 21
488.0
 31
0.0
  0
LINE
  5
7999
  8
011形状
 10
808.0
 20
478.0
 30
0.0
 11
928.0
 21
478.0
 31
0.0
  0
LINE
  5
799A
  8
011形状
 10
930.0
 20
455.58203932499998
 30
0.0
 11
930.0
 21
476.0
 31
0.0
  0
LINE
  5
799B
  8
011形状
 10
930.0
 20
476.0
 30
0.0
 11
928.0
 21
478.0
 31
0.0
  0
LINE
  5
799C
  8
011形状
 10
817.5
 20
455.58203932499998
 30
0.0
 11
817.5
 21
460.0
 31
0.0
  0
LINE
  5
799D
  8
011形状
 10
806.0
 20
476.0
 30
0.0
 11
806.0
 21
455.58203932499998
 31
0.0
  0
LINE
  5
799E
  8
011形状
 10
806.0
 20
476.0
 30
0.0
 11
808.0
 21
478.0
 31
0.0
  0
LINE
  5
799F
  8
011形状
 10
817.5
 20
460.0
 30
0.0
 11
919.5
 21
460.0
 31
0.0
  0
LINE
  5
79A0
  8
011形状
 10
806.0
 20
455.58203932499998
 30
0.0
 11
817.5
 21
455.58203932499998
 31
0.0
  0
LINE
  5
79A1
  8
011形状
 10
919.5
 20
460.0
 30
0.0
 11
919.5
 21
455.58203932499998
 31
0.0
  0
LINE
  5
79A2
  8
011形状
 10
919.5
 20
455.58203932499998
 30
0.0
 11
930.0
 21
455.58203932499998
 31
0.0
  0
LINE
  5
79A3
  8
001センタ
 10
880.49999999999989
 20
469.0
 30
0.0
 11
855.49999999999989
 21
469.0
 31
0.0
  0
LINE
  5
79A4
  8
011形状
 10
863.0
 20
474.0
 30
0.0
 11
873.0
 21
474.0
 31
0.0
  0
LINE
  5
79A5
  8
011形状
 10
863.0
 20
464.0
 30
0.0
 11
873.0
 21
464.0
 31
0.0
  0
ARC
  5
79A6
  8
011形状
 10
863.0
 20
469.0
 30
0.0
 40
5.0
 50
90.0
 51
270.0
  0
ARC
  5
79A7
  8
011形状
 10
873.0
 20
469.0
 30
0.0
 40
5.0
 50
270.0
 51
90.000044049996362
  0
LINE
  5
79A8
  8
001センタ
 10
873.0
 20
466.5
 30
0.0
 11
873.0
 21
471.49999999999989
 31
0.0
  0
LINE
  5
79A9
  8
001センタ
 10
863.0
 20
466.5
 30
0.0
 11
863.0
 21
471.49999999999989
 31
0.0
  0
LINE
  5
79AA
  8
001センタ
 10
868.0
 20
461.5
 30
0.0
 11
868.0
 21
476.49999999999989
 31
0.0
  0
LINE
  5
79AB
  8
011形状
 10
808.0
 20
262.0
 30
0.0
 11
928.0
 21
262.0
 31
0.0
  0
LINE
  5
79AC
  8
011形状
 10
930.0
 20
284.41796067500002
 30
0.0
 11
930.0
 21
264.0
 31
0.0
  0
LINE
  5
79AD
  8
011形状
 10
930.0
 20
264.0
 30
0.0
 11
928.0
 21
262.0
 31
0.0
  0
LINE
  5
79AE
  8
011形状
 10
817.5
 20
284.41796067500002
 30
0.0
 11
817.5
 21
280.0
 31
0.0
  0
LINE
  5
79AF
  8
011形状
 10
806.0
 20
264.0
 30
0.0
 11
806.0
 21
284.41796067500002
 31
0.0
  0
LINE
  5
79B0
  8
011形状
 10
806.0
 20
264.0
 30
0.0
 11
808.0
 21
262.0
 31
0.0
  0
LINE
  5
79B1
  8
011形状
 10
817.5
 20
280.0
 30
0.0
 11
919.5
 21
280.0
 31
0.0
  0
LINE
  5
79B2
  8
011形状
 10
806.0
 20
284.41796067500002
 30
0.0
 11
817.5
 21
284.41796067500002
 31
0.0
  0
LINE
  5
79B3
  8
011形状
 10
919.5
 20
280.0
 30
0.0
 11
919.5
 21
284.41796067500002
 31
0.0
  0
LINE
  5
79B4
  8
011形状
 10
919.5
 20
284.41796067500002
 30
0.0
 11
930.0
 21
284.41796067500002
 31
0.0
  0
LINE
  5
79B5
  8
001センタ
 10
880.49999999999989
 20
271.0
 30
0.0
 11
855.49999999999989
 21
271.0
 31
0.0
  0
LINE
  5
79B6
  8
011形状
 10
863.0
 20
266.0
 30
0.0
 11
873.0
 21
266.0
 31
0.0
  0
LINE
  5
79B7
  8
011形状
 10
863.0
 20
276.0
 30
0.0
 11
873.0
 21
276.0
 31
0.0
  0
ARC
  5
79B8
  8
011形状
 10
863.0
 20
271.0
 30
0.0
 40
5.0
 50
90.0
 51
270.0
  0
ARC
  5
79B9
  8
011形状
 10
873.0
 20
271.0
 30
0.0
 40
5.0
 50
269.99995594999058
 51
90.0
  0
LINE
  5
79BA
  8
001センタ
 10
873.0
 20
273.5
 30
0.0
 11
873.0
 21
268.5
 31
0.0
  0
LINE
  5
79BB
  8
001センタ
 10
863.0
 20
273.5
 30
0.0
 11
863.0
 21
268.5
 31
0.0
  0
LINE
  5
79BC
  8
001センタ
 10
868.0
 20
278.5
 30
0.0
 11
868.0
 21
263.5
 31
0.0
  0
LINE
  5
79BD
  8
011形状
 10
1223.564272262
 20
386.660625014
 30
0.0
 11
1224.812376843
 21
392.119767341
 31
0.0
  0
LINE
  5
79BE
  8
011形状
 10
1223.564272262
 20
386.660625014
 30
0.0
 11
1222.611712999
 21
386.98098551599998
 31
0.0
  0
LINE
  5
79BF
  8
011形状
 10
1224.812376843
 20
392.119767341
 30
0.0
 11
1223.815242417
 21
392.24515847499998
 31
0.0
  0
ARC
  5
79C0
  8
011形状
 10
1223.80962355
 20
391.32322115199997
 30
0.0
 40
0.9
 50
89.72199999999485
 51
140.52199999999809
  0
ARC
  5
79C1
  8
011形状
 10
1223.007270605
 20
387.81377251200001
 30
0.0
 40
0.9
 50
193.7220000000014
 51
244.52199999999809
  0
ARC
  5
79C2
  8
011形状
 10
1228.3801659830001
 20
388.43183016
 30
0.0
 40
6.2999999999999989
 50
146.52199999999621
 51
187.72200000000191
  0
LINE
  5
79C3
  8
001センタ
 10
1220.7763605980001
 20
390.170261541
 30
0.0
 11
1229.0625587740001
 21
388.27581708699989
 31
0.0
  0
LINE
  5
79C4
  8
011形状
 10
1223.564272262
 20
353.339374986
 30
0.0
 11
1224.812376843
 21
347.880232659
 31
0.0
  0
LINE
  5
79C5
  8
011形状
 10
1223.564272262
 20
353.339374986
 30
0.0
 11
1222.611712999
 21
353.01901448400002
 31
0.0
  0
LINE
  5
79C6
  8
011形状
 10
1224.812376843
 20
347.880232659
 30
0.0
 11
1223.815242417
 21
347.75484152500002
 31
0.0
  0
ARC
  5
79C7
  8
011形状
 10
1223.80962355
 20
348.67677884800003
 30
0.0
 40
0.9
 50
219.4780000000018
 51
270.27799999999212
  0
ARC
  5
79C8
  8
011形状
 10
1223.007270605
 20
352.1862274880001
 30
0.0
 40
0.9
 50
115.4780000000019
 51
166.27799999999851
  0
ARC
  5
79C9
  8
011形状
 10
1228.3801659830001
 20
351.56816984
 30
0.0
 40
6.2999999999999989
 50
172.27799999999809
 51
213.4780000000037
  0
LINE
  5
79CA
  8
001センタ
 10
1220.7763605980001
 20
349.829738459
 30
0.0
 11
1229.0625587740001
 21
351.72418291299999
 31
0.0
  0
LINE
  5
79D9
  8
001センタ
 10
763.0
 20
353.0
 30
0.0
 11
763.0
 21
387.0
 31
0.0
  0
LINE
  5
79DA
  8
001センタ
 10
1057.0
 20
353.0
 30
0.0
 11
1057.0
 21
387.0
 31
0.0
  0
DIMENSION
  5
79F7
  8
002寸法
  2
*D12
 10
1339.0
 20
469.0
 30
0.0
 11
1339.0
 21
380.0
 31
0.0
 70
   128
 13
1319.0
 23
271.0
 33
0.0
 14
1319.0
 24
469.0
 34
0.0
 50
90.0
  0
DIMENSION
  5
7A0F
  8
002寸法
  2
*D13
 10
1379.0
 20
478.0
 30
0.0
 11
1379.0
 21
380.0
 31
0.0
 70
   128
 13
1319.0
 23
262.0
 33
0.0
 14
1319.0
 24
478.0
 34
0.0
 50
90.0
  0
DIMENSION
  5
7A54
  8
002寸法
  2
*D14
 10
1319.0
 20
498.0
 30
0.0
 11
1309.0
 21
502.0
 31
0.0
 70
     0
 13
1299.0
 23
478.0
 33
0.0
 14
1319.0
 24
478.0
 34
0.0
  0
DIMENSION
  5
7A6C
  8
002寸法
  2
*D15
 10
1395.0
 20
232.0
 30
0.0
 11
1292.5
 21
236.0
 31
0.0
 70
     0
 13
1190.0
 23
362.0
 33
0.0
 14
1395.0
 24
370.0
 34
0.0
  0
DIMENSION
  5
7A84
  8
002寸法
  2
*D16
 10
1297.0
 20
382.0
 30
0.0
 11
1292.5
 21
394.76428571428602
 31
0.0
 70
   128
  1
<>\H0.5x;\S 0^ -0.052
 13
1272.0
 23
358.0
 33
0.0
 14
1272.0
 24
382.0
 34
0.0
 50
90.0
1001
ACAD
1000
DSTYLE
1002
{
1070
   287
1070
     5
1070
   279
1070
     2
1002
}
  0
DIMENSION
  5
7A9C
  8
002寸法
  2
*D17
 10
1272.0
 20
466.0
 30
0.0
 11
1268.0
 21
466.0
 31
0.0
 70
   128
  1
<>\H0.5x;\S+0.2^  0
 13
1264.0
 23
370.0
 33
0.0
 14
1272.0
 24
382.0
 34
0.0
  0
DIMENSION
  5
7ACE
  8
002寸法
  2
*D18
 10
1038.0
 20
415.0
 30
0.0
 11
1038.0
 21
385.00000000000023
 31
0.0
 70
   128
 13
1019.0
 23
325.0
 33
0.0
 14
1019.0
 24
415.0
 34
0.0
 50
90.0
1001
ACAD
1000
DSTYLE
1002
{
1070
     3
1000
\U+03C6<>h7
1002
}
  0
DIMENSION
  5
7AEF
  8
002寸法
  2
*D19
 10
983.00000000000011
 20
456.0
 30
0.0
 11
983.0
 21
385.0
 31
0.0
 70
   128
 13
930.49999999999989
 23
284.0
 33
0.0
 14
930.49999999999989
 24
456.0
 34
0.0
 50
90.0
1001
ACAD
1000
DSTYLE
1002
{
1070
     3
1000
\U+03C6<>
1002
}
  0
DIMENSION
  5
7B07
  8
002寸法
  2
*D20
 10
790.00000000000011
 20
415.0
 30
0.0
 11
790.0
 21
385.00000000000011
 31
0.0
 70
   128
 13
800.0
 23
325.0
 33
0.0
 14
800.0
 24
415.0
 34
0.0
 50
90.0
1001
ACAD
1000
DSTYLE
1002
{
1070
     3
1000
\U+03C6<>h7
1002
}
  0
DIMENSION
  5
7B8B
  8
002寸法
  2
*D21
 10
877.99999999999966
 20
498.0
 30
0.0
 11
867.99999999999966
 21
502.0
 31
0.0
 70
     0
 13
858.0
 23
469.0
 33
0.0
 14
877.99999999999966
 24
469.00000192204368
 34
0.0
  0
DIMENSION
  5
7BA3
  8
002寸法
  2
*D22
 10
786.0
 20
474.0
 30
0.0
 11
781.99999999999989
 21
469.00000000000011
 31
0.0
 70
     0
 13
863.0
 23
464.0
 33
0.0
 14
863.0
 24
474.0
 34
0.0
 50
90.0
  0
DIMENSION
  5
7BBF
  8
002寸法
  2
*D23
 10
868.0
 20
233.5
 30
0.0
 11
836.0
 21
237.5
 31
0.0
 70
     0
 13
804.0
 23
285.5
 33
0.0
 14
868.0
 24
266.0
 34
0.0
1001
ACAD
1000
DSTYLE
1002
{
1070
   279
1070
     0
1002
}
  0
DIMENSION
  5
7BD7
  8
002寸法
  2
*D24
 10
775.0
 20
233.5
 30
0.0
 11
717.49999999999989
 21
237.5
 31
0.0
 70
     0
 13
660.0
 23
327.0
 33
0.0
 14
775.0
 24
370.0
 34
0.0
  0
DIMENSION
  5
7BEF
  8
002寸法
  2
*D25
 10
804.0
 20
213.5
 30
0.0
 11
787.07142857142856
 21
213.5
 31
0.0
 70
   128
 13
800.0
 23
323.5
 33
0.0
 14
804.0
 24
285.5
 34
0.0
  0
DIMENSION
  5
7C0B
  8
002寸法
  2
*D26
 10
800.0
 20
193.5
 30
0.0
 11
730.0
 21
193.5
 31
0.0
 70
   128
 13
660.0
 23
327.0
 33
0.0
 14
800.0
 24
323.5
 34
0.0
1001
ACAD
1000
DSTYLE
1002
{
1070
   279
1070
     0
1002
}
  0
DIMENSION
  5
7C23
  8
002寸法
  2
*D27
 10
1160.0
 20
173.5
 30
0.0
 11
910.0
 21
173.5
 31
0.0
 70
   128
 13
660.0
 23
327.0
 33
0.0
 14
1160.0
 24
327.0
 34
0.0
1001
ACAD
1000
DSTYLE
1002
{
1070
   279
1070
     0
1002
}
  0
DIMENSION
  5
7C3B
  8
002寸法
  2
*D28
 10
1160.0
 20
233.5
 30
0.0
 11
1102.5
 21
237.5
 31
0.0
 70
     0
 13
1045.0
 23
370.0
 33
0.0
 14
1160.0
 24
327.0
 34
0.0
  0
DIMENSION
  5
7C53
  8
002寸法
  2
*D29
 10
933.0
 20
233.5
 30
0.0
 11
900.5
 21
237.5
 31
0.0
 70
     0
 13
868.0
 23
266.0
 33
0.0
 14
933.0
 24
290.0
 34
0.0
1001
ACAD
1000
DSTYLE
1002
{
1070
   287
1070
     4
1070
   279
1070
     1
1002
}
  0
DIMENSION
  5
7C6B
  8
002寸法
  2
*D30
 10
933.0
 20
213.5
 30
0.0
 11
868.5
 21
213.5
 31
0.0
 70
   128
 13
804.0
 23
285.5
 33
0.0
 14
933.0
 24
290.0
 34
0.0
1001
ACAD
1000
DSTYLE
1002
{
1070
   279
1070
     0
1002
}
  0
DIMENSION
  5
7C83
  8
002寸法
  2
*D31
 10
1019.0
 20
213.5
 30
0.0
 11
976.0
 21
213.5
 31
0.0
 70
   128
 13
933.0
 23
290.0
 33
0.0
 14
1019.0
 24
316.0
 34
0.0
1001
ACAD
1000
DSTYLE
1002
{
1070
   279
1070
     0
1002
}
  0
DIMENSION
  5
7C9B
  8
002寸法
  2
*D32
 10
1019.0
 20
193.5
 30
0.0
 11
909.5
 21
193.5
 31
0.0
 70
   128
 13
800.0
 23
323.5
 33
0.0
 14
1019.0
 24
316.0
 34
0.0
1001
ACAD
1000
DSTYLE
1002
{
1070
   279
1070
     0
1002
}
  0
DIMENSION
  5
7CB3
  8
002寸法
  2
*D33
 10
1160.0
 20
193.5
 30
0.0
 11
1089.5
 21
193.5
 31
0.0
 70
   128
 13
1019.0
 23
316.0
 33
0.0
 14
1160.0
 24
327.0
 34
0.0
1001
ACAD
1000
DSTYLE
1002
{
1070
   279
1070
     0
1002
}
  0
LINE
  5
7E35
  8
002寸法
 10
1297.0
 20
382.0
 30
0.0
 11
1297.0
 21
407.0
 31
0.0
  0
VIEWPORT
  5
71
 67
     1
  8
0
 10
624.30697861446504
 20
307.75602246587403
 30
0.0
 40
994.76769694267671
 41
769.77311836716035
 68
     1
 69
     1
1001
ACAD
1000
MVIEW
1002
{
1070
    16
1010
0.0
1020
0.0
1030
0.0
1010
0.0
1020
0.0
1030
1.0
1040
0.0
1040
769.77311836716035
1040
624.30697861446504
1040
307.75602246587403
1040
50.0
1040
0.0
1040
0.0
1070
     0
1070
   100
1070
     1
1070
     1
1070
     1
1070
     0
1070
     0
1070
     0
1040
0.0
1040
0.0
1040
0.0
1040
0.5
1040
0.5
1040
10.0
1040
10.0
1070
     0
1002
{
1002
}
1002
}
  0
VIEWPORT
  5
73
 67
     1
  8
0
 10
693.0
 20
140.5
 30
0.0
 40
419.99999999999989
 41
297.0
 68
     2
 69
     2
1001
ACAD
1000
MVIEW
1002
{
1070
    16
1010
0.0
1020
0.0
1030
0.0
1010
0.0
1020
0.0
1030
1.0
1040
0.0
1040
297.0
1040
804.0
1040
148.5
1040
50.0
1040
0.0
1040
0.0
1070
     0
1070
   100
1070
     1
1070
     3
1070
     0
1070
     0
1070
     0
1070
     0
1040
0.0
1040
0.0
1040
0.0
1040
10.0
1040
10.0
1040
10.0
1040
10.0
1070
     0
1002
{
1002
}
1002
}
  0
ENDSEC
  0
EOF
