  0
SECTION
  2
HEADER
  9
$ACADVER
  1
AC1009
  9
$INSBASE
 10
0.0
 20
0.0
 30
0.0
  9
$EXTMIN
 10
594.0
 20
0.0
 30
0.0
  9
$EXTMAX
 10
1434.0
 20
594.0
 30
0.0
  9
$LIMMIN
 10
0.0
 20
0.0
  9
$LIMMAX
 10
420.0
 20
297.0
  9
$ORTHOMODE
 70
     0
  9
$REGENMODE
 70
     1
  9
$FILLMODE
 70
     1
  9
$QTEXTMODE
 70
     0
  9
$MIRRTEXT
 70
     1
  9
$DRAGMODE
 70
     2
  9
$LTSCALE
 40
2.0
  9
$OSMODE
 70
    39
  9
$ATTMODE
 70
     1
  9
$TEXTSIZE
 40
3.0
  9
$TRACEWID
 40
1.0
  9
$TEXTSTYLE
  7
STANDARD
  9
$CLAYER
  8
011形状
  9
$CELTYPE
  6
BYLAYER
  9
$CECOLOR
 62
   256
  9
$DIMSCALE
 40
1.0
  9
$DIMASZ
 40
5.0
  9
$DIMEXO
 40
1.0
  9
$DIMDLI
 40
3.75
  9
$DIMRND
 40
0.0
  9
$DIMDLE
 40
0.0
  9
$DIMEXE
 40
1.5
  9
$DIMTP
 40
0.0
  9
$DIMTM
 40
0.0
  9
$DIMTXT
 40
6.0
  9
$DIMCEN
 40
2.5
  9
$DIMTSZ
 40
0.0
  9
$DIMTOL
 70
     0
  9
$DIMLIM
 70
     0
  9
$DIMTIH
 70
     0
  9
$DIMTOH
 70
     0
  9
$DIMSE1
 70
     0
  9
$DIMSE2
 70
     0
  9
$DIMTAD
 70
     3
  9
$DIMZIN
 70
     8
  9
$DIMBLK
  1

  9
$DIMASO
 70
     1
  9
$DIMSHO
 70
     1
  9
$DIMPOST
  1

  9
$DIMAPOST
  1

  9
$DIMALT
 70
     0
  9
$DIMALTD
 70
     4
  9
$DIMALTF
 40
0.0394
  9
$DIMLFAC
 40
1.0
  9
$DIMTOFL
 70
     1
  9
$DIMTVP
 40
0.0
  9
$DIMTIX
 70
     0
  9
$DIMSOXD
 70
     0
  9
$DIMSAH
 70
     1
  9
$DIMBLK1
  1
OPEN
  9
$DIMBLK2
  1
OPEN
  9
$DIMSTYLE
  2
通常X1_2
  9
$DIMCLRD
 70
   256
  9
$DIMCLRE
 70
   256
  9
$DIMCLRT
 70
     2
  9
$DIMTFAC
 40
0.5
  9
$DIMGAP
 40
1.0
  9
$LUNITS
 70
     2
  9
$LUPREC
 70
     8
  9
$SKETCHINC
 40
1.0
  9
$FILLETRAD
 40
10.0
  9
$AUNITS
 70
     0
  9
$AUPREC
 70
     6
  9
$MENU
  1
.
  9
$ELEVATION
 40
0.0
  9
$PELEVATION
 40
0.0
  9
$THICKNESS
 40
0.0
  9
$LIMCHECK
 70
     0
  9
$BLIPMODE
 70
     0
  9
$CHAMFERA
 40
10.0
  9
$CHAMFERB
 40
10.0
  9
$SKPOLY
 70
     0
  9
$TDCREATE
 40
2453536.500536378
  9
$TDUPDATE
 40
2457947.7218578011
  9
$TDINDWG
 40
1.0620880556000001
  9
$TDUSRTIMER
 40
1.0620880556000001
  9
$USRTIMER
 70
     1
  9
$ANGBASE
 50
0.0
  9
$ANGDIR
 70
     0
  9
$PDMODE
 70
     0
  9
$PDSIZE
 40
0.0
  9
$PLINEWID
 40
0.0
  9
$COORDS
 70
     1
  9
$SPLFRAME
 70
     0
  9
$SPLINETYPE
 70
     6
  9
$SPLINESEGS
 70
     8
  9
$ATTDIA
 70
     1
  9
$ATTREQ
 70
     1
  9
$HANDLING
 70
     1
  9
$HANDSEED
  5
703A
  9
$SURFTAB1
 70
     6
  9
$SURFTAB2
 70
     6
  9
$SURFTYPE
 70
     6
  9
$SURFU
 70
     6
  9
$SURFV
 70
     6
  9
$UCSNAME
  2

  9
$UCSORG
 10
594.0
 20
0.0
 30
0.0
  9
$UCSXDIR
 10
1.0
 20
0.0
 30
0.0
  9
$UCSYDIR
 10
0.0
 20
1.0
 30
0.0
  9
$PUCSNAME
  2

  9
$PUCSORG
 10
0.0
 20
0.0
 30
0.0
  9
$PUCSXDIR
 10
1.0
 20
0.0
 30
0.0
  9
$PUCSYDIR
 10
0.0
 20
1.0
 30
0.0
  9
$USERI1
 70
     0
  9
$USERI2
 70
     0
  9
$USERI3
 70
     0
  9
$USERI4
 70
     0
  9
$USERI5
 70
     0
  9
$USERR1
 40
0.0
  9
$USERR2
 40
0.0
  9
$USERR3
 40
0.0
  9
$USERR4
 40
0.0
  9
$USERR5
 40
0.0
  9
$WORLDVIEW
 70
     1
  9
$SHADEDGE
 70
     3
  9
$SHADEDIF
 70
    70
  9
$TILEMODE
 70
     1
  9
$MAXACTVP
 70
    48
  9
$PLIMCHECK
 70
     0
  9
$PEXTMIN
 10
211.5
 20
-8.0
 30
0.0
  9
$PEXTMAX
 10
903.5
 20
300.0
 30
0.0
  9
$PLIMMIN
 10
483.02948910854462
 20
-8.1501641204820885
  9
$PLIMMAX
 10
903.01847226284156
 20
288.8181586334241
  9
$UNITMODE
 70
     0
  9
$VISRETAIN
 70
     1
  9
$PLINEGEN
 70
     0
  9
$PSLTSCALE
 70
     1
  0
ENDSEC
  0
SECTION
  2
TABLES
  0
TABLE
  2
VPORT
 70
     1
  0
VPORT
  2
*ACTIVE
 70
     0
 10
0.0
 20
0.0
 11
1.0
 21
1.0
 12
1014.012227764204
 22
299.64665563903458
 13
0.0
 23
0.0
 14
10.0
 24
10.0
 15
10.0
 25
10.0
 16
0.0
 26
0.0
 36
1.0
 17
0.0
 27
0.0
 37
0.0
 40
604.28672605637826
 41
1.481638418079096
 42
50.0
 43
0.0
 44
0.0
 50
0.0
 51
0.0
 71
     0
 72
   100
 73
     1
 74
     3
 75
     0
 76
     1
 77
     0
 78
     0
  0
ENDTAB
  0
TABLE
  2
LTYPE
 70
    10
  0
LTYPE
  2
CONTINUOUS
 70
     0
  3
Solid line
 72
    65
 73
     0
 40
0.0
  0
LTYPE
  2
CENTER
 70
     0
  3
Center ____ _ ____ _ ____ _ ____ _ ____ _ ____
 72
    65
 73
     4
 40
2.0
 49
1.25
 49
-0.25
 49
0.25
 49
-0.25
  0
LTYPE
  2
CENTER2
 70
     0
  3
Center (.5x) ___ _ ___ _ ___ _ ___ _ ___ _ ___
 72
    65
 73
     4
 40
1.125
 49
0.75
 49
-0.125
 49
0.125
 49
-0.125
  0
LTYPE
  2
DASHED
 70
     0
  3
Dashed __ __ __ __ __ __ __ __ __ __ __ __ __ _
 72
    65
 73
     2
 40
0.75
 49
0.5
 49
-0.25
  0
LTYPE
  2
DASHED2
 70
     0
  3
Dashed (.5x) _ _ _ _ _ _ _ _ _ _ _ _ _ _ _ _ _
 72
    65
 73
     2
 40
0.375
 49
0.25
 49
-0.125
  0
LTYPE
  2
PHANTOM2
 70
     0
  3
Phantom (.5x) ___ _ _ ___ _ _ ___ _ _ ___ _ _
 72
    65
 73
     6
 40
1.25
 49
0.625
 49
-0.125
 49
0.125
 49
-0.125
 49
0.125
 49
-0.125
  0
LTYPE
  2
CENTERX2
 70
     0
  3
Center (2x) ________  __  ________  __  _____
 72
    65
 73
     4
 40
4.0
 49
2.5
 49
-0.5
 49
0.5
 49
-0.5
  0
LTYPE
  2
DASHEDX2
 70
     0
  3
Dashed (2x) ____  ____  ____  ____  ____  ___
 72
    65
 73
     2
 40
1.5
 49
1.0
 49
-0.5
  0
LTYPE
  2
PHANTOM
 70
     0
  3
Phantom ______  __  __  ______  __  __  ______
 72
    65
 73
     6
 40
2.5
 49
1.25
 49
-0.25
 49
0.25
 49
-0.25
 49
0.25
 49
-0.25
  0
LTYPE
  2
PHANTOMX2
 70
     0
  3
Phantom (2x) ____________    ____    ____   _
 72
    65
 73
     6
 40
5.0
 49
2.5
 49
-0.5
 49
0.5
 49
-0.5
 49
0.5
 49
-0.5
  0
ENDTAB
  0
TABLE
  2
LAYER
 70
     9
  0
LAYER
  2
0
 70
     0
 62
     7
  6
CONTINUOUS
  0
LAYER
  2
DEFPOINTS
 70
     0
 62
     7
  6
CONTINUOUS
  0
LAYER
  2
002寸法
 70
     0
 62
     1
  6
CONTINUOUS
  0
LAYER
  2
001センタ
 70
     0
 62
     1
  6
CENTER
  0
LAYER
  2
011形状
 70
     0
 62
     3
  6
CONTINUOUS
  0
LAYER
  2
003注釈
 70
     0
 62
     2
  6
CONTINUOUS
  0
LAYER
  2
051共通部品
 70
     0
 62
     3
  6
CONTINUOUS
  0
LAYER
  2
101購入品
 70
     0
 62
     3
  6
CONTINUOUS
  0
LAYER
  2
111治具
 70
     0
 62
     3
  6
CONTINUOUS
  0
ENDTAB
  0
TABLE
  2
STYLE
 70
     4
  0
STYLE
  2
STANDARD
 70
     0
 40
0.0
 41
0.9
 50
0.0
 71
     0
 42
3.0
  3
romans.shx
  4
extfont2.shx
  0
STYLE
  2
表題
 70
     0
 40
0.0
 41
1.0
 50
0.0
 71
     0
 42
2.5
  3
txt
  4

  0
STYLE
  2

 70
     1
 40
0.0
 41
1.0
 50
0.0
 71
     0
 42
2.5
  3
ltypeshp.shx
  4

  0
STYLE
  2
注釈
 70
     0
 40
3.0
 41
0.9
 50
0.0
 71
     0
 42
3.0
  3
romans.shx
  4
extfont2.shx
  0
ENDTAB
  0
TABLE
  2
VIEW
 70
     0
  0
ENDTAB
  0
TABLE
  2
UCS
 70
     0
  0
ENDTAB
  0
TABLE
  2
APPID
 70
    17
  0
APPID
  2
ACAD
 70
     0
  0
APPID
  2
ACAD_NAV_VCDISPLAY
 70
     0
  0
APPID
  2
ACAD_EXEMPT_FROM_CAD_STANDARDS
 70
     0
  0
APPID
  2
ACAUTHENVIRON
 70
     0
  0
APPID
  2
ACDBDYNAMICBLOCKTRUENAME
 70
     0
  0
APPID
  2
ACDBDYNAMICBLOCKGUID
 70
     0
  0
APPID
  2
ACADANNOPO
 70
     0
  0
APPID
  2
ACAECLAYERSTANDARD
 70
     0
  0
APPID
  2
ACCMTRANSPARENCY
 70
     0
  0
APPID
  2
ACAD_PSEXT
 70
     0
  0
APPID
  2
ACAD_DSTYLE_DIMJAG
 70
     0
  0
APPID
  2
ACAD_DSTYLE_DIMTALN
 70
     0
  0
APPID
  2
ACAD_DSTYLE_DIMRADIAL_EXTENSION
 70
     0
  0
APPID
  2
ACAD_MLEADERVER
 70
     0
  0
APPID
  2
CONTENTBLOCKDESCRIPTION
 70
     0
  0
APPID
  2
CONTENTBLOCKICON
 70
     0
  0
APPID
  2
AcDbAttr
 70
     0
  0
ENDTAB
  0
TABLE
  2
DIMSTYLE
 70
    19
  0
DIMSTYLE
  2
通常X1_0
 70
     0
  3

  4

  5

  6
OPEN
  7
OPEN
 40
1.0
 41
2.5
 42
0.5
 43
3.75
 44
0.75
 45
0.0
 46
0.0
 47
0.0
 48
0.000000001
140
3.0
141
2.5
142
0.0
143
0.0394
144
1.0
145
0.0
146
0.5
147
0.5
 71
     0
 72
     0
 73
     0
 74
     0
 75
     0
 76
     0
 77
     3
 78
     8
170
     0
171
     4
172
     1
173
     1
174
     0
175
     0
176
   256
177
   256
178
     2
  0
DIMSTYLE
  2
通常X3_0
 70
     0
  3

  4

  5

  6
OPEN
  7
OPEN
 40
0.0
 41
0.833
 42
0.167
 43
3.75
 44
0.25
 45
0.0
 46
0.0
 47
0.0
 48
0.000000001
140
1.0
141
2.5
142
0.0
143
0.0394
144
1.0
145
0.0
146
0.5
147
0.167
 71
     0
 72
     0
 73
     0
 74
     0
 75
     0
 76
     0
 77
     3
 78
     8
170
     0
171
     4
172
     1
173
     1
174
     0
175
     0
176
   256
177
   256
178
     2
  0
DIMSTYLE
  2
通常X2_0
 70
     0
  3

  4

  5

  6
OPEN
  7
OPEN
 40
0.0
 41
1.25
 42
0.25
 43
3.75
 44
0.375
 45
0.0
 46
0.0
 47
0.0
 48
0.000000001
140
1.5
141
2.5
142
0.0
143
0.0394
144
1.0
145
0.0
146
0.5
147
0.25
 71
     0
 72
     0
 73
     0
 74
     0
 75
     0
 76
     0
 77
     3
 78
     8
170
     0
171
     4
172
     1
173
     1
174
     0
175
     0
176
   256
177
   256
178
     2
  0
DIMSTYLE
  2
通常X2_3
 70
     0
  3

  4

  5

  6
OPEN
  7
OPEN
 40
1.0
 41
3.75
 42
0.75
 43
3.75
 44
1.125
 45
0.0
 46
0.0
 47
0.0
 48
0.0
140
4.5
141
2.5
142
0.0
143
0.0394
144
1.0
145
0.0
146
0.5
147
0.75
 71
     0
 72
     0
 73
     0
 74
     0
 75
     0
 76
     0
 77
     3
 78
     8
170
     0
171
     4
172
     1
173
     1
174
     0
175
     0
176
   256
177
   256
178
     2
  0
DIMSTYLE
  2
通常X3_4
 70
     0
  3

  4

  5

  6
OPEN
  7
OPEN
 40
1.0
 41
3.3330000000000002
 42
0.667
 43
3.75
 44
1.0
 45
0.0
 46
0.0
 47
0.0
 48
0.000000001
140
4.0
141
2.5
142
0.0
143
0.0394
144
1.0
145
0.0
146
0.5
147
0.667
 71
     0
 72
     0
 73
     0
 74
     0
 75
     0
 76
     0
 77
     3
 78
     8
170
     0
171
     4
172
     1
173
     1
174
     0
175
     0
176
   256
177
   256
178
     2
  0
DIMSTYLE
  2
通常X1_3
 70
     0
  3

  4

  5

  6
OPEN
  7
OPEN
 40
1.0
 41
7.5
 42
1.5
 43
3.75
 44
2.25
 45
0.0
 46
0.0
 47
0.0
 48
0.000000001
140
9.0
141
2.5
142
0.0
143
0.0394
144
1.0
145
0.0
146
0.5
147
1.5
 71
     0
 72
     0
 73
     0
 74
     0
 75
     0
 76
     0
 77
     3
 78
     8
170
     0
171
     4
172
     1
173
     1
174
     0
175
     0
176
   256
177
   256
178
     2
  0
DIMSTYLE
  2
通常X1_2
 70
     0
  3

  4

  5

  6
OPEN
  7
OPEN
 40
1.0
 41
5.0
 42
1.0
 43
3.75
 44
1.5
 45
0.0
 46
0.0
 47
0.0
 48
0.0
140
6.0
141
2.5
142
0.0
143
0.0394
144
1.0
145
0.0
146
0.5
147
1.0
 71
     0
 72
     0
 73
     0
 74
     0
 75
     0
 76
     0
 77
     3
 78
     8
170
     0
171
     4
172
     1
173
     1
174
     0
175
     0
176
   256
177
   256
178
     2
  0
DIMSTYLE
  2
通常X1_0$3
 70
     0
  3

  4

  5

  6
OPEN
  7
OPEN
 40
1.0
 41
2.5
 42
0.5
 43
3.75
 44
0.75
 45
0.0
 46
0.0
 47
0.0
 48
0.000000001
140
3.0
141
2.5
142
0.0
143
0.0394
144
1.0
145
0.0
146
0.5
147
0.5
 71
     0
 72
     0
 73
     0
 74
     0
 75
     0
 76
     0
 77
     3
 78
     8
170
     0
171
     4
172
     1
173
     1
174
     0
175
     0
176
   256
177
   256
178
     2
  0
DIMSTYLE
  2
通常X1_3$3
 70
     0
  3

  4

  5

  6
OPEN
  7
OPEN
 40
1.0
 41
7.5
 42
1.5
 43
3.75
 44
2.25
 45
0.0
 46
0.0
 47
0.0
 48
0.000000001
140
9.0
141
2.5
142
0.0
143
0.0394
144
1.0
145
0.0
146
0.5
147
1.5
 71
     0
 72
     0
 73
     0
 74
     0
 75
     0
 76
     0
 77
     3
 78
     8
170
     0
171
     4
172
     1
173
     1
174
     0
175
     0
176
   256
177
   256
178
     2
  0
DIMSTYLE
  2
通常X1_2$3
 70
     0
  3

  4

  5

  6
OPEN
  7
OPEN
 40
1.0
 41
5.0
 42
1.0
 43
3.75
 44
1.5
 45
0.0
 46
0.0
 47
0.0
 48
0.0
140
6.0
141
2.5
142
0.0
143
0.0394
144
1.0
145
0.0
146
0.5
147
1.0
 71
     0
 72
     0
 73
     0
 74
     0
 75
     0
 76
     0
 77
     3
 78
     8
170
     0
171
     4
172
     1
173
     1
174
     0
175
     0
176
   256
177
   256
178
     2
  0
DIMSTYLE
  2
通常X2_3$3
 70
     0
  3

  4

  5

  6
OPEN
  7
OPEN
 40
1.0
 41
3.75
 42
0.75
 43
3.75
 44
1.125
 45
0.0
 46
0.0
 47
0.0
 48
0.0
140
4.5
141
2.5
142
0.0
143
0.0394
144
1.0
145
0.0
146
0.5
147
0.75
 71
     0
 72
     0
 73
     0
 74
     0
 75
     0
 76
     0
 77
     3
 78
     8
170
     0
171
     4
172
     1
173
     1
174
     0
175
     0
176
   256
177
   256
178
     2
  0
DIMSTYLE
  2
通常X3_4$3
 70
     0
  3

  4

  5

  6
OPEN
  7
OPEN
 40
1.0
 41
3.3330000000000002
 42
0.667
 43
3.75
 44
1.0
 45
0.0
 46
0.0
 47
0.0
 48
0.000000001
140
4.0
141
10.0
142
0.0
143
0.0394
144
1.0
145
0.0
146
0.5
147
0.667
 71
     0
 72
     0
 73
     0
 74
     0
 75
     0
 76
     0
 77
     3
 78
     8
170
     0
171
     4
172
     1
173
     1
174
     0
175
     0
176
   256
177
   256
178
     2
  0
DIMSTYLE
  2
通常X2_0$3
 70
     0
  3

  4

  5

  6
OPEN
  7
OPEN
 40
0.0
 41
1.25
 42
0.25
 43
3.75
 44
0.5
 45
0.0
 46
0.0
 47
0.0
 48
0.000000001
140
1.5
141
2.5
142
0.0
143
0.0394
144
1.0
145
0.0
146
0.5
147
0.5
 71
     0
 72
     0
 73
     0
 74
     0
 75
     0
 76
     0
 77
     3
 78
     8
170
     0
171
     4
172
     1
173
     1
174
     0
175
     0
176
   256
177
   256
178
     2
  0
DIMSTYLE
  2
通常X3_0$3
 70
     0
  3

  4

  5

  6
OPEN
  7
OPEN
 40
0.0
 41
0.833
 42
0.167
 43
3.75
 44
0.4
 45
0.0
 46
0.0
 47
0.0
 48
0.000000001
140
1.0
141
2.5
142
0.0
143
0.0394
144
1.0
145
0.0
146
0.5
147
0.4
 71
     0
 72
     0
 73
     0
 74
     0
 75
     0
 76
     0
 77
     3
 78
     8
170
     0
171
     4
172
     1
173
     1
174
     0
175
     0
176
   256
177
   256
178
     2
  0
DIMSTYLE
  2
通常X1_5
 70
     0
  3

  4

  5

  6
OPEN
  7
OPEN
 40
1.0
 41
1.6669999999999989
 42
0.33
 43
3.75
 44
0.5
 45
0.0
 46
0.0
 47
0.0
 48
0.000000001
140
2.0
141
2.5
142
0.0
143
0.0394
144
1.0
145
0.0
146
0.5
147
0.33
 71
     0
 72
     0
 73
     0
 74
     0
 75
     0
 76
     0
 77
     3
 78
     9
170
     0
171
     4
172
     1
173
     1
174
     0
175
     0
176
   256
177
   256
178
     2
  0
DIMSTYLE
  2
通常X3_5
 70
     0
  3

  4

  5

  6
OPEN
  7
OPEN
 40
1.0
 41
4.1669999999999989
 42
0.833
 43
3.75
 44
1.25
 45
0.0
 46
0.0
 47
0.0
 48
0.000000001
140
5.0
141
2.5
142
0.0
143
0.0394
144
1.0
145
0.0
146
0.5
147
0.833
 71
     0
 72
     0
 73
     0
 74
     0
 75
     0
 76
     0
 77
     3
 78
     8
170
     0
171
     4
172
     1
173
     1
174
     0
175
     0
176
   256
177
   256
178
     2
  0
DIMSTYLE
  2
通常X3_5$3
 70
     0
  3

  4

  5

  6
OPEN
  7
OPEN
 40
1.0
 41
4.1669999999999989
 42
0.833
 43
3.75
 44
1.25
 45
0.0
 46
0.0
 47
0.0
 48
0.000000001
140
5.0
141
2.5
142
0.0
143
0.0394
144
1.0
145
0.0
146
0.5
147
0.833
 71
     0
 72
     0
 73
     0
 74
     0
 75
     0
 76
     0
 77
     3
 78
     8
170
     0
171
     4
172
     1
173
     1
174
     0
175
     0
176
   256
177
   256
178
     2
  0
DIMSTYLE
  2
通常X1_5$3
 70
     0
  3

  4

  5

  6
OPEN
  7
OPEN
 40
1.0
 41
1.6669999999999989
 42
0.33
 43
3.75
 44
0.5
 45
0.0
 46
0.0
 47
0.0
 48
0.000000001
140
2.0
141
2.5
142
0.0
143
0.0394
144
1.0
145
0.0
146
0.5
147
0.33
 71
     0
 72
     0
 73
     0
 74
     0
 75
     0
 76
     0
 77
     3
 78
     9
170
     0
171
     4
172
     1
173
     1
174
     0
175
     0
176
   256
177
   256
178
     2
  0
DIMSTYLE
  2
STANDARD
 70
     0
  3

  4

  5

  6

  7

 40
1.0
 41
0.18
 42
0.0625
 43
0.38
 44
0.18
 45
0.0
 46
0.0
 47
0.0
 48
0.0
140
0.18
141
0.09
142
0.0
143
25.399999999999999
144
1.0
145
0.0
146
1.0
147
0.09
 71
     0
 72
     0
 73
     1
 74
     1
 75
     0
 76
     0
 77
     0
 78
     0
170
     0
171
     2
172
     0
173
     0
174
     0
175
     0
176
     0
177
     0
178
     0
  0
ENDTAB
  0
ENDSEC
  0
SECTION
  2
BLOCKS
  0
BLOCK
  8
0
  2
$MODEL_SPACE
 70
     0
 10
0.0
 20
0.0
 30
0.0
  3
$MODEL_SPACE
  1

  0
ENDBLK
  5
21
  8
0
  0
BLOCK
 67
     1
  8
0
  2
$PAPER_SPACE
 70
     0
 10
0.0
 20
0.0
 30
0.0
  3
$PAPER_SPACE
  1

  0
ENDBLK
  5
58
 67
     1
  8
0
  0
BLOCK
  8
0
  2
_OPEN
 70
     0
 10
0.0
 20
0.0
 30
0.0
  3
_OPEN
  1

  0
LINE
  5
87
  8
0
  6
BYBLOCK
 62
     0
 10
-1.0
 20
0.1666666666666666
 30
0.0
 11
0.0
 21
0.0
 31
0.0
  0
LINE
  5
88
  8
0
  6
BYBLOCK
 62
     0
 10
0.0
 20
0.0
 30
0.0
 11
-1.0
 21
-0.1666666666666666
 31
0.0
  0
LINE
  5
89
  8
0
  6
BYBLOCK
 62
     0
 10
0.0
 20
0.0
 30
0.0
 11
-1.0
 21
0.0
 31
0.0
  0
ENDBLK
  5
8B
  8
0
  0
BLOCK
  8
0
  2
A$C0C1533B0
 70
     0
 10
0.0
 20
0.0
 30
0.0
  3
A$C0C1533B0
  1

  0
LINE
  5
2C54
  8
0
 10
5.2469999999998427
 20
5.2469999999998427
 30
0.0
 11
0.0
 21
5.2469999999998427
 31
0.0
  0
LINE
  5
2C55
  8
0
 10
5.0984999999996026
 20
5.0984999999996026
 30
0.0
 11
0.1484999999997854
 21
5.0984999999996026
 31
0.0
  0
LINE
  5
2C56
  8
0
 10
3.415500000000065
 20
4.6529999999988831
 30
0.0
 11
3.11850000000004
 21
4.6529999999988831
 31
0.0
  0
LINE
  5
2C57
  8
0
 10
3.11850000000004
 20
4.6529999999988831
 30
0.0
 11
3.11850000000004
 21
3.266999999998915
 31
0.0
  0
LINE
  5
2C58
  8
0
 10
1.7325000000000721
 20
4.6529999999988831
 30
0.0
 11
1.7325000000000721
 21
3.266999999998915
 31
0.0
  0
LINE
  5
2C59
  8
0
 10
1.7325000000000721
 20
4.6529999999988831
 30
0.0
 11
1.336499999999887
 21
4.6529999999988831
 31
0.0
  0
LINE
  5
2C5A
  8
0
 10
2.0324722099007881
 20
1.0250351407994449
 30
0.0
 11
2.0390851008005479
 21
1.0150218869994201
 31
0.0
  0
LINE
  5
2C5B
  8
0
 10
2.1496148443002312
 20
0.9334853956993356
 30
0.0
 11
2.1694535159003858
 21
0.9221561139995628
 31
0.0
  0
LINE
  5
2C5C
  8
0
 10
2.0277487164003101
 20
1.03516283089948
 30
0.0
 11
2.0324722099007881
 21
1.0250351407994449
 31
0.0
  0
LINE
  5
2C5D
  8
0
 10
2.1694535159003858
 20
0.9221561139995628
 30
0.0
 11
2.1892921875009961
 21
0.9115134566995948
 31
0.0
  0
LINE
  5
2C5E
  8
0
 10
2.024914620300478
 20
1.045404958399331
 30
0.0
 11
2.0277487164003101
 21
1.03516283089948
 31
0.0
  0
LINE
  5
2C5F
  8
0
 10
2.1892921875009961
 20
0.9115134566995948
 30
0.0
 11
2.209130859099786
 21
0.9015574215995911
 31
0.0
  0
LINE
  5
2C60
  8
0
 10
2.0239699215999281
 20
1.0557615232992239
 30
0.0
 11
2.024914620300478
 21
1.045404958399331
 31
0.0
  0
LINE
  5
2C61
  8
0
 10
2.209130859099786
 20
0.9015574215995911
 30
0.0
 11
2.2293069238003218
 21
0.8904570157997113
 31
0.0
  0
LINE
  5
2C62
  8
0
 10
2.0245772283005858
 20
1.065202591199067
 30
0.0
 11
2.0239699215999281
 21
1.0557615232992239
 31
0.0
  0
LINE
  5
2C63
  8
0
 10
2.2293069238003218
 20
0.8904570157997113
 30
0.0
 11
2.2463789776998051
 21
0.8779833622995739
 31
0.0
  0
LINE
  5
2C64
  8
0
 10
2.0263991472997982
 20
1.0743003468994621
 30
0.0
 11
2.0245772283005858
 21
1.065202591199067
 31
0.0
  0
LINE
  5
2C65
  8
0
 10
2.2463789776998051
 20
0.8779833622995739
 30
0.0
 11
2.260347023000576
 21
0.8641364632994736
 31
0.0
  0
LINE
  5
2C66
  8
0
 10
2.0294356786002932
 20
1.0830547914995341
 30
0.0
 11
2.0263991472997982
 21
1.0743003468994621
 31
0.0
  0
LINE
  5
2C67
  8
0
 10
2.260347023000576
 20
0.8641364632994736
 30
0.0
 11
2.2712110574998401
 21
0.8489163187991835
 31
0.0
  0
LINE
  5
2C68
  8
0
 10
2.0336868222002522
 20
1.091465923899249
 30
0.0
 11
2.0294356786002932
 21
1.0830547914995341
 31
0.0
  0
LINE
  5
2C69
  8
0
 10
2.2712110574998401
 20
0.8489163187991835
 30
0.0
 11
2.2789710822999041
 21
0.8323229276991241
 31
0.0
  0
LINE
  5
2C6A
  8
0
 10
2.039152579200163
 20
1.099533745199551
 30
0.0
 11
2.0336868222002522
 21
1.091465923899249
 31
0.0
  0
LINE
  5
2C6B
  8
0
 10
2.2789710822999041
 20
0.8323229276991241
 30
0.0
 11
2.2836270963007328
 21
0.8143562899992957
 31
0.0
  0
LINE
  5
2C6C
  8
0
 10
2.0458329485004461
 20
1.1072582553993009
 30
0.0
 11
2.039152579200163
 21
1.099533745199551
 31
0.0
  0
LINE
  5
2C6D
  8
0
 10
2.2836270963007328
 20
0.8143562899992957
 30
0.0
 11
2.2851791017001228
 21
0.7950164067992774
 31
0.0
  0
LINE
  5
2C6E
  8
0
 10
2.0537279301006488
 20
1.1146394533993771
 30
0.0
 11
2.0458329485004461
 21
1.1072582553993009
 31
0.0
  0
LINE
  5
2C6F
  8
0
 10
2.2851791017001228
 20
0.7950164067992774
 30
0.0
 11
2.2841669245999578
 21
0.7755620850994092
 31
0.0
  0
LINE
  5
2C70
  8
0
 10
2.0605432561997068
 20
1.119846345199448
 30
0.0
 11
2.0537279301006488
 21
1.1146394533993771
 31
0.0
  0
LINE
  5
2C71
  8
0
 10
2.2841669245999578
 20
0.7755620850994092
 30
0.0
 11
2.2811303933003719
 21
0.7572521362992575
 31
0.0
  0
LINE
  5
2C72
  8
0
 10
2.067763452700091
 20
1.124252176299251
 30
0.0
 11
2.0605432561997068
 21
1.119846345199448
 31
0.0
  0
LINE
  5
2C73
  8
0
 10
2.2811303933003719
 20
0.7572521362992575
 30
0.0
 11
2.2760695078000022
 21
0.7400865592994707
 31
0.0
  0
LINE
  5
2C74
  8
0
 10
2.075388520700471
 20
1.127856947799045
 30
0.0
 11
2.067763452700091
 21
1.124252176299251
 31
0.0
  0
LINE
  5
2C75
  8
0
 10
2.2760695078000022
 20
0.7400865592994707
 30
0.0
 11
2.2689842670001781
 21
0.7240653540995936
 31
0.0
  0
LINE
  5
2C76
  8
0
 10
2.0834184591003568
 20
1.1306606585994809
 30
0.0
 11
2.075388520700471
 21
1.127856947799045
 31
0.0
  0
LINE
  5
2C77
  8
0
 10
2.2689842670001781
 20
0.7240653540995936
 30
0.0
 11
2.259874673100057
 21
0.709188520699172
 31
0.0
  0
LINE
  5
2C78
  8
0
 10
2.091853268999329
 20
1.1326633086991931
 30
0.0
 11
2.0834184591003568
 21
1.1306606585994809
 31
0.0
  0
LINE
  5
2C79
  8
0
 10
2.259874673100057
 20
0.709188520699172
 30
0.0
 11
2.2487407250000611
 21
0.6954560590995698
 31
0.0
  0
LINE
  5
2C7A
  8
0
 10
2.1006929493005368
 20
1.1338648991993521
 30
0.0
 11
2.091853268999329
 21
1.1326633086991931
 31
0.0
  0
LINE
  5
2C7B
  8
0
 10
2.2487407250000611
 20
0.6954560590995698
 30
0.0
 11
2.2355824216001561
 21
0.6828679681989343
 31
0.0
  0
LINE
  5
2C7C
  8
0
 10
2.1099374999998868
 20
1.1342654300992761
 30
0.0
 11
2.1006929493005368
 21
1.1338648991993521
 31
0.0
  0
LINE
  5
2C7D
  8
0
 10
2.2355824216001561
 20
0.6828679681989343
 30
0.0
 11
2.2216143774003281
 21
0.6724541856992801
 31
0.0
  0
LINE
  5
2C7E
  8
0
 10
2.1191820507006009
 20
1.1338648991993521
 30
0.0
 11
2.1099374999998868
 21
1.1342654300992761
 31
0.0
  0
LINE
  5
2C7F
  8
0
 10
2.2216143774003281
 20
0.6724541856992801
 30
0.0
 11
2.2061618061998161
 21
0.6636425223994138
 31
0.0
  0
LINE
  5
2C80
  8
0
 10
2.1280217310004441
 20
1.1326633086991931
 30
0.0
 11
2.1191820507006009
 21
1.1338648991993521
 31
0.0
  0
LINE
  5
2C81
  8
0
 10
2.2061618061998161
 20
0.6636425223994138
 30
0.0
 11
2.1892247091000172
 21
0.656432979399142
 31
0.0
  0
LINE
  5
2C82
  8
0
 10
2.1364565409003262
 20
1.1306606585994809
 30
0.0
 11
2.1280217310004441
 21
1.1326633086991931
 31
0.0
  0
LINE
  5
2C83
  8
0
 10
2.1892247091000172
 20
0.656432979399142
 30
0.0
 11
2.1708030849999882
 21
0.6508255577991804
 31
0.0
  0
LINE
  5
2C84
  8
0
 10
2.1444864793006668
 20
1.127856947799045
 30
0.0
 11
2.1364565409003262
 21
1.1306606585994809
 31
0.0
  0
LINE
  5
2C85
  8
0
 10
2.1708030849999882
 20
0.6508255577991804
 30
0.0
 11
2.1508969349997642
 21
0.6468202564994954
 31
0.0
  0
LINE
  5
2C86
  8
0
 10
2.1521115473001369
 20
1.124252176299251
 30
0.0
 11
2.1444864793006668
 21
1.127856947799045
 31
0.0
  0
LINE
  5
2C87
  8
0
 10
2.1508969349997642
 20
0.6468202564994954
 30
0.0
 11
2.1295062580002191
 21
0.6444170754994048
 31
0.0
  0
LINE
  5
2C88
  8
0
 10
2.159331743799612
 20
1.119846345199448
 30
0.0
 11
2.1521115473001369
 21
1.124252176299251
 31
0.0
  0
LINE
  5
2C89
  8
0
 10
2.1295062580002191
 20
0.6444170754994048
 30
0.0
 11
2.1066310551004781
 21
0.6436160158991698
 31
0.0
  0
LINE
  5
2C8A
  8
0
 10
2.1661470699009442
 20
1.1146394533993771
 30
0.0
 11
2.159331743799612
 21
1.119846345199448
 31
0.0
  0
LINE
  5
2C8B
  8
0
 10
2.1066310551004781
 20
0.6436160158991698
 30
0.0
 11
2.0847005497998898
 21
0.6443598567993832
 31
0.0
  0
LINE
  5
2C8C
  8
0
 10
2.1747843150005788
 20
1.1062283198991729
 30
0.0
 11
2.1661470699009442
 21
1.1146394533993771
 31
0.0
  0
LINE
  5
2C8D
  8
0
 10
2.0847005497998898
 20
0.6443598567993832
 30
0.0
 11
2.064254571499986
 21
0.6465913827996701
 31
0.0
  0
LINE
  5
2C8E
  8
0
 10
2.1818020763007548
 20
1.0970161267991889
 30
0.0
 11
2.1747843150005788
 21
1.1062283198991729
 31
0.0
  0
LINE
  5
2C8F
  8
0
 10
2.064254571499986
 20
0.6465913827996701
 30
0.0
 11
2.0452931201998581
 21
0.650310590599247
 31
0.0
  0
LINE
  5
2C90
  8
0
 10
2.1872003549001411
 20
1.0870028740991979
 30
0.0
 11
2.1818020763007548
 21
1.0970161267991889
 31
0.0
  0
LINE
  5
2C91
  8
0
 10
2.0452931201998581
 20
0.650310590599247
 30
0.0
 11
2.0278161947999251
 21
0.6555174823993184
 31
0.0
  0
LINE
  5
2C92
  8
0
 10
2.1909791497000688
 20
1.0761885606989381
 30
0.0
 11
2.1872003549001411
 21
1.0870028740991979
 31
0.0
  0
LINE
  5
2C93
  8
0
 10
2.0278161947999251
 20
0.6555174823993184
 30
0.0
 11
2.0118237963997672
 21
0.6622120570993957
 31
0.0
  0
LINE
  5
2C94
  8
0
 10
2.193138460700538
 20
1.0645731865990911
 30
0.0
 11
2.1909791497000688
 21
1.0761885606989381
 31
0.0
  0
LINE
  5
2C95
  8
0
 10
2.0118237963997672
 20
0.6622120570993957
 30
0.0
 11
1.9973159238998051
 21
0.6703943157995127
 31
0.0
  0
LINE
  5
2C96
  8
0
 10
2.193678287900183
 20
1.052156751799429
 30
0.0
 11
2.193138460700538
 21
1.0645731865990911
 31
0.0
  0
LINE
  5
2C97
  8
0
 10
1.9973159238998051
 20
0.6703943157995127
 30
0.0
 11
1.984292578400527
 21
0.6800642573994084
 31
0.0
  0
LINE
  5
2C98
  8
0
 10
2.1925986323999491
 20
1.038939257398851
 30
0.0
 11
2.193678287900183
 21
1.052156751799429
 31
0.0
  0
LINE
  5
2C99
  8
0
 10
1.984292578400527
 20
0.6800642573994084
 30
0.0
 11
1.970257054700596
 21
0.6932245330992828
 31
0.0
  0
LINE
  5
2C9A
  8
0
 10
2.2686468749998312
 20
1.038939257398851
 30
0.0
 11
2.1925986323999491
 21
1.038939257398851
 31
0.0
  0
LINE
  5
2C9B
  8
0
 10
1.970257054700596
 20
0.6932245330992828
 30
0.0
 11
1.9583808431002581
 21
0.707071432099383
 31
0.0
  0
LINE
  5
2C9C
  8
0
 10
2.2685119182001472
 20
1.0598812619996349
 30
0.0
 11
2.2686468749998312
 21
1.038939257398851
 31
0.0
  0
LINE
  5
2C9D
  8
0
 10
1.9583808431002581
 20
0.707071432099383
 30
0.0
 11
1.948663942499933
 21
0.7216049543994814
 31
0.0
  0
LINE
  5
2C9E
  8
0
 10
2.2662176504004492
 20
1.0794500199992849
 30
0.0
 11
2.2685119182001472
 21
1.0598812619996349
 31
0.0
  0
LINE
  5
2C9F
  8
0
 10
1.948663942499933
 20
0.7216049543994814
 30
0.0
 11
1.9411063540001121
 21
0.7368250999993508
 31
0.0
  0
LINE
  5
2CA0
  8
0
 10
2.2617640705002482
 20
1.097645531399166
 30
0.0
 11
2.2662176504004492
 21
1.0794500199992849
 31
0.0
  0
LINE
  5
2CA1
  8
0
 10
1.9411063540001121
 20
0.7368250999993508
 30
0.0
 11
1.935708075400725
 21
0.7527318677994117
 31
0.0
  0
LINE
  5
2CA2
  8
0
 10
2.2551511796004879
 20
1.114467797299312
 30
0.0
 11
2.2617640705002482
 21
1.097645531399166
 31
0.0
  0
LINE
  5
2CA3
  8
0
 10
1.935708075400725
 20
0.7527318677994117
 30
0.0
 11
1.9324691088995669
 21
0.7693252588992438
 31
0.0
  0
LINE
  5
2CA4
  8
0
 10
2.2463789776998051
 20
1.1299168165992339
 30
0.0
 11
2.2551511796004879
 21
1.114467797299312
 31
0.0
  0
LINE
  5
2CA5
  8
0
 10
1.9324691088995669
 20
0.7693252588992438
 30
0.0
 11
1.931389453400697
 21
0.7866052732993012
 31
0.0
  0
LINE
  5
2CA6
  8
0
 10
2.2354474648000169
 20
1.143992590399193
 30
0.0
 11
2.2463789776998051
 21
1.1299168165992339
 31
0.0
  0
LINE
  5
2CA7
  8
0
 10
1.931389453400697
 20
0.7866052732993012
 30
0.0
 11
1.931389453400697
 21
0.81464238239937
 31
0.0
  0
LINE
  5
2CA8
  8
0
 10
2.222356640900216
 20
1.1566951175993829
 30
0.0
 11
2.2354474648000169
 21
1.143992590399193
 31
0.0
  0
LINE
  5
2CA9
  8
0
 10
1.931389453400697
 20
0.81464238239937
 30
0.0
 11
2.0074376948996351
 21
0.81464238239937
 31
0.0
  0
LINE
  5
2CAA
  8
0
 10
2.21034547140016
 20
1.165621217199259
 30
0.0
 11
2.222356640900216
 21
1.1566951175993829
 31
0.0
  0
LINE
  5
2CAB
  8
0
 10
2.0074376948996351
 20
0.81464238239937
 30
0.0
 11
2.0074376948996351
 21
0.789408984099282
 31
0.0
  0
LINE
  5
2CAC
  8
0
 10
2.1969847339000799
 20
1.173174071299399
 30
0.0
 11
2.21034547140016
 21
1.165621217199259
 31
0.0
  0
LINE
  5
2CAD
  8
0
 10
2.0074376948996351
 20
0.789408984099282
 30
0.0
 11
2.0079775232006791
 21
0.7770497690994489
 31
0.0
  0
LINE
  5
2CAE
  8
0
 10
2.1822744262003648
 20
1.1793536787995429
 30
0.0
 11
2.1969847339000799
 21
1.173174071299399
 31
0.0
  0
LINE
  5
2CAF
  8
0
 10
2.0079775232006791
 20
0.7770497690994489
 30
0.0
 11
2.0095970069996829
 21
0.765606051099212
 31
0.0
  0
LINE
  5
2CB0
  8
0
 10
2.1662145483005579
 20
1.184160040799497
 30
0.0
 11
2.1822744262003648
 21
1.1793536787995429
 31
0.0
  0
LINE
  5
2CB1
  8
0
 10
2.0095970069996829
 20
0.765606051099212
 30
0.0
 11
2.012296145199798
 21
0.7550778300992534
 31
0.0
  0
LINE
  5
2CB2
  8
0
 10
2.1488051023998191
 20
1.1875931561990001
 30
0.0
 11
2.1662145483005579
 21
1.184160040799497
 31
0.0
  0
LINE
  5
2CB3
  8
0
 10
2.012296145199798
 20
0.7550778300992534
 30
0.0
 11
2.0160749400001801
 21
0.7454651071996068
 31
0.0
  0
LINE
  5
2CB4
  8
0
 10
2.1300460862994441
 20
1.1896530249991879
 30
0.0
 11
2.1488051023998191
 21
1.1875931561990001
 31
0.0
  0
LINE
  5
2CB5
  8
0
 10
2.0160749400001801
 20
0.7454651071996068
 30
0.0
 11
2.0209333903003421
 21
0.7367678812993291
 31
0.0
  0
LINE
  5
2CB6
  8
0
 10
2.1099374999998868
 20
1.1903396482994131
 30
0.0
 11
2.1300460862994441
 21
1.1896530249991879
 31
0.0
  0
LINE
  5
2CB7
  8
0
 10
2.0209333903003421
 20
0.7367678812993291
 30
0.0
 11
2.0268714961002838
 21
0.7289861523991023
 31
0.0
  0
LINE
  5
2CB8
  8
0
 10
2.093135359700681
 20
1.1895385886991781
 30
0.0
 11
2.1099374999998868
 21
1.1903396482994131
 31
0.0
  0
LINE
  5
2CB9
  8
0
 10
2.0268714961002838
 20
0.7289861523991023
 30
0.0
 11
2.0338892574004599
 21
0.7221199215994149
 31
0.0
  0
LINE
  5
2CBA
  8
0
 10
2.076738089799619
 20
1.187135407699315
 30
0.0
 11
2.093135359700681
 21
1.1895385886991781
 31
0.0
  0
LINE
  5
2CBB
  8
0
 10
2.0338892574004599
 20
0.7221199215994149
 30
0.0
 11
2.0417167606001381
 21
0.7161691888993574
 31
0.0
  0
LINE
  5
2CBC
  8
0
 10
2.0607456914003701
 20
1.1831301063994031
 30
0.0
 11
2.076738089799619
 21
1.187135407699315
 31
0.0
  0
LINE
  5
2CBD
  8
0
 10
2.0417167606001381
 20
0.7161691888993574
 30
0.0
 11
2.050084092099496
 21
0.7111339520995444
 31
0.0
  0
LINE
  5
2CBE
  8
0
 10
2.0451581633997189
 20
1.1775226836991799
 30
0.0
 11
2.0607456914003701
 21
1.1831301063994031
 31
0.0
  0
LINE
  5
2CBF
  8
0
 10
2.050084092099496
 20
0.7111339520995444
 30
0.0
 11
2.0589912508003181
 21
0.7070142144991678
 31
0.0
  0
LINE
  5
2CC0
  8
0
 10
2.0299755057999391
 20
1.170313141799169
 30
0.0
 11
2.0451581633997189
 21
1.1775226836991799
 31
0.0
  0
LINE
  5
2CC1
  8
0
 10
2.0589912508003181
 20
0.7070142144991678
 30
0.0
 11
2.0684382377994548
 21
0.7038099727990357
 31
0.0
  0
LINE
  5
2CC2
  8
0
 10
2.0151977197001538
 20
1.161501478499303
 30
0.0
 11
2.0299755057999391
 21
1.170313141799169
 31
0.0
  0
LINE
  5
2CC3
  8
0
 10
2.0684382377994548
 20
0.7038099727990357
 30
0.0
 11
2.078425052000056
 21
0.7015212291994432
 31
0.0
  0
LINE
  5
2CC4
  8
0
 10
2.00082480509991
 20
1.15108769489916
 30
0.0
 11
2.0151977197001538
 21
1.161501478499303
 31
0.0
  0
LINE
  5
2CC5
  8
0
 10
2.078425052000056
 20
0.7015212291994432
 30
0.0
 11
2.088951694500337
 21
0.7001479825992192
 31
0.0
  0
LINE
  5
2CC6
  8
0
 10
1.9868567598000479
 20
1.138671261199306
 30
0.0
 11
2.00082480509991
 21
1.15108769489916
 31
0.0
  0
LINE
  5
2CC7
  8
0
 10
2.088951694500337
 20
0.7001479825992192
 30
0.0
 11
2.100018164200264
 21
0.6996902340993075
 31
0.0
  0
LINE
  5
2CC8
  8
0
 10
1.975182983400827
 20
1.125453766799182
 30
0.0
 11
1.9868567598000479
 21
1.138671261199306
 31
0.0
  0
LINE
  5
2CC9
  8
0
 10
2.100018164200264
 20
0.6996902340993075
 30
0.0
 11
2.1145935151007502
 21
0.7001479825992192
 31
0.0
  0
LINE
  5
2CCA
  8
0
 10
1.965803475900429
 20
1.1114352116992441
 30
0.0
 11
1.975182983400827
 21
1.125453766799182
 31
0.0
  0
LINE
  5
2CCB
  8
0
 10
2.1145935151007502
 20
0.7001479825992192
 30
0.0
 11
2.128089210500093
 21
0.7015212291994432
 31
0.0
  0
LINE
  5
2CCC
  8
0
 10
1.958718236200184
 20
1.096615596999527
 30
0.0
 11
1.965803475900429
 21
1.1114352116992441
 31
0.0
  0
LINE
  5
2CCD
  8
0
 10
2.128089210500093
 20
0.7015212291994432
 30
0.0
 11
2.140505249300531
 21
0.7038099727990357
 31
0.0
  0
LINE
  5
2CCE
  8
0
 10
1.9539272643005461
 20
1.08099492159954
 30
0.0
 11
1.958718236200184
 21
1.096615596999527
 31
0.0
  0
LINE
  5
2CCF
  8
0
 10
2.140505249300531
 20
0.7038099727990357
 30
0.0
 11
2.1518416337003141
 21
0.7070142144991678
 31
0.0
  0
LINE
  5
2CD0
  8
0
 10
1.951430560199696
 20
1.0645731865990911
 30
0.0
 11
1.9539272643005461
 21
1.08099492159954
 31
0.0
  0
LINE
  5
2CD1
  8
0
 10
2.1518416337003141
 20
0.7070142144991678
 30
0.0
 11
2.1620983615002838
 21
0.7111339520995444
 31
0.0
  0
LINE
  5
2CD2
  8
0
 10
1.951228124999943
 20
1.047350390899509
 30
0.0
 11
1.951430560199696
 21
1.0645731865990911
 31
0.0
  0
LINE
  5
2CD3
  8
0
 10
2.1620983615002838
 20
0.7111339520995444
 30
0.0
 11
2.1712754349000529
 21
0.7161691888993574
 31
0.0
  0
LINE
  5
2CD4
  8
0
 10
1.9531850007997491
 20
1.0302420314994829
 30
0.0
 11
1.951228124999943
 21
1.047350390899509
 31
0.0
  0
LINE
  5
2CD5
  8
0
 10
2.1712754349000529
 20
0.7161691888993574
 30
0.0
 11
2.1793728517004629
 21
0.7221199215994149
 31
0.0
  0
LINE
  5
2CD6
  8
0
 10
1.9571662307998841
 20
1.01416360759913
 30
0.0
 11
1.9531850007997491
 21
1.0302420314994829
 31
0.0
  0
LINE
  5
2CD7
  8
0
 10
2.1793728517004629
 20
0.7221199215994149
 30
0.0
 11
2.1872678333002109
 21
0.7296155569995335
 31
0.0
  0
LINE
  5
2CD8
  8
0
 10
1.9631718150003501
 20
0.9991151191993594
 30
0.0
 11
1.9571662307998841
 21
1.01416360759913
 31
0.0
  0
LINE
  5
2CD9
  8
0
 10
2.1872678333002109
 20
0.7296155569995335
 30
0.0
 11
2.1939482025995849
 21
0.7376833782993799
 31
0.0
  0
LINE
  5
2CDA
  8
0
 10
1.9712017534002371
 20
0.9850965640996491
 30
0.0
 11
1.9631718150003501
 21
0.9991151191993594
 31
0.0
  0
LINE
  5
2CDB
  8
0
 10
2.1939482025995849
 20
0.7376833782993799
 30
0.0
 11
2.1994139584994619
 21
0.7463233854996361
 31
0.0
  0
LINE
  5
2CDC
  8
0
 10
1.981256047100032
 20
0.9721079444993847
 30
0.0
 11
1.9712017534002371
 21
0.9850965640996491
 31
0.0
  0
LINE
  5
2CDD
  8
0
 10
2.1994139584994619
 20
0.7463233854996361
 30
0.0
 11
2.203665103199909
 21
0.7555355785993925
 31
0.0
  0
LINE
  5
2CDE
  8
0
 10
1.993334693900578
 20
0.9601492581991806
 30
0.0
 11
1.981256047100032
 21
0.9721079444993847
 31
0.0
  0
LINE
  5
2CDF
  8
0
 10
2.203665103199909
 20
0.7555355785993925
 30
0.0
 11
2.206701634500404
 21
0.7653199575995587
 31
0.0
  0
LINE
  5
2CE0
  8
0
 10
2.0074376948996351
 20
0.9492205073993318
 30
0.0
 11
1.993334693900578
 21
0.9601492581991806
 31
0.0
  0
LINE
  5
2CE1
  8
0
 10
2.206701634500404
 20
0.7653199575995587
 30
0.0
 11
2.2085235535005259
 21
0.7756765224989977
 31
0.0
  0
LINE
  5
2CE2
  8
0
 10
2.0284235015005829
 20
0.9349158598993199
 30
0.0
 11
2.0074376948996351
 21
0.9492205073993318
 31
0.0
  0
LINE
  5
2CE3
  8
0
 10
2.2085235535005259
 20
0.7756765224989977
 30
0.0
 11
2.209130859099786
 21
0.7866052732993012
 31
0.0
  0
LINE
  5
2CE4
  8
0
 10
2.049814178500128
 20
0.9208400871993944
 30
0.0
 11
2.0284235015005829
 21
0.9349158598993199
 31
0.0
  0
LINE
  5
2CE5
  8
0
 10
2.209130859099786
 20
0.7866052732993012
 30
0.0
 11
2.208186160400146
 21
0.79827786609917
 31
0.0
  0
LINE
  5
2CE6
  8
0
 10
2.0716097259000881
 20
0.9069931881995216
 30
0.0
 11
2.049814178500128
 21
0.9208400871993944
 31
0.0
  0
LINE
  5
2CE7
  8
0
 10
2.208186160400146
 20
0.79827786609917
 30
0.0
 11
2.2053520643007678
 21
0.8092638355990403
 31
0.0
  0
LINE
  5
2CE8
  8
0
 10
2.0938101448000448
 20
0.8933751628992467
 30
0.0
 11
2.0716097259000881
 21
0.9069931881995216
 31
0.0
  0
LINE
  5
2CE9
  8
0
 10
2.2053520643007678
 20
0.8092638355990403
 30
0.0
 11
2.2006285719007792
 21
0.8195631817993671
 31
0.0
  0
LINE
  5
2CEA
  8
0
 10
2.1164154341004169
 20
0.8799860134990922
 30
0.0
 11
2.0938101448000448
 21
0.8933751628992467
 31
0.0
  0
LINE
  5
2CEB
  8
0
 10
2.2006285719007792
 20
0.8195631817993671
 30
0.0
 11
2.1940156810005642
 21
0.829175904699241
 31
0.0
  0
LINE
  5
2CEC
  8
0
 10
2.1394255938002971
 20
0.8668257377989903
 30
0.0
 11
2.1164154341004169
 21
0.8799860134990922
 31
0.0
  0
LINE
  5
2CED
  8
0
 10
2.1940156810005642
 20
0.829175904699241
 30
0.0
 11
2.185513392700158
 21
0.8381020053993779
 31
0.0
  0
LINE
  5
2CEE
  8
0
 10
2.1628406250001708
 20
0.8538943357993957
 30
0.0
 11
2.1394255938002971
 21
0.8668257377989903
 31
0.0
  0
LINE
  5
2CEF
  8
0
 10
2.185513392700158
 20
0.8381020053993779
 30
0.0
 11
2.1751217081005052
 21
0.8463414816992553
 31
0.0
  0
LINE
  5
2CF0
  8
0
 10
2.1751217081005052
 20
0.8463414816992553
 30
0.0
 11
2.1628406250001708
 21
0.8538943357993957
 31
0.0
  0
LINE
  5
2CF1
  8
0
 10
3.0489486324004238
 20
1.1717436059993811
 30
0.0
 11
3.0626467629999752
 21
1.1635613483990701
 31
0.0
  0
LINE
  5
2CF2
  8
0
 10
3.0343058031003229
 20
1.1784381817988101
 30
0.0
 11
3.0489486324004238
 21
1.1717436059993811
 31
0.0
  0
LINE
  5
2CF3
  8
0
 10
3.0626467629999752
 20
1.1635613483990701
 30
0.0
 11
3.0754001948998839
 21
1.1538914056993681
 31
0.0
  0
LINE
  5
2CF4
  8
0
 10
3.0187182762006151
 20
1.183645073599336
 30
0.0
 11
3.0343058031003229
 21
1.1784381817988101
 31
0.0
  0
LINE
  5
2CF5
  8
0
 10
3.0754001948998839
 20
1.1538914056993681
 30
0.0
 11
3.0946990393008491
 21
1.133979336599622
 31
0.0
  0
LINE
  5
2CF6
  8
0
 10
3.0021860494998691
 20
1.187364281399595
 30
0.0
 11
3.0187182762006151
 21
1.183645073599336
 31
0.0
  0
LINE
  5
2CF7
  8
0
 10
3.0946990393008491
 20
1.133979336599622
 30
0.0
 11
3.1110288308000231
 21
1.109489780299554
 31
0.0
  0
LINE
  5
2CF8
  8
0
 10
2.9847091241008452
 20
1.1895958062993941
 30
0.0
 11
3.0021860494998691
 21
1.187364281399595
 31
0.0
  0
LINE
  5
2CF9
  8
0
 10
3.1110288308000231
 20
1.109489780299554
 30
0.0
 11
3.1243895683001019
 21
1.080422735699357
 31
0.0
  0
LINE
  5
2CFA
  8
0
 10
2.9662875000003619
 20
1.1903396482994131
 30
0.0
 11
2.9847091241008452
 21
1.1895958062993941
 31
0.0
  0
LINE
  5
2CFB
  8
0
 10
3.1243895683001019
 20
1.080422735699357
 30
0.0
 11
3.1347812540002451
 21
1.0467782049993271
 31
0.0
  0
LINE
  5
2CFC
  8
0
 10
2.9469886555998519
 20
1.1895958062993941
 30
0.0
 11
2.9662875000003619
 21
1.1903396482994131
 31
0.0
  0
LINE
  5
2CFD
  8
0
 10
3.1347812540002451
 20
1.0467782049993271
 30
0.0
 11
3.1422038868004161
 21
1.0085561859991681
 31
0.0
  0
LINE
  5
2CFE
  8
0
 10
2.9287694678005201
 20
1.187364281399595
 30
0.0
 11
2.9469886555998519
 21
1.1895958062993941
 31
0.0
  0
LINE
  5
2CFF
  8
0
 10
3.1422038868004161
 20
1.0085561859991681
 30
0.0
 11
3.1466574656005828
 21
0.9657566808996307
 31
0.0
  0
LINE
  5
2D00
  8
0
 10
2.911629934400934
 20
1.183645073599336
 30
0.0
 11
2.9287694678005201
 21
1.187364281399595
 31
0.0
  0
LINE
  5
2D01
  8
0
 10
3.1466574656005828
 20
0.9657566808996307
 30
0.0
 11
3.148141992599903
 21
0.9183796874990549
 31
0.0
  0
LINE
  5
2D02
  8
0
 10
2.895570057599798
 20
1.1784381817988101
 30
0.0
 11
2.911629934400934
 21
1.183645073599336
 31
0.0
  0
LINE
  5
2D03
  8
0
 10
3.148141992599903
 20
0.9183796874990549
 30
0.0
 11
3.1466574656005828
 21
0.8702588531996298
 31
0.0
  0
LINE
  5
2D04
  8
0
 10
2.8805898363002589
 20
1.1717436059993811
 30
0.0
 11
2.895570057599798
 21
1.1784381817988101
 31
0.0
  0
LINE
  5
2D05
  8
0
 10
3.1466574656005828
 20
0.8702588531996298
 30
0.0
 11
3.1422038868004161
 21
0.8268299423993994
 31
0.0
  0
LINE
  5
2D06
  8
0
 10
2.8666892694009221
 20
1.1635613483990701
 30
0.0
 11
2.8805898363002589
 21
1.1717436059993811
 31
0.0
  0
LINE
  5
2D07
  8
0
 10
3.1422038868004161
 20
0.8268299423993994
 30
0.0
 11
3.1347812540002451
 21
0.788092957299341
 31
0.0
  0
LINE
  5
2D08
  8
0
 10
2.8538683591004879
 20
1.1538914056993681
 30
0.0
 11
2.8666892694009221
 21
1.1635613483990701
 31
0.0
  0
LINE
  5
2D09
  8
0
 10
3.1347812540002451
 20
0.788092957299341
 30
0.0
 11
3.1243895683001019
 21
0.7540478956993866
 31
0.0
  0
LINE
  5
2D0A
  8
0
 10
2.8345695158004669
 20
1.133979336599622
 30
0.0
 11
2.8538683591004879
 21
1.1538914056993681
 31
0.0
  0
LINE
  5
2D0B
  8
0
 10
3.1243895683001019
 20
0.7540478956993866
 30
0.0
 11
3.1110288308000231
 21
0.7246947586991155
 31
0.0
  0
LINE
  5
2D0C
  8
0
 10
2.8182397242999282
 20
1.109489780299554
 30
0.0
 11
2.8345695158004669
 21
1.133979336599622
 31
0.0
  0
LINE
  5
2D0D
  8
0
 10
3.1110288308000231
 20
0.7246947586991155
 30
0.0
 11
3.0946990393008491
 21
0.7000335462992098
 31
0.0
  0
LINE
  5
2D0E
  8
0
 10
2.8048789857002698
 20
1.080422735699357
 30
0.0
 11
2.8182397242999282
 21
1.109489780299554
 31
0.0
  0
LINE
  5
2D0F
  8
0
 10
3.0946990393008491
 20
0.7000335462992098
 30
0.0
 11
3.0754001948998839
 21
0.6800642573994084
 31
0.0
  0
LINE
  5
2D10
  8
0
 10
2.794487301100161
 20
1.0467782049993271
 30
0.0
 11
2.8048789857002698
 21
1.080422735699357
 31
0.0
  0
LINE
  5
2D11
  8
0
 10
3.0754001948998839
 20
0.6800642573994084
 30
0.0
 11
3.0626467629999752
 21
0.6703943157995127
 31
0.0
  0
LINE
  5
2D12
  8
0
 10
2.7870646682995348
 20
1.0085561859991681
 30
0.0
 11
2.794487301100161
 21
1.0467782049993271
 31
0.0
  0
LINE
  5
2D13
  8
0
 10
3.0626467629999752
 20
0.6703943157995127
 30
0.0
 11
3.0489486324004238
 21
0.6622120570993957
 31
0.0
  0
LINE
  5
2D14
  8
0
 10
2.7826110894993681
 20
0.9657566808996307
 30
0.0
 11
2.7870646682995348
 21
1.0085561859991681
 31
0.0
  0
LINE
  5
2D15
  8
0
 10
3.0489486324004238
 20
0.6622120570993957
 30
0.0
 11
3.0343058031003229
 21
0.6555174823993184
 31
0.0
  0
LINE
  5
2D16
  8
0
 10
2.7811265625000479
 20
0.9183796874990549
 30
0.0
 11
2.7826110894993681
 21
0.9657566808996307
 31
0.0
  0
LINE
  5
2D17
  8
0
 10
3.0343058031003229
 20
0.6555174823993184
 30
0.0
 11
3.0187182762006151
 21
0.650310590599247
 31
0.0
  0
LINE
  5
2D18
  8
0
 10
2.7826110894993681
 20
0.8702588531996298
 30
0.0
 11
2.7811265625000479
 21
0.9183796874990549
 31
0.0
  0
LINE
  5
2D19
  8
0
 10
3.0187182762006151
 20
0.650310590599247
 30
0.0
 11
3.0021860494998691
 21
0.6465913827996701
 31
0.0
  0
LINE
  5
2D1A
  8
0
 10
2.7870646682995348
 20
0.8268299423993994
 30
0.0
 11
2.7826110894993681
 21
0.8702588531996298
 31
0.0
  0
LINE
  5
2D1B
  8
0
 10
3.0021860494998691
 20
0.6465913827996701
 30
0.0
 11
2.9847091241008452
 21
0.6443598567993832
 31
0.0
  0
LINE
  5
2D1C
  8
0
 10
2.794487301100161
 20
0.788092957299341
 30
0.0
 11
2.7870646682995348
 21
0.8268299423993994
 31
0.0
  0
LINE
  5
2D1D
  8
0
 10
2.9847091241008452
 20
0.6443598567993832
 30
0.0
 11
2.9662875000003619
 21
0.6436160158991698
 31
0.0
  0
LINE
  5
2D1E
  8
0
 10
2.8048789857002698
 20
0.7540478956993866
 30
0.0
 11
2.794487301100161
 21
0.788092957299341
 31
0.0
  0
LINE
  5
2D1F
  8
0
 10
2.9662875000003619
 20
0.6436160158991698
 30
0.0
 11
2.9469886555998519
 21
0.6443598567993832
 31
0.0
  0
LINE
  5
2D20
  8
0
 10
2.8182397242999282
 20
0.7246947586991155
 30
0.0
 11
2.8048789857002698
 21
0.7540478956993866
 31
0.0
  0
LINE
  5
2D21
  8
0
 10
2.9469886555998519
 20
0.6443598567993832
 30
0.0
 11
2.9287694678005201
 21
0.6465913827996701
 31
0.0
  0
LINE
  5
2D22
  8
0
 10
2.8345695158004669
 20
0.7000335462992098
 30
0.0
 11
2.8182397242999282
 21
0.7246947586991155
 31
0.0
  0
LINE
  5
2D23
  8
0
 10
2.9287694678005201
 20
0.6465913827996701
 30
0.0
 11
2.911629934400934
 21
0.650310590599247
 31
0.0
  0
LINE
  5
2D24
  8
0
 10
2.8538683591004879
 20
0.6800642573994084
 30
0.0
 11
2.8345695158004669
 21
0.7000335462992098
 31
0.0
  0
LINE
  5
2D25
  8
0
 10
2.911629934400934
 20
0.650310590599247
 30
0.0
 11
2.895570057599798
 21
0.6555174823993184
 31
0.0
  0
LINE
  5
2D26
  8
0
 10
2.8666892694009221
 20
0.6703943157995127
 30
0.0
 11
2.8538683591004879
 21
0.6800642573994084
 31
0.0
  0
LINE
  5
2D27
  8
0
 10
2.895570057599798
 20
0.6555174823993184
 30
0.0
 11
2.8805898363002589
 21
0.6622120570993957
 31
0.0
  0
LINE
  5
2D28
  8
0
 10
2.8805898363002589
 20
0.6622120570993957
 30
0.0
 11
2.8666892694009221
 21
0.6703943157995127
 31
0.0
  0
LINE
  5
2D29
  8
0
 10
3.8557019534000569
 20
1.1903396482994131
 30
0.0
 11
4.0210242182001821
 21
0.6436160158991698
 31
0.0
  0
LINE
  5
2D2A
  8
0
 10
3.7895730466002528
 20
1.1903396482994131
 30
0.0
 11
3.8557019534000569
 21
1.1903396482994131
 31
0.0
  0
LINE
  5
2D2B
  8
0
 10
4.0210242182001821
 20
0.6436160158991698
 30
0.0
 11
3.9416695318004709
 21
0.6436160158991698
 31
0.0
  0
LINE
  5
2D2C
  8
0
 10
3.6242507807005491
 20
0.6436160158991698
 30
0.0
 11
3.7895730466002528
 21
1.1903396482994131
 31
0.0
  0
LINE
  5
2D2D
  8
0
 10
3.9416695318004709
 20
0.6436160158991698
 30
0.0
 11
3.8953792965999119
 21
0.8034275391992196
 31
0.0
  0
LINE
  5
2D2E
  8
0
 10
3.7036054682002941
 20
0.6436160158991698
 30
0.0
 11
3.6242507807005491
 21
0.6436160158991698
 31
0.0
  0
LINE
  5
2D2F
  8
0
 10
3.8953792965999119
 20
0.8034275391992196
 30
0.0
 11
3.749895703400397
 21
0.8034275391992196
 31
0.0
  0
LINE
  5
2D30
  8
0
 10
3.749895703400397
 20
0.8034275391992196
 30
0.0
 11
3.7036054682002941
 21
0.6436160158991698
 31
0.0
  0
LINE
  5
2D31
  8
0
 10
3.8193310551005188
 20
1.0417429692993201
 30
0.0
 11
3.7664279300997801
 21
0.8566980465993765
 31
0.0
  0
LINE
  5
2D32
  8
0
 10
3.7664279300997801
 20
0.8566980465993765
 30
0.0
 11
3.8788470699005302
 21
0.8566980465993765
 31
0.0
  0
LINE
  5
2D33
  8
0
 10
3.8259439449007
 20
1.0417429692993201
 30
0.0
 11
3.8193310551005188
 21
1.0417429692993201
 31
0.0
  0
LINE
  5
2D34
  8
0
 10
3.8788470699005302
 20
0.8566980465993765
 30
0.0
 11
3.8259439449007
 21
1.0417429692993201
 31
0.0
  0
LINE
  5
2D35
  8
0
 10
0.0
 20
0.0
 30
0.0
 11
5.2469999999998427
 21
0.0
 31
0.0
  0
LINE
  5
2D36
  8
0
 10
0.1484999999997854
 20
0.1484999999997854
 30
0.0
 11
5.0984999999996026
 21
0.1484999999997854
 31
0.0
  0
LINE
  5
2D37
  8
0
 10
3.415500000000065
 20
2.276999999999588
 30
0.0
 11
3.11850000000004
 21
2.276999999999588
 31
0.0
  0
LINE
  5
2D38
  8
0
 10
3.11850000000004
 20
2.5599985850992648
 30
0.0
 11
3.11850000000004
 21
2.276999999999588
 31
0.0
  0
ARC
  5
2D39
  8
0
 10
2.4255000000002829
 20
3.266999999998915
 30
0.0
 40
0.9899999999999987
 50
225.57299599901029
 51
314.42700398160042
  0
LINE
  5
2D3A
  8
0
 10
1.7324999999982531
 20
2.5599985855756131
 30
0.0
 11
1.7325000000000721
 21
0.6434999999992215
 31
0.0
  0
LINE
  5
2D3B
  8
0
 10
1.7325000000000721
 20
0.6434999999992215
 30
0.0
 11
1.336499999999887
 21
0.6434999999992215
 31
0.0
  0
LINE
  5
2D3C
  8
0
 10
3.592849218199262
 20
1.1903396482994131
 30
0.0
 11
3.5201074216006409
 21
0.6436160158991698
 31
0.0
  0
LINE
  5
2D3D
  8
0
 10
3.5267203125004012
 20
1.1903396482994131
 30
0.0
 11
3.592849218199262
 21
1.1903396482994131
 31
0.0
  0
LINE
  5
2D3E
  8
0
 10
3.5201074216006409
 20
0.6436160158991698
 30
0.0
 11
3.4539785158999621
 21
0.6436160158991698
 31
0.0
  0
LINE
  5
2D3F
  8
0
 10
3.4837365233001938
 20
0.8398757817990372
 30
0.0
 11
3.5267203125004012
 21
1.1903396482994131
 31
0.0
  0
LINE
  5
2D40
  8
0
 10
3.4539785158999621
 20
0.6436160158991698
 30
0.0
 11
3.3944625000003721
 21
1.052957812499244
 31
0.0
  0
LINE
  5
2D41
  8
0
 10
3.4771236323999801
 20
0.8398757817990372
 30
0.0
 11
3.4837365233001938
 21
0.8398757817990372
 31
0.0
  0
LINE
  5
2D42
  8
0
 10
3.3944625000003721
 20
1.052957812499244
 30
0.0
 11
3.3878496091001571
 21
1.052957812499244
 31
0.0
  0
LINE
  5
2D43
  8
0
 10
3.4275269534009558
 20
1.1903396482994131
 30
0.0
 11
3.4771236323999801
 21
0.8398757817990372
 31
0.0
  0
LINE
  5
2D44
  8
0
 10
3.3878496091001571
 20
1.052957812499244
 30
0.0
 11
3.3283335932001128
 21
0.6436160158991698
 31
0.0
  0
LINE
  5
2D45
  8
0
 10
3.3547851556995729
 20
1.1903396482994131
 30
0.0
 11
3.4275269534009558
 21
1.1903396482994131
 31
0.0
  0
LINE
  5
2D46
  8
0
 10
3.3283335932001128
 20
0.6436160158991698
 30
0.0
 11
3.262204687500343
 21
0.6436160158991698
 31
0.0
  0
LINE
  5
2D47
  8
0
 10
3.30518847669964
 20
0.8398757817990372
 30
0.0
 11
3.3547851556995729
 21
1.1903396482994131
 31
0.0
  0
LINE
  5
2D48
  8
0
 10
3.262204687500343
 20
0.6436160158991698
 30
0.0
 11
3.1894628909003582
 21
1.1903396482994131
 31
0.0
  0
LINE
  5
2D49
  8
0
 10
3.2985755858007901
 20
0.8398757817990372
 30
0.0
 11
3.30518847669964
 21
0.8398757817990372
 31
0.0
  0
LINE
  5
2D4A
  8
0
 10
3.1894628909003582
 20
1.1903396482994131
 30
0.0
 11
3.255591796600128
 21
1.1903396482994131
 31
0.0
  0
LINE
  5
2D4B
  8
0
 10
3.255591796600128
 20
1.1903396482994131
 30
0.0
 11
3.2985755858007901
 21
0.8398757817990372
 31
0.0
  0
LINE
  5
2D4C
  8
0
 10
3.0205401941002492
 20
1.118530317299246
 30
0.0
 11
3.01183547060009
 21
1.1241949575996839
 31
0.0
  0
LINE
  5
2D4D
  8
0
 10
3.01183547060009
 20
1.1241949575996839
 30
0.0
 11
3.0029957902997921
 21
1.1288296634993451
 31
0.0
  0
LINE
  5
2D4E
  8
0
 10
3.029109960799814
 20
1.1118357425991681
 30
0.0
 11
3.0205401941002492
 21
1.118530317299246
 31
0.0
  0
LINE
  5
2D4F
  8
0
 10
3.0029957902997921
 20
1.1288296634993451
 30
0.0
 11
2.9940211532002641
 21
1.13243443499914
 31
0.0
  0
LINE
  5
2D50
  8
0
 10
3.0405138236001221
 20
1.098961559299368
 30
0.0
 11
3.029109960799814
 21
1.1118357425991681
 31
0.0
  0
LINE
  5
2D51
  8
0
 10
2.9940211532002641
 20
1.13243443499914
 30
0.0
 11
2.984911559300599
 21
1.1350092709992621
 31
0.0
  0
LINE
  5
2D52
  8
0
 10
3.0501632458008312
 20
1.0811665776991499
 30
0.0
 11
3.0405138236001221
 21
1.098961559299368
 31
0.0
  0
LINE
  5
2D53
  8
0
 10
2.984911559300599
 20
1.1350092709992621
 30
0.0
 11
2.9756670086003392
 21
1.136554173699323
 31
0.0
  0
LINE
  5
2D54
  8
0
 10
3.0580582274005792
 20
1.058450796699389
 30
0.0
 11
3.0501632458008312
 21
1.0811665776991499
 31
0.0
  0
LINE
  5
2D55
  8
0
 10
2.9756670086003392
 20
1.136554173699323
 30
0.0
 11
2.9662875000003619
 21
1.137069140899257
 31
0.0
  0
LINE
  5
2D56
  8
0
 10
3.0641987683998191
 20
1.0308142184992439
 30
0.0
 11
3.0580582274005792
 21
1.058450796699389
 31
0.0
  0
LINE
  5
2D57
  8
0
 10
2.9662875000003619
 20
1.137069140899257
 30
0.0
 11
2.9560307722003918
 21
1.136554173699323
 31
0.0
  0
LINE
  5
2D58
  8
0
 10
3.068584868799916
 20
0.9982568397995237
 30
0.0
 11
3.0641987683998191
 21
1.0308142184992439
 31
0.0
  0
LINE
  5
2D59
  8
0
 10
2.9560307722003918
 20
1.136554173699323
 30
0.0
 11
2.946043956900211
 21
1.1350092709992621
 31
0.0
  0
LINE
  5
2D5A
  8
0
 10
3.0712165296999951
 20
0.9607786627991573
 30
0.0
 11
3.068584868799916
 21
0.9982568397995237
 31
0.0
  0
LINE
  5
2D5B
  8
0
 10
2.946043956900211
 20
1.1350092709992621
 30
0.0
 11
2.9363270563007968
 21
1.13243443499914
 31
0.0
  0
LINE
  5
2D5C
  8
0
 10
3.0720937500000209
 20
0.9183796874990549
 30
0.0
 11
3.0712165296999951
 21
0.9607786627991573
 31
0.0
  0
LINE
  5
2D5D
  8
0
 10
2.9363270563007968
 20
1.13243443499914
 30
0.0
 11
2.9268800703998741
 21
1.1288296634993451
 31
0.0
  0
LINE
  5
2D5E
  8
0
 10
3.0712165296999951
 20
0.8752368701991599
 30
0.0
 11
3.0720937500000209
 21
0.9183796874990549
 31
0.0
  0
LINE
  5
2D5F
  8
0
 10
2.9268800703998741
 20
1.1288296634993451
 30
0.0
 11
2.9177029970005601
 21
1.1241949575996839
 31
0.0
  0
LINE
  5
2D60
  8
0
 10
3.068584868799916
 20
0.8371292885992716
 30
0.0
 11
3.0712165296999951
 21
0.8752368701991599
 31
0.0
  0
LINE
  5
2D61
  8
0
 10
2.9177029970005601
 20
1.1241949575996839
 30
0.0
 11
2.9087958382997381
 21
1.118530317299246
 31
0.0
  0
LINE
  5
2D62
  8
0
 10
3.0641987683998191
 20
0.8040569437994236
 30
0.0
 11
3.068584868799916
 21
0.8371292885992716
 31
0.0
  0
LINE
  5
2D63
  8
0
 10
2.9087958382997381
 20
1.118530317299246
 30
0.0
 11
2.9001585932001031
 21
1.1118357425991681
 31
0.0
  0
LINE
  5
2D64
  8
0
 10
3.0580582274005792
 20
0.7760198346993548
 30
0.0
 11
3.0641987683998191
 21
0.8040569437994236
 31
0.0
  0
LINE
  5
2D65
  8
0
 10
2.9001585932001031
 20
1.1118357425991681
 30
0.0
 11
2.8887547314998301
 21
1.098961559299368
 31
0.0
  0
LINE
  5
2D66
  8
0
 10
3.0501632458008312
 20
0.7530179612990651
 30
0.0
 11
3.0580582274005792
 21
0.7760198346993548
 31
0.0
  0
LINE
  5
2D67
  8
0
 10
2.8887547314998301
 20
1.098961559299368
 30
0.0
 11
2.8791053093000301
 21
1.0811665776991499
 31
0.0
  0
LINE
  5
2D68
  8
0
 10
3.0405138236001221
 20
0.7350513235994641
 30
0.0
 11
3.0501632458008312
 21
0.7530179612990651
 31
0.0
  0
LINE
  5
2D69
  8
0
 10
2.8791053093000301
 20
1.0811665776991499
 30
0.0
 11
2.8712103277002821
 21
1.058450796699389
 31
0.0
  0
LINE
  5
2D6A
  8
0
 10
3.029109960799814
 20
0.7221199215994149
 30
0.0
 11
3.0405138236001221
 21
0.7350513235994641
 31
0.0
  0
LINE
  5
2D6B
  8
0
 10
2.8712103277002821
 20
1.058450796699389
 30
0.0
 11
2.8650697867001318
 21
1.0308142184992439
 31
0.0
  0
LINE
  5
2D6C
  8
0
 10
3.0205401941002492
 20
0.7154253468993375
 30
0.0
 11
3.029109960799814
 21
0.7221199215994149
 31
0.0
  0
LINE
  5
2D6D
  8
0
 10
2.8650697867001318
 20
1.0308142184992439
 30
0.0
 11
2.860683685200001
 21
0.9982568397995237
 31
0.0
  0
LINE
  5
2D6E
  8
0
 10
3.01183547060009
 20
0.7097607065995817
 30
0.0
 11
3.0205401941002492
 21
0.7154253468993375
 31
0.0
  0
LINE
  5
2D6F
  8
0
 10
2.860683685200001
 20
0.9982568397995237
 30
0.0
 11
2.8580520253999562
 21
0.9607786627991573
 31
0.0
  0
LINE
  5
2D70
  8
0
 10
3.0029957902997921
 20
0.705126000699238
 30
0.0
 11
3.01183547060009
 21
0.7097607065995817
 31
0.0
  0
LINE
  5
2D71
  8
0
 10
2.8580520253999562
 20
0.9607786627991573
 30
0.0
 11
2.8571748050999299
 21
0.9183796874990549
 31
0.0
  0
LINE
  5
2D72
  8
0
 10
2.9940211532002641
 20
0.7015212291994432
 30
0.0
 11
3.0029957902997921
 21
0.705126000699238
 31
0.0
  0
LINE
  5
2D73
  8
0
 10
2.8571748050999299
 20
0.9183796874990549
 30
0.0
 11
2.8580520253999562
 21
0.8752368701991599
 31
0.0
  0
LINE
  5
2D74
  8
0
 10
2.984911559300599
 20
0.6989463931993214
 30
0.0
 11
2.9940211532002641
 21
0.7015212291994432
 31
0.0
  0
LINE
  5
2D75
  8
0
 10
2.8580520253999562
 20
0.8752368701991599
 30
0.0
 11
2.860683685200001
 21
0.8371292885992716
 31
0.0
  0
LINE
  5
2D76
  8
0
 10
2.9756670086003392
 20
0.6974014904994874
 30
0.0
 11
2.984911559300599
 21
0.6989463931993214
 31
0.0
  0
LINE
  5
2D77
  8
0
 10
2.860683685200001
 20
0.8371292885992716
 30
0.0
 11
2.8650697867001318
 21
0.8040569437994236
 31
0.0
  0
LINE
  5
2D78
  8
0
 10
2.9662875000003619
 20
0.6968865232993267
 30
0.0
 11
2.9756670086003392
 21
0.6974014904994874
 31
0.0
  0
LINE
  5
2D79
  8
0
 10
2.8650697867001318
 20
0.8040569437994236
 30
0.0
 11
2.8712103277002821
 21
0.7760198346993548
 31
0.0
  0
LINE
  5
2D7A
  8
0
 10
2.9560307722003918
 20
0.6974014904994874
 30
0.0
 11
2.9662875000003619
 21
0.6968865232993267
 31
0.0
  0
LINE
  5
2D7B
  8
0
 10
2.8712103277002821
 20
0.7760198346993548
 30
0.0
 11
2.8791053093000301
 21
0.7530179612990651
 31
0.0
  0
LINE
  5
2D7C
  8
0
 10
2.946043956900211
 20
0.6989463931993214
 30
0.0
 11
2.9560307722003918
 21
0.6974014904994874
 31
0.0
  0
LINE
  5
2D7D
  8
0
 10
2.8791053093000301
 20
0.7530179612990651
 30
0.0
 11
2.8887547314998301
 21
0.7350513235994641
 31
0.0
  0
LINE
  5
2D7E
  8
0
 10
2.9363270563007968
 20
0.7015212291994432
 30
0.0
 11
2.946043956900211
 21
0.6989463931993214
 31
0.0
  0
LINE
  5
2D7F
  8
0
 10
2.8887547314998301
 20
0.7350513235994641
 30
0.0
 11
2.9001585932001031
 21
0.7221199215994149
 31
0.0
  0
LINE
  5
2D80
  8
0
 10
2.9268800703998741
 20
0.705126000699238
 30
0.0
 11
2.9363270563007968
 21
0.7015212291994432
 31
0.0
  0
LINE
  5
2D81
  8
0
 10
2.9001585932001031
 20
0.7221199215994149
 30
0.0
 11
2.9087958382997381
 21
0.7154253468993375
 31
0.0
  0
LINE
  5
2D82
  8
0
 10
2.9177029970005601
 20
0.7097607065995817
 30
0.0
 11
2.9268800703998741
 21
0.705126000699238
 31
0.0
  0
LINE
  5
2D83
  8
0
 10
2.9087958382997381
 20
0.7154253468993375
 30
0.0
 11
2.9177029970005601
 21
0.7097607065995817
 31
0.0
  0
LINE
  5
2D84
  8
0
 10
2.7067412108003732
 20
1.1903396482994131
 30
0.0
 11
2.7067412108003732
 21
0.6436160158991698
 31
0.0
  0
LINE
  5
2D85
  8
0
 10
2.630692969300525
 20
1.1903396482994131
 30
0.0
 11
2.7067412108003732
 21
1.1903396482994131
 31
0.0
  0
LINE
  5
2D86
  8
0
 10
2.7067412108003732
 20
0.6436160158991698
 30
0.0
 11
2.630692969300525
 21
0.6436160158991698
 31
0.0
  0
LINE
  5
2D87
  8
0
 10
2.630692969300525
 20
0.9716501948992117
 30
0.0
 11
2.630692969300525
 21
1.1903396482994131
 31
0.0
  0
LINE
  5
2D88
  8
0
 10
2.630692969300525
 20
0.6436160158991698
 30
0.0
 11
2.630692969300525
 21
0.7809978516993397
 31
0.0
  0
LINE
  5
2D89
  8
0
 10
2.4422255858007702
 20
0.9716501948992117
 30
0.0
 11
2.630692969300525
 21
0.9716501948992117
 31
0.0
  0
LINE
  5
2D8A
  8
0
 10
2.630692969300525
 20
0.7809978516993397
 30
0.0
 11
2.630692969300525
 21
0.9183796874990549
 31
0.0
  0
LINE
  5
2D8B
  8
0
 10
2.4422255858007702
 20
1.1903396482994131
 30
0.0
 11
2.4422255858007702
 21
0.9716501948992117
 31
0.0
  0
LINE
  5
2D8C
  8
0
 10
2.630692969300525
 20
0.9183796874990549
 30
0.0
 11
2.4422255858007702
 21
0.9183796874990549
 31
0.0
  0
LINE
  5
2D8D
  8
0
 10
2.366177344300012
 20
1.1903396482994131
 30
0.0
 11
2.4422255858007702
 21
1.1903396482994131
 31
0.0
  0
LINE
  5
2D8E
  8
0
 10
2.4422255858007702
 20
0.9183796874990549
 30
0.0
 11
2.4422255858007702
 21
0.6436160158991698
 31
0.0
  0
LINE
  5
2D8F
  8
0
 10
2.366177344300012
 20
0.6436160158991698
 30
0.0
 11
2.366177344300012
 21
1.1903396482994131
 31
0.0
  0
LINE
  5
2D90
  8
0
 10
2.4422255858007702
 20
0.6436160158991698
 30
0.0
 11
2.366177344300012
 21
0.6436160158991698
 31
0.0
  0
LINE
  5
2D91
  8
0
 10
2.0702601557004519
 20
0.9856687499993768
 30
0.0
 11
2.090098828400186
 21
0.9715929761994175
 31
0.0
  0
LINE
  5
2D92
  8
0
 10
2.0579790736996979
 20
0.9953386915990449
 30
0.0
 11
2.0702601557004519
 21
0.9856687499993768
 31
0.0
  0
LINE
  5
2D93
  8
0
 10
2.090098828400186
 20
0.9715929761994175
 30
0.0
 11
2.1099374999998868
 21
0.9582038267994903
 31
0.0
  0
LINE
  5
2D94
  8
0
 10
2.0475873880004651
 20
1.0051230705994381
 30
0.0
 11
2.0579790736996979
 21
0.9953386915990449
 31
0.0
  0
LINE
  5
2D95
  8
0
 10
2.1099374999998868
 20
0.9582038267994903
 30
0.0
 11
2.129776171600497
 21
0.9455012995997549
 31
0.0
  0
LINE
  5
2D96
  8
0
 10
2.0390851008005479
 20
1.0150218869994201
 30
0.0
 11
2.0475873880004651
 21
1.0051230705994381
 31
0.0
  0
LINE
  5
2D97
  8
0
 10
2.129776171600497
 20
0.9455012995997549
 30
0.0
 11
2.1496148443002312
 21
0.9334853956993356
 31
0.0
  0
LINE
  5
2D98
  8
0
 10
5.2469999999998427
 20
0.0
 30
0.0
 11
5.2469999999998427
 21
5.2469999999998427
 31
0.0
  0
LINE
  5
2D99
  8
0
 10
0.0
 20
5.2469999999998427
 30
0.0
 11
0.0
 21
0.0
 31
0.0
  0
LINE
  5
2D9A
  8
0
 10
5.0984999999996026
 20
0.1484999999997854
 30
0.0
 11
5.0984999999996026
 21
5.0984999999996026
 31
0.0
  0
LINE
  5
2D9B
  8
0
 10
0.1484999999997854
 20
5.0984999999996026
 30
0.0
 11
0.1484999999997854
 21
0.1484999999997854
 31
0.0
  0
LINE
  5
2D9C
  8
0
 10
3.415500000000065
 20
4.6529999999988831
 30
0.0
 11
3.415500000000065
 21
2.276999999999588
 31
0.0
  0
ARC
  5
2D9D
  8
0
 10
2.4255000000002829
 20
3.266999999998915
 30
0.0
 40
0.692999999999999
 50
179.9999999999996
 51
0.0
  0
LINE
  5
2D9E
  8
0
 10
1.336499999999887
 20
4.6529999999988831
 30
0.0
 11
1.336499999999887
 21
0.6434999999992215
 31
0.0
  0
ENDBLK
  5
2DA0
  8
0
  0
BLOCK
  8
0
  2
_
 70
     0
 10
0.0
 20
0.0
 30
0.0
  3
_
  1

  0
ARC
  5
42F6
  8
002寸法
 10
-1.2990381056765721
 20
0.0
 30
0.0
 40
1.5
 50
30.000000000001251
 51
180.0
  0
ARC
  5
42F7
  8
002寸法
 10
1.299038105676743
 20
1.5
 30
0.0
 40
1.5
 50
209.9999999999998
 51
0.0
  0
ENDBLK
  5
42F5
  8
0
  0
BLOCK
  8
0
  2
_0
 70
     0
 10
0.0
 20
0.0
 30
0.0
  3
_0
  1

  0
POLYLINE
  5
4304
  8
002寸法
 66
     1
 10
0.0
 20
0.0
 30
0.0
 70
     1
  0
VERTEX
  5
6EFE
  8
002寸法
 10
0.0
 20
0.0
 30
0.0
  0
VERTEX
  5
6EFF
  8
002寸法
 10
1.5
 20
2.5980762113532592
 30
0.0
  0
VERTEX
  5
6F00
  8
002寸法
 10
-1.5
 20
2.5980762113532592
 30
0.0
  0
SEQEND
  5
6F01
  8
002寸法
  0
ENDBLK
  5
4303
  8
0
  0
BLOCK
  8
0
  2
__
 70
     0
 10
0.0
 20
0.0
 30
0.0
  3
__
  1

  0
POLYLINE
  5
431A
  8
002寸法
 66
     1
 10
0.0
 20
0.0
 30
0.0
 70
     1
  0
VERTEX
  5
6F04
  8
002寸法
 10
-1.4999999999999429
 20
0.0
 30
0.0
  0
VERTEX
  5
6F05
  8
002寸法
 10
0.0000000000000568
 20
2.5980762113532592
 30
0.0
  0
VERTEX
  5
6F06
  8
002寸法
 10
-2.9999999999999432
 20
2.5980762113532592
 30
0.0
  0
SEQEND
  5
6F07
  8
002寸法
  0
POLYLINE
  5
431B
  8
002寸法
 66
     1
 10
0.0
 20
0.0
 30
0.0
 70
     1
  0
VERTEX
  5
6F08
  8
002寸法
 10
1.500000000000056
 20
0.0
 30
0.0
  0
VERTEX
  5
6F09
  8
002寸法
 10
3.000000000000056
 20
2.5980762113532592
 30
0.0
  0
VERTEX
  5
6F0A
  8
002寸法
 10
0.0000000000000568
 20
2.5980762113532592
 30
0.0
  0
SEQEND
  5
6F0B
  8
002寸法
  0
ENDBLK
  5
4319
  8
0
  0
BLOCK
  8
0
  2
___
 70
     0
 10
0.0
 20
0.0
 30
0.0
  3
___
  1

  0
POLYLINE
  5
4332
  8
002寸法
 66
     1
 10
0.0
 20
0.0
 30
0.0
 70
     1
  0
VERTEX
  5
6F0E
  8
002寸法
 10
-3.0
 20
0.0
 30
0.0
  0
VERTEX
  5
6F0F
  8
002寸法
 10
-1.5
 20
2.5980762113532592
 30
0.0
  0
VERTEX
  5
6F10
  8
002寸法
 10
-4.5
 20
2.5980762113532592
 30
0.0
  0
SEQEND
  5
6F11
  8
002寸法
  0
POLYLINE
  5
4333
  8
002寸法
 66
     1
 10
0.0
 20
0.0
 30
0.0
 70
     1
  0
VERTEX
  5
6F12
  8
002寸法
 10
0.0
 20
0.0
 30
0.0
  0
VERTEX
  5
6F13
  8
002寸法
 10
1.5
 20
2.5980762113532592
 30
0.0
  0
VERTEX
  5
6F14
  8
002寸法
 10
-1.5
 20
2.5980762113532592
 30
0.0
  0
SEQEND
  5
6F15
  8
002寸法
  0
POLYLINE
  5
4334
  8
002寸法
 66
     1
 10
0.0
 20
0.0
 30
0.0
 70
     1
  0
VERTEX
  5
6F16
  8
002寸法
 10
3.0
 20
0.0
 30
0.0
  0
VERTEX
  5
6F17
  8
002寸法
 10
4.5
 20
2.5980762113532592
 30
0.0
  0
VERTEX
  5
6F18
  8
002寸法
 10
1.5
 20
2.5980762113532592
 30
0.0
  0
SEQEND
  5
6F19
  8
002寸法
  0
ENDBLK
  5
4331
  8
0
  0
BLOCK
  8
0
  2
____
 70
     0
 10
0.0
 20
0.0
 30
0.0
  3
____
  1

  0
POLYLINE
  5
4342
  8
002寸法
 66
     1
 10
0.0
 20
0.0
 30
0.0
 70
     1
  0
VERTEX
  5
6F1C
  8
002寸法
 10
-4.5
 20
0.0
 30
0.0
  0
VERTEX
  5
6F1D
  8
002寸法
 10
-3.0
 20
2.5980762113532592
 30
0.0
  0
VERTEX
  5
6F1E
  8
002寸法
 10
-6.0
 20
2.5980762113532592
 30
0.0
  0
SEQEND
  5
6F1F
  8
002寸法
  0
POLYLINE
  5
4343
  8
002寸法
 66
     1
 10
0.0
 20
0.0
 30
0.0
 70
     1
  0
VERTEX
  5
6F20
  8
002寸法
 10
-1.5
 20
0.0
 30
0.0
  0
VERTEX
  5
6F21
  8
002寸法
 10
0.0
 20
2.5980762113532592
 30
0.0
  0
VERTEX
  5
6F22
  8
002寸法
 10
-3.0
 20
2.5980762113532592
 30
0.0
  0
SEQEND
  5
6F23
  8
002寸法
  0
POLYLINE
  5
4344
  8
002寸法
 66
     1
 10
0.0
 20
0.0
 30
0.0
 70
     1
  0
VERTEX
  5
6F24
  8
002寸法
 10
1.5
 20
0.0
 30
0.0
  0
VERTEX
  5
6F25
  8
002寸法
 10
3.0
 20
2.5980762113532592
 30
0.0
  0
VERTEX
  5
6F26
  8
002寸法
 10
0.0
 20
2.5980762113532592
 30
0.0
  0
SEQEND
  5
6F27
  8
002寸法
  0
POLYLINE
  5
4345
  8
002寸法
 66
     1
 10
0.0
 20
0.0
 30
0.0
 70
     1
  0
VERTEX
  5
6F28
  8
002寸法
 10
4.5
 20
0.0
 30
0.0
  0
VERTEX
  5
6F29
  8
002寸法
 10
6.0
 20
2.5980762113532592
 30
0.0
  0
VERTEX
  5
6F2A
  8
002寸法
 10
3.0
 20
2.5980762113532592
 30
0.0
  0
SEQEND
  5
6F2B
  8
002寸法
  0
ENDBLK
  5
4341
  8
0
  0
BLOCK
  8
0
  2
___G
 70
     0
 10
0.0
 20
0.0
 30
0.0
  3
___G
  1

  0
POLYLINE
  5
4354
  8
002寸法
 66
     1
 10
0.0
 20
0.0
 30
0.0
 70
     1
  0
VERTEX
  5
6F2E
  8
002寸法
 10
-3.0
 20
0.0
 30
0.0
  0
VERTEX
  5
6F2F
  8
002寸法
 10
-1.5
 20
2.5980762113532592
 30
0.0
  0
VERTEX
  5
6F30
  8
002寸法
 10
-4.5
 20
2.5980762113532592
 30
0.0
  0
SEQEND
  5
6F31
  8
002寸法
  0
POLYLINE
  5
4355
  8
002寸法
 66
     1
 10
0.0
 20
0.0
 30
0.0
 70
     1
  0
VERTEX
  5
6F32
  8
002寸法
 10
0.0
 20
0.0
 30
0.0
  0
VERTEX
  5
6F33
  8
002寸法
 10
1.5
 20
2.5980762113532592
 30
0.0
  0
VERTEX
  5
6F34
  8
002寸法
 10
-1.5
 20
2.5980762113532592
 30
0.0
  0
SEQEND
  5
6F35
  8
002寸法
  0
POLYLINE
  5
4356
  8
002寸法
 66
     1
 10
0.0
 20
0.0
 30
0.0
 70
     1
  0
VERTEX
  5
6F36
  8
002寸法
 10
3.0
 20
0.0
 30
0.0
  0
VERTEX
  5
6F37
  8
002寸法
 10
4.5
 20
2.5980762113532592
 30
0.0
  0
VERTEX
  5
6F38
  8
002寸法
 10
1.5
 20
2.5980762113532592
 30
0.0
  0
SEQEND
  5
6F39
  8
002寸法
  0
LINE
  5
4357
  8
002寸法
 10
4.5
 20
2.5980762113532592
 30
0.0
 11
7.0
 21
6.9282032302754706
 31
0.0
  0
LINE
  5
4358
  8
002寸法
 10
7.0
 20
6.9282032302754706
 30
0.0
 11
10.0
 21
6.9282032302754706
 31
0.0
  0
INSERT
  5
4359
  8
011形状
  2
*U35
 10
0.0
 20
0.0
 30
0.0
  0
ENDBLK
  5
4353
  8
0
  0
BLOCK
  8
0
  2
_TAGCIRCLE
 70
     2
 10
0.0
 20
0.0
 30
0.0
  3
_TAGCIRCLE
  1

  0
CIRCLE
  5
4422
  8
0
  6
BYBLOCK
 10
0.0
 20
0.0
 30
0.0
 40
4.0
  0
ATTDEF
  5
4423
  8
002寸法
 62
     2
 10
-6.7999999999999989
 20
-1.5
 30
0.0
 40
3.0
  1
タグ番号
 72
     1
 11
0.0
 21
-1.5
 31
0.0
  3
タグ番号を入力
  2
タグ番号
 70
     0
  0
ENDBLK
  5
43E5
  8
0
  0
BLOCK
  8
0
  2
訂正記号
 70
     2
 10
0.0
 20
0.0
 30
0.0
  3
訂正記号
  1

  0
POLYLINE
  5
45CE
  8
002寸法
 66
     1
 10
0.0
 20
0.0
 30
0.0
 70
     1
  0
VERTEX
  5
6F44
  8
002寸法
 10
0.0
 20
4.3301270189222123
 30
0.0
  0
VERTEX
  5
6F45
  8
002寸法
 10
-2.5
 20
0.0
 30
0.0
  0
VERTEX
  5
6F46
  8
002寸法
 10
2.5
 20
0.0
 30
0.0
  0
SEQEND
  5
6F47
  8
002寸法
  0
ATTDEF
  5
45CF
  8
002寸法
 62
     2
 10
-3.3999999999999999
 20
0.4433756729740637
 30
0.0
 40
2.0
  1
1
 41
0.75
 72
     1
 11
0.0
 21
1.443375672974063
 31
0.0
  3

  2
訂正番号
 70
     0
 74
     2
1001
AcDbAttr
1070
     0
1070
     1
  0
ENDBLK
  5
4475
  8
0
  0
BLOCK
  8
0
  2
A$C4741278F
 70
     0
 10
0.0
 20
0.0
 30
0.0
  3
A$C4741278F
  1

  0
POLYLINE
  5
4FCA
  8
003注釈
 66
     1
 10
0.0
 20
0.0
 30
0.0
 70
     1
  0
VERTEX
  5
6F80
  8
003注釈
 10
4.9999975654500304
 20
1.250001047003934
 30
0.0
  0
VERTEX
  5
6F81
  8
003注釈
 10
2.499997565450037
 20
1.250001047003934
 30
0.0
  0
VERTEX
  5
6F82
  8
003注釈
 10
2.499997565450037
 20
0.0000010470039342
 30
0.0
  0
VERTEX
  5
6F83
  8
003注釈
 10
-0.0000024345499625
 20
2.5000010470039342
 30
0.0
  0
VERTEX
  5
6F84
  8
003注釈
 10
2.499997565450037
 20
5.0000010470039342
 30
0.0
  0
VERTEX
  5
6F85
  8
003注釈
 10
2.499997565450037
 20
3.7500010470039342
 30
0.0
  0
VERTEX
  5
6F86
  8
003注釈
 10
4.9999975654500304
 20
3.7500010470039622
 30
0.0
  0
SEQEND
  5
6F87
  8
003注釈
  0
LINE
  5
4FCB
  8
0
 10
-0.0000024345499625
 20
2.5000010470039342
 30
0.0
 11
4.9999975654500304
 21
2.5000010470039342
 31
0.0
  0
LINE
  5
4FCC
  8
0
 10
2.499997565450037
 20
3.7500010470039342
 30
0.0
 11
2.499997565450037
 21
1.250001047003934
 31
0.0
  0
ENDBLK
  5
4FD0
  8
0
  0
BLOCK
  8
0
  2
*D12
 70
     1
 10
0.0
 20
0.0
 30
0.0
  3
*D12
  1

  0
LINE
  5
6A32
  8
002寸法
 10
1232.5
 20
300.5
 30
0.0
 11
1309.0
 21
300.5
 31
0.0
  0
LINE
  5
6A33
  8
002寸法
 10
1232.5
 20
439.5
 30
0.0
 11
1309.0
 21
439.5
 31
0.0
  0
LINE
  5
6A34
  8
002寸法
 10
1307.5
 20
305.5
 30
0.0
 11
1307.5
 21
434.49999999999989
 31
0.0
  0
INSERT
  5
6A35
  8
002寸法
  2
_OPEN
 10
1307.5
 20
300.5
 30
0.0
 41
5.0
 42
5.0
 43
5.0
 50
270.0
  0
INSERT
  5
6A36
  8
002寸法
  2
_OPEN
 10
1307.5
 20
439.5
 30
0.0
 41
5.0
 42
5.0
 43
5.0
 50
90.0
  0
INSERT
  5
6A37
  8
011形状
  2
*U48
 10
0.0
 20
0.0
 30
0.0
  0
POINT
  5
6A38
  8
DEFPOINTS
 62
     0
 10
1231.5
 20
300.5
 30
0.0
  0
POINT
  5
6A39
  8
DEFPOINTS
 62
     0
 10
1231.5
 20
439.5
 30
0.0
  0
POINT
  5
6A3A
  8
DEFPOINTS
 62
     0
 10
1307.5
 20
439.5
 30
0.0
  0
ENDBLK
  5
69BD
  8
0
  0
BLOCK
  8
0
  2
*D13
 70
     1
 10
0.0
 20
0.0
 30
0.0
  3
*D13
  1

  0
LINE
  5
6A3B
  8
002寸法
 10
1232.5
 20
291.5
 30
0.0
 11
1329.0
 21
291.5
 31
0.0
  0
LINE
  5
6A3C
  8
002寸法
 10
1232.5
 20
448.5
 30
0.0
 11
1329.0
 21
448.5
 31
0.0
  0
LINE
  5
6A3D
  8
002寸法
 10
1327.5
 20
296.5
 30
0.0
 11
1327.5
 21
443.5
 31
0.0
  0
INSERT
  5
6A3E
  8
002寸法
  2
_OPEN
 10
1327.5
 20
291.5
 30
0.0
 41
5.0
 42
5.0
 43
5.0
 50
270.0
  0
INSERT
  5
6A3F
  8
002寸法
  2
_OPEN
 10
1327.5
 20
448.5
 30
0.0
 41
5.0
 42
5.0
 43
5.0
 50
90.0
  0
INSERT
  5
6A40
  8
011形状
  2
*U49
 10
0.0
 20
0.0
 30
0.0
  0
POINT
  5
6A41
  8
DEFPOINTS
 62
     0
 10
1231.5
 20
291.5
 30
0.0
  0
POINT
  5
6A42
  8
DEFPOINTS
 62
     0
 10
1231.5
 20
448.5
 30
0.0
  0
POINT
  5
6A43
  8
DEFPOINTS
 62
     0
 10
1327.5
 20
448.5
 30
0.0
  0
ENDBLK
  5
69D5
  8
0
  0
BLOCK
  8
0
  2
*D14
 70
     1
 10
0.0
 20
0.0
 30
0.0
  3
*D14
  1

  0
LINE
  5
6A7A
  8
002寸法
 10
1027.0
 20
351.0
 30
0.0
 11
1059.5
 21
351.0
 31
0.0
  0
LINE
  5
6A7B
  8
002寸法
 10
1027.0
 20
389.0
 30
0.0
 11
1059.5
 21
389.0
 31
0.0
  0
LINE
  5
6A7C
  8
002寸法
 10
1058.0
 20
356.0
 30
0.0
 11
1058.0
 21
384.0
 31
0.0
  0
INSERT
  5
6A7D
  8
002寸法
  2
_OPEN
 10
1058.0
 20
351.0
 30
0.0
 41
5.0
 42
5.0
 43
5.0
 50
270.0
  0
INSERT
  5
6A7E
  8
002寸法
  2
_OPEN
 10
1058.0
 20
389.0
 30
0.0
 41
5.0
 42
5.0
 43
5.0
 50
90.0
  0
INSERT
  5
6A7F
  8
011形状
  2
*U52
 10
0.0
 20
0.0
 30
0.0
  0
POINT
  5
6A80
  8
DEFPOINTS
 62
     0
 10
1026.0
 20
351.0
 30
0.0
  0
POINT
  5
6A81
  8
DEFPOINTS
 62
     0
 10
1026.0
 20
389.0
 30
0.0
  0
POINT
  5
6A82
  8
DEFPOINTS
 62
     0
 10
1058.0
 20
389.0
 30
0.0
  0
ENDBLK
  5
69ED
  8
0
  0
BLOCK
  8
0
  2
*D15
 70
     1
 10
0.0
 20
0.0
 30
0.0
  3
*D15
  1

  0
LINE
  5
6A56
  8
002寸法
 10
904.0
 20
316.5
 30
0.0
 11
1079.5
 21
316.5
 31
0.0
  0
LINE
  5
6A57
  8
002寸法
 10
904.0
 20
423.5
 30
0.0
 11
1079.5
 21
423.5
 31
0.0
  0
LINE
  5
6A58
  8
002寸法
 10
1078.0
 20
321.5
 30
0.0
 11
1078.0
 21
418.5
 31
0.0
  0
INSERT
  5
6A59
  8
002寸法
  2
_OPEN
 10
1078.0
 20
316.5
 30
0.0
 41
5.0
 42
5.0
 43
5.0
 50
270.0
  0
INSERT
  5
6A5A
  8
002寸法
  2
_OPEN
 10
1078.0
 20
423.5
 30
0.0
 41
5.0
 42
5.0
 43
5.0
 50
90.0
  0
INSERT
  5
6A5B
  8
011形状
  2
*U50
 10
0.0
 20
0.0
 30
0.0
  0
POINT
  5
6A5C
  8
DEFPOINTS
 62
     0
 10
903.0
 20
316.5
 30
0.0
  0
POINT
  5
6A5D
  8
DEFPOINTS
 62
     0
 10
903.0
 20
423.5
 30
0.0
  0
POINT
  5
6A5E
  8
DEFPOINTS
 62
     0
 10
1078.0
 20
423.5
 30
0.0
  0
ENDBLK
  5
6A05
  8
0
  0
BLOCK
  8
0
  2
*D16
 70
     1
 10
0.0
 20
0.0
 30
0.0
  3
*D16
  1

  0
LINE
  5
6A71
  8
002寸法
 10
729.0
 20
351.0
 30
0.0
 11
706.5
 21
351.0
 31
0.0
  0
LINE
  5
6A72
  8
002寸法
 10
729.0
 20
389.0
 30
0.0
 11
706.5
 21
389.0
 31
0.0
  0
LINE
  5
6A73
  8
002寸法
 10
708.0
 20
356.0
 30
0.0
 11
708.0
 21
384.0
 31
0.0
  0
INSERT
  5
6A74
  8
002寸法
  2
_OPEN
 10
708.0
 20
351.0
 30
0.0
 41
5.0
 42
5.0
 43
5.0
 50
270.0
  0
INSERT
  5
6A75
  8
002寸法
  2
_OPEN
 10
708.0
 20
389.0
 30
0.0
 41
5.0
 42
5.0
 43
5.0
 50
90.0
  0
INSERT
  5
6A76
  8
011形状
  2
*U51
 10
0.0
 20
0.0
 30
0.0
  0
POINT
  5
6A77
  8
DEFPOINTS
 62
     0
 10
730.0
 20
351.0
 30
0.0
  0
POINT
  5
6A78
  8
DEFPOINTS
 62
     0
 10
730.0
 20
389.0
 30
0.0
  0
POINT
  5
6A79
  8
DEFPOINTS
 62
     0
 10
708.0
 20
389.0
 30
0.0
  0
ENDBLK
  5
6A1D
  8
0
  0
BLOCK
  8
0
  2
*D17
 70
     1
 10
0.0
 20
0.0
 30
0.0
  3
*D17
  1

  0
LINE
  5
6AAA
  8
002寸法
 10
842.0
 20
440.5
 30
0.0
 11
842.0
 21
470.0
 31
0.0
  0
LINE
  5
6AAB
  8
002寸法
 10
862.0
 20
440.5
 30
0.0
 11
862.0
 21
470.0
 31
0.0
  0
LINE
  5
6AAC
  8
002寸法
 10
847.0
 20
468.5
 30
0.0
 11
857.0
 21
468.5
 31
0.0
  0
INSERT
  5
6AAD
  8
002寸法
  2
_OPEN
 10
842.0
 20
468.5
 30
0.0
 41
5.0
 42
5.0
 43
5.0
 50
180.0
  0
INSERT
  5
6AAE
  8
002寸法
  2
_OPEN
 10
862.0
 20
468.5
 30
0.0
 41
5.0
 42
5.0
 43
5.0
  0
INSERT
  5
6AAF
  8
011形状
  2
*U57
 10
0.0
 20
0.0
 30
0.0
  0
POINT
  5
6AB0
  8
DEFPOINTS
 62
     0
 10
842.0
 20
439.5
 30
0.0
  0
POINT
  5
6AB1
  8
DEFPOINTS
 62
     0
 10
862.0
 20
439.5
 30
0.0
  0
POINT
  5
6AB2
  8
DEFPOINTS
 62
     0
 10
862.0
 20
468.5
 30
0.0
  0
ENDBLK
  5
6A9F
  8
0
  0
BLOCK
  8
0
  2
*D18
 70
     1
 10
0.0
 20
0.0
 30
0.0
  3
*D18
  1

  0
LINE
  5
6AC4
  8
002寸法
 10
846.0
 20
434.49999999999989
 30
0.0
 11
785.0
 21
434.49999999999989
 31
0.0
  0
LINE
  5
6AC5
  8
002寸法
 10
846.0
 20
444.5
 30
0.0
 11
785.0
 21
444.5
 31
0.0
  0
LINE
  5
6AC6
  8
002寸法
 10
786.5
 20
429.49999999999989
 30
0.0
 11
786.5
 21
424.5
 31
0.0
  0
LINE
  5
6AC7
  8
002寸法
 10
786.5
 20
449.5
 30
0.0
 11
786.5
 21
454.49999999999989
 31
0.0
  0
LINE
  5
6AC8
  8
002寸法
 10
786.5
 20
434.49999999999989
 30
0.0
 11
786.5
 21
444.5
 31
0.0
  0
INSERT
  5
6AC9
  8
002寸法
  2
_OPEN
 10
786.5
 20
434.49999999999989
 30
0.0
 41
5.0
 42
5.0
 43
5.0
 50
90.0
  0
INSERT
  5
6ACA
  8
002寸法
  2
_OPEN
 10
786.5
 20
444.5
 30
0.0
 41
5.0
 42
5.0
 43
5.0
 50
270.0
  0
INSERT
  5
6ACB
  8
011形状
  2
*U58
 10
0.0
 20
0.0
 30
0.0
  0
POINT
  5
6ACC
  8
DEFPOINTS
 62
     0
 10
847.0
 20
434.49999999999989
 30
0.0
  0
POINT
  5
6ACD
  8
DEFPOINTS
 62
     0
 10
847.0
 20
444.5
 30
0.0
  0
POINT
  5
6ACE
  8
DEFPOINTS
 62
     0
 10
786.5
 20
444.5
 30
0.0
  0
ENDBLK
  5
6AB7
  8
0
  0
BLOCK
  8
0
  2
*D19
 70
     1
 10
0.0
 20
0.0
 30
0.0
  3
*D19
  1

  0
LINE
  5
6B34
  8
002寸法
 10
800.0
 20
316.5
 30
0.0
 11
800.0
 21
260.0
 31
0.0
  0
LINE
  5
6B35
  8
002寸法
 10
852.0
 20
294.5
 30
0.0
 11
852.0
 21
260.0
 31
0.0
  0
LINE
  5
6B36
  8
002寸法
 10
805.0
 20
261.5
 30
0.0
 11
847.0
 21
261.5
 31
0.0
  0
INSERT
  5
6B37
  8
002寸法
  2
_OPEN
 10
800.0
 20
261.5
 30
0.0
 41
5.0
 42
5.0
 43
5.0
 50
180.0
  0
INSERT
  5
6B38
  8
002寸法
  2
_OPEN
 10
852.0
 20
261.5
 30
0.0
 41
5.0
 42
5.0
 43
5.0
  0
INSERT
  5
6B39
  8
011形状
  2
*U59
 10
0.0
 20
0.0
 30
0.0
  0
POINT
  5
6B3A
  8
DEFPOINTS
 62
     0
 10
800.0
 20
317.5
 30
0.0
  0
POINT
  5
6B3B
  8
DEFPOINTS
 62
     0
 10
852.0
 20
295.5
 30
0.0
  0
POINT
  5
6B3C
  8
DEFPOINTS
 62
     0
 10
852.0
 20
261.5
 30
0.0
  0
ENDBLK
  5
6AD3
  8
0
  0
BLOCK
  8
0
  2
*D20
 70
     1
 10
0.0
 20
0.0
 30
0.0
  3
*D20
  1

  0
LINE
  5
6B3D
  8
002寸法
 10
793.0
 20
349.0
 30
0.0
 11
793.0
 21
240.0
 31
0.0
  0
LINE
  5
6B3E
  8
002寸法
 10
800.0
 20
316.5
 30
0.0
 11
800.0
 21
240.0
 31
0.0
  0
LINE
  5
6B3F
  8
002寸法
 10
788.0
 20
241.5
 30
0.0
 11
783.0
 21
241.5
 31
0.0
  0
LINE
  5
6B40
  8
002寸法
 10
805.0
 20
241.5
 30
0.0
 11
810.0
 21
241.5
 31
0.0
  0
LINE
  5
6B41
  8
002寸法
 10
793.0
 20
241.5
 30
0.0
 11
800.0
 21
241.5
 31
0.0
  0
INSERT
  5
6B42
  8
002寸法
  2
_OPEN
 10
793.0
 20
241.5
 30
0.0
 41
5.0
 42
5.0
 43
5.0
  0
INSERT
  5
6B43
  8
002寸法
  2
_OPEN
 10
800.0
 20
241.5
 30
0.0
 41
5.0
 42
5.0
 43
5.0
 50
180.0
  0
INSERT
  5
6B44
  8
011形状
  2
*U60
 10
0.0
 20
0.0
 30
0.0
  0
POINT
  5
6B45
  8
DEFPOINTS
 62
     0
 10
793.0
 20
350.0
 30
0.0
  0
POINT
  5
6B46
  8
DEFPOINTS
 62
     0
 10
800.0
 20
317.5
 30
0.0
  0
POINT
  5
6B47
  8
DEFPOINTS
 62
     0
 10
800.0
 20
241.5
 30
0.0
  0
ENDBLK
  5
6AEB
  8
0
  0
BLOCK
  8
0
  2
*D21
 70
     1
 10
0.0
 20
0.0
 30
0.0
  3
*D21
  1

  0
LINE
  5
6B48
  8
002寸法
 10
728.0
 20
352.0
 30
0.0
 11
728.0
 21
220.0
 31
0.0
  0
LINE
  5
6B49
  8
002寸法
 10
793.0
 20
349.0
 30
0.0
 11
793.0
 21
220.0
 31
0.0
  0
LINE
  5
6B4A
  8
002寸法
 10
733.0
 20
221.5
 30
0.0
 11
788.0
 21
221.5
 31
0.0
  0
INSERT
  5
6B4B
  8
002寸法
  2
_OPEN
 10
728.0
 20
221.5
 30
0.0
 41
5.0
 42
5.0
 43
5.0
 50
180.0
  0
INSERT
  5
6B4C
  8
002寸法
  2
_OPEN
 10
793.0
 20
221.5
 30
0.0
 41
5.0
 42
5.0
 43
5.0
  0
INSERT
  5
6B4D
  8
011形状
  2
*U61
 10
0.0
 20
0.0
 30
0.0
  0
POINT
  5
6B4E
  8
DEFPOINTS
 62
     0
 10
728.0
 20
353.0
 30
0.0
  0
POINT
  5
6B4F
  8
DEFPOINTS
 62
     0
 10
793.0
 20
350.0
 30
0.0
  0
POINT
  5
6B50
  8
DEFPOINTS
 62
     0
 10
793.0
 20
221.5
 30
0.0
  0
ENDBLK
  5
6B07
  8
0
  0
BLOCK
  8
0
  2
*D22
 70
     1
 10
0.0
 20
0.0
 30
0.0
  3
*D22
  1

  0
LINE
  5
6B51
  8
002寸法
 10
728.0
 20
352.0
 30
0.0
 11
728.0
 21
200.0
 31
0.0
  0
LINE
  5
6B52
  8
002寸法
 10
1028.0
 20
352.0
 30
0.0
 11
1028.0
 21
200.0
 31
0.0
  0
LINE
  5
6B53
  8
002寸法
 10
733.0
 20
201.5
 30
0.0
 11
1023.0
 21
201.5
 31
0.0
  0
INSERT
  5
6B54
  8
002寸法
  2
_OPEN
 10
728.0
 20
201.5
 30
0.0
 41
5.0
 42
5.0
 43
5.0
 50
180.0
  0
INSERT
  5
6B55
  8
002寸法
  2
_OPEN
 10
1028.0
 20
201.5
 30
0.0
 41
5.0
 42
5.0
 43
5.0
  0
INSERT
  5
6B56
  8
011形状
  2
*U62
 10
0.0
 20
0.0
 30
0.0
  0
POINT
  5
6B57
  8
DEFPOINTS
 62
     0
 10
728.0
 20
353.0
 30
0.0
  0
POINT
  5
6B58
  8
DEFPOINTS
 62
     0
 10
1028.0
 20
353.0
 30
0.0
  0
POINT
  5
6B59
  8
DEFPOINTS
 62
     0
 10
1028.0
 20
201.5
 30
0.0
  0
ENDBLK
  5
6B1F
  8
0
  0
BLOCK
  8
0
  2
*D23
 70
     1
 10
0.0
 20
0.0
 30
0.0
  3
*D23
  1

  0
LINE
  5
6B68
  8
002寸法
 10
728.0
 20
352.0
 30
0.0
 11
728.0
 21
260.0
 31
0.0
  0
LINE
  5
6B69
  8
002寸法
 10
778.0
 20
369.0
 30
0.0
 11
778.0
 21
260.0
 31
0.0
  0
LINE
  5
6B6A
  8
002寸法
 10
733.0
 20
261.5
 30
0.0
 11
773.0
 21
261.5
 31
0.0
  0
INSERT
  5
6B6B
  8
002寸法
  2
_OPEN
 10
728.0
 20
261.5
 30
0.0
 41
5.0
 42
5.0
 43
5.0
 50
180.0
  0
INSERT
  5
6B6C
  8
002寸法
  2
_OPEN
 10
778.0
 20
261.5
 30
0.0
 41
5.0
 42
5.0
 43
5.0
  0
INSERT
  5
6B6D
  8
011形状
  2
*U63
 10
0.0
 20
0.0
 30
0.0
  0
POINT
  5
6B6E
  8
DEFPOINTS
 62
     0
 10
728.0
 20
353.0
 30
0.0
  0
POINT
  5
6B6F
  8
DEFPOINTS
 62
     0
 10
778.0
 20
370.0
 30
0.0
  0
POINT
  5
6B70
  8
DEFPOINTS
 62
     0
 10
778.0
 20
261.5
 30
0.0
  0
ENDBLK
  5
6B5D
  8
0
  0
BLOCK
  8
0
  2
*D24
 70
     1
 10
0.0
 20
0.0
 30
0.0
  3
*D24
  1

  0
LINE
  5
6FEA
  8
002寸法
 10
852.0
 20
294.5
 30
0.0
 11
852.0
 21
260.0
 31
0.0
  0
LINE
  5
6FEB
  8
002寸法
 10
905.0
 20
318.5
 30
0.0
 11
905.0
 21
260.0
 31
0.0
  0
LINE
  5
6FEC
  8
002寸法
 10
857.0
 20
261.5
 30
0.0
 11
900.0
 21
261.5
 31
0.0
  0
INSERT
  5
6FED
  8
002寸法
  2
_OPEN
 10
852.0
 20
261.5
 30
0.0
 41
5.0
 42
5.0
 43
5.0
 50
180.0
  0
INSERT
  5
6FEE
  8
002寸法
  2
_OPEN
 10
905.0
 20
261.5
 30
0.0
 41
5.0
 42
5.0
 43
5.0
  0
TEXT
  8
002寸法
  40
6
  5
7034
  62
2
  72
0
  71
0
 10
878.500
 20
257.700
 30
0.000000
  1
53
  0
POINT
  5
6FF0
  8
DEFPOINTS
 62
     0
 10
852.0
 20
295.5
 30
0.0
  0
POINT
  5
6FF1
  8
DEFPOINTS
 62
     0
 10
905.0
 20
319.5
 30
0.0
  0
POINT
  5
6FF2
  8
DEFPOINTS
 62
     0
 10
905.0
 20
261.5
 30
0.0
  0
ENDBLK
  5
6B75
  8
0
  0
BLOCK
  8
0
  2
*D25
 70
     1
 10
0.0
 20
0.0
 30
0.0
  3
*D25
  1

  0
LINE
  5
6FF3
  8
002寸法
 10
800.0
 20
316.5
 30
0.0
 11
800.0
 21
240.0
 31
0.0
  0
LINE
  5
6FF4
  8
002寸法
 10
905.0
 20
318.5
 30
0.0
 11
905.0
 21
240.0
 31
0.0
  0
LINE
  5
6FF5
  8
002寸法
 10
805.0
 20
241.5
 30
0.0
 11
900.0
 21
241.5
 31
0.0
  0
INSERT
  5
6FF6
  8
002寸法
  2
_OPEN
 10
800.0
 20
241.5
 30
0.0
 41
5.0
 42
5.0
 43
5.0
 50
180.0
  0
INSERT
  5
6FF7
  8
002寸法
  2
_OPEN
 10
905.0
 20
241.5
 30
0.0
 41
5.0
 42
5.0
 43
5.0
  0
TEXT
  8
002寸法
  40
6
  5
7035
  62
2
  72
0
  71
0
 10
852.500
 20
237.700
 30
0.000000
  1
105
  0
POINT
  5
6FF9
  8
DEFPOINTS
 62
     0
 10
800.0
 20
317.5
 30
0.0
  0
POINT
  5
6FFA
  8
DEFPOINTS
 62
     0
 10
905.0
 20
319.5
 30
0.0
  0
POINT
  5
6FFB
  8
DEFPOINTS
 62
     0
 10
905.0
 20
241.5
 30
0.0
  0
ENDBLK
  5
6B8D
  8
0
  0
BLOCK
  8
0
  2
*D26
 70
     1
 10
0.0
 20
0.0
 30
0.0
  3
*D26
  1

  0
LINE
  5
6FFC
  8
002寸法
 10
905.0
 20
318.5
 30
0.0
 11
905.0
 21
240.0
 31
0.0
  0
LINE
  5
6FFD
  8
002寸法
 10
968.0
 20
343.0
 30
0.0
 11
968.0
 21
240.0
 31
0.0
  0
LINE
  5
6FFE
  8
002寸法
 10
910.0
 20
241.5
 30
0.0
 11
963.0
 21
241.5
 31
0.0
  0
INSERT
  5
6FFF
  8
002寸法
  2
_OPEN
 10
905.0
 20
241.5
 30
0.0
 41
5.0
 42
5.0
 43
5.0
 50
180.0
  0
INSERT
  5
7000
  8
002寸法
  2
_OPEN
 10
968.0
 20
241.5
 30
0.0
 41
5.0
 42
5.0
 43
5.0
  0
TEXT
  8
002寸法
  40
6
  5
7036
  62
2
  72
0
  71
0
 10
936.500
 20
237.700
 30
0.000000
  1
63
  0
POINT
  5
7002
  8
DEFPOINTS
 62
     0
 10
905.0
 20
319.5
 30
0.0
  0
POINT
  5
7003
  8
DEFPOINTS
 62
     0
 10
968.0
 20
344.0
 30
0.0
  0
POINT
  5
7004
  8
DEFPOINTS
 62
     0
 10
968.0
 20
241.5
 30
0.0
  0
ENDBLK
  5
6BA5
  8
0
  0
BLOCK
  8
0
  2
*D27
 70
     1
 10
0.0
 20
0.0
 30
0.0
  3
*D27
  1

  0
LINE
  5
7005
  8
002寸法
 10
793.0
 20
349.0
 30
0.0
 11
793.0
 21
220.0
 31
0.0
  0
LINE
  5
7006
  8
002寸法
 10
968.0
 20
343.0
 30
0.0
 11
968.0
 21
220.0
 31
0.0
  0
LINE
  5
7007
  8
002寸法
 10
798.0
 20
221.5
 30
0.0
 11
963.0
 21
221.5
 31
0.0
  0
INSERT
  5
7008
  8
002寸法
  2
_OPEN
 10
793.0
 20
221.5
 30
0.0
 41
5.0
 42
5.0
 43
5.0
 50
180.0
  0
INSERT
  5
7009
  8
002寸法
  2
_OPEN
 10
968.0
 20
221.5
 30
0.0
 41
5.0
 42
5.0
 43
5.0
  0
TEXT
  8
002寸法
  40
6
  5
7037
  62
2
  72
0
  71
0
 10
880.500
 20
217.700
 30
0.000000
  1
175
  0
POINT
  5
700B
  8
DEFPOINTS
 62
     0
 10
793.0
 20
350.0
 30
0.0
  0
POINT
  5
700C
  8
DEFPOINTS
 62
     0
 10
968.0
 20
344.0
 30
0.0
  0
POINT
  5
700D
  8
DEFPOINTS
 62
     0
 10
968.0
 20
221.5
 30
0.0
  0
ENDBLK
  5
6BBD
  8
0
  0
BLOCK
  8
0
  2
*D28
 70
     1
 10
0.0
 20
0.0
 30
0.0
  3
*D28
  1

  0
LINE
  5
700E
  8
002寸法
 10
968.0
 20
343.0
 30
0.0
 11
968.0
 21
220.0
 31
0.0
  0
LINE
  5
700F
  8
002寸法
 10
1028.0
 20
352.0
 30
0.0
 11
1028.0
 21
220.0
 31
0.0
  0
LINE
  5
7010
  8
002寸法
 10
973.0
 20
221.5
 30
0.0
 11
1023.0
 21
221.5
 31
0.0
  0
INSERT
  5
7011
  8
002寸法
  2
_OPEN
 10
968.0
 20
221.5
 30
0.0
 41
5.0
 42
5.0
 43
5.0
 50
180.0
  0
INSERT
  5
7012
  8
002寸法
  2
_OPEN
 10
1028.0
 20
221.5
 30
0.0
 41
5.0
 42
5.0
 43
5.0
  0
TEXT
  8
002寸法
  40
6
  5
7038
  62
2
  72
0
  71
0
 10
998.000
 20
217.700
 30
0.000000
  1
60
  0
POINT
  5
7014
  8
DEFPOINTS
 62
     0
 10
968.0
 20
344.0
 30
0.0
  0
POINT
  5
7015
  8
DEFPOINTS
 62
     0
 10
1028.0
 20
353.0
 30
0.0
  0
POINT
  5
7016
  8
DEFPOINTS
 62
     0
 10
1028.0
 20
221.5
 30
0.0
  0
ENDBLK
  5
6BD5
  8
0
  0
BLOCK
  8
0
  2
*D29
 70
     1
 10
0.0
 20
0.0
 30
0.0
  3
*D29
  1

  0
LINE
  5
6C02
  8
002寸法
 10
978.0
 20
369.0
 30
0.0
 11
978.0
 21
260.0
 31
0.0
  0
LINE
  5
6C03
  8
002寸法
 10
1028.0
 20
352.0
 30
0.0
 11
1028.0
 21
260.0
 31
0.0
  0
LINE
  5
6C04
  8
002寸法
 10
983.0
 20
261.5
 30
0.0
 11
1023.0
 21
261.5
 31
0.0
  0
INSERT
  5
6C05
  8
002寸法
  2
_OPEN
 10
978.0
 20
261.5
 30
0.0
 41
5.0
 42
5.0
 43
5.0
 50
180.0
  0
INSERT
  5
6C06
  8
002寸法
  2
_OPEN
 10
1028.0
 20
261.5
 30
0.0
 41
5.0
 42
5.0
 43
5.0
  0
INSERT
  5
6C07
  8
011形状
  2
*U64
 10
0.0
 20
0.0
 30
0.0
  0
POINT
  5
6C08
  8
DEFPOINTS
 62
     0
 10
978.0
 20
370.0
 30
0.0
  0
POINT
  5
6C09
  8
DEFPOINTS
 62
     0
 10
1028.0
 20
353.0
 30
0.0
  0
POINT
  5
6C0A
  8
DEFPOINTS
 62
     0
 10
1028.0
 20
261.5
 30
0.0
  0
ENDBLK
  5
6BED
  8
0
  0
BLOCK
  8
0
  2
*D30
 70
     1
 10
0.0
 20
0.0
 30
0.0
  3
*D30
  1

  0
LINE
  5
6C19
  8
002寸法
 10
1137.5
 20
361.0
 30
0.0
 11
1137.5
 21
260.0
 31
0.0
  0
LINE
  5
6C1A
  8
002寸法
 10
1277.5
 20
369.0
 30
0.0
 11
1277.5
 21
260.0
 31
0.0
  0
LINE
  5
6C1B
  8
002寸法
 10
1142.5
 20
261.5
 30
0.0
 11
1272.5
 21
261.5
 31
0.0
  0
INSERT
  5
6C1C
  8
002寸法
  2
_OPEN
 10
1137.5
 20
261.5
 30
0.0
 41
5.0
 42
5.0
 43
5.0
 50
180.0
  0
INSERT
  5
6C1D
  8
002寸法
  2
_OPEN
 10
1277.5
 20
261.5
 30
0.0
 41
5.0
 42
5.0
 43
5.0
  0
INSERT
  5
6C1E
  8
011形状
  2
*U65
 10
0.0
 20
0.0
 30
0.0
  0
POINT
  5
6C1F
  8
DEFPOINTS
 62
     0
 10
1137.5
 20
362.0
 30
0.0
  0
POINT
  5
6C20
  8
DEFPOINTS
 62
     0
 10
1277.5
 20
370.0
 30
0.0
  0
POINT
  5
6C21
  8
DEFPOINTS
 62
     0
 10
1277.5
 20
261.5
 30
0.0
  0
ENDBLK
  5
6C0E
  8
0
  0
BLOCK
  8
0
  2
*D31
 70
     1
 10
0.0
 20
0.0
 30
0.0
  3
*D31
  1

  0
LINE
  5
6C4C
  8
002寸法
 10
1216.5
 20
449.5
 30
0.0
 11
1216.5
 21
470.0
 31
0.0
  0
LINE
  5
6C4D
  8
002寸法
 10
1231.5
 20
449.5
 30
0.0
 11
1231.5
 21
470.0
 31
0.0
  0
LINE
  5
6C4E
  8
002寸法
 10
1221.5
 20
468.5
 30
0.0
 11
1226.5
 21
468.5
 31
0.0
  0
INSERT
  5
6C4F
  8
002寸法
  2
_OPEN
 10
1216.5
 20
468.5
 30
0.0
 41
5.0
 42
5.0
 43
5.0
 50
180.0
  0
INSERT
  5
6C50
  8
002寸法
  2
_OPEN
 10
1231.5
 20
468.5
 30
0.0
 41
5.0
 42
5.0
 43
5.0
  0
INSERT
  5
6C51
  8
011形状
  2
*U66
 10
0.0
 20
0.0
 30
0.0
  0
POINT
  5
6C52
  8
DEFPOINTS
 62
     0
 10
1216.5
 20
448.5
 30
0.0
  0
POINT
  5
6C53
  8
DEFPOINTS
 62
     0
 10
1231.5
 20
448.5
 30
0.0
  0
POINT
  5
6C54
  8
DEFPOINTS
 62
     0
 10
1231.5
 20
468.5
 30
0.0
  0
ENDBLK
  5
6C2E
  8
0
  0
BLOCK
  8
0
  2
*D32
 70
     1
 10
0.0
 20
0.0
 30
0.0
  3
*D32
  1

  0
LINE
  5
7023
  8
002寸法
 10
1204.66969722
 20
365.0
 30
0.0
 11
1190.5
 21
365.0
 31
0.0
  0
LINE
  5
7024
  8
002寸法
 10
1204.66969722
 20
374.99999999935238
 30
0.0
 11
1190.5
 21
374.99999999935238
 31
0.0
  0
LINE
  5
7025
  8
002寸法
 10
1192.0
 20
360.0
 30
0.0
 11
1192.0
 21
355.0
 31
0.0
  0
LINE
  5
7026
  8
002寸法
 10
1192.0
 20
379.99999999935238
 30
0.0
 11
1192.0
 21
384.99999999935238
 31
0.0
  0
TEXT
  8
002寸法
  40
6
  5
7039
  62
2
  72
0
  71
0
 10
1187.50
 20
375.079
 30
0.000000
  1
10  0/-0.036
  0
LINE
  5
7028
  8
002寸法
 10
1192.0
 20
365.0
 30
0.0
 11
1192.0
 21
374.99999999935238
 31
0.0
  0
INSERT
  5
7029
  8
002寸法
  2
_OPEN
 10
1192.0
 20
365.0
 30
0.0
 41
5.0
 42
5.0
 43
5.0
 50
90.0
  0
INSERT
  5
702A
  8
002寸法
  2
_OPEN
 10
1192.0
 20
374.99999999935238
 30
0.0
 41
5.0
 42
5.0
 43
5.0
 50
270.0
  0
POINT
  5
702B
  8
DEFPOINTS
 62
     0
 10
1205.66969722
 20
365.0
 30
0.0
  0
POINT
  5
702C
  8
DEFPOINTS
 62
     0
 10
1205.66969722
 20
374.99999999935238
 30
0.0
  0
POINT
  5
702D
  8
DEFPOINTS
 62
     0
 10
1192.0
 20
374.99999999935238
 30
0.0
  0
ENDBLK
  5
6C9A
  8
0
  0
BLOCK
  8
0
  2
*D33
 70
     1
 10
0.0
 20
0.0
 30
0.0
  3
*D33
  1

  0
LINE
  5
6CE5
  8
002寸法
 10
1205.0
 20
371.0
 30
0.0
 11
1205.0
 21
401.49999999999989
 31
0.0
  0
LINE
  5
6CE6
  8
002寸法
 10
1210.0
 20
376.0
 30
0.0
 11
1210.0
 21
401.49999999999989
 31
0.0
  0
LINE
  5
6CE7
  8
002寸法
 10
1200.0
 20
400.0
 30
0.0
 11
1195.0
 21
400.0
 31
0.0
  0
LINE
  5
6CE8
  8
002寸法
 10
1215.0
 20
400.0
 30
0.0
 11
1220.0
 21
400.0
 31
0.0
  0
LINE
  5
6CE9
  8
002寸法
 10
1205.0
 20
400.0
 30
0.0
 11
1210.0
 21
400.0
 31
0.0
  0
INSERT
  5
6CEA
  8
002寸法
  2
_OPEN
 10
1205.0
 20
400.0
 30
0.0
 41
5.0
 42
5.0
 43
5.0
  0
INSERT
  5
6CEB
  8
002寸法
  2
_OPEN
 10
1210.0
 20
400.0
 30
0.0
 41
5.0
 42
5.0
 43
5.0
 50
180.0
  0
INSERT
  5
6CEC
  8
011形状
  2
*U67
 10
0.0
 20
0.0
 30
0.0
  0
POINT
  5
6CED
  8
DEFPOINTS
 62
     0
 10
1205.0
 20
370.0
 30
0.0
  0
POINT
  5
6CEE
  8
DEFPOINTS
 62
     0
 10
1210.0
 20
375.0
 30
0.0
  0
POINT
  5
6CEF
  8
DEFPOINTS
 62
     0
 10
1210.0
 20
400.0
 30
0.0
  0
ENDBLK
  5
6CB6
  8
0
  0
BLOCK
  8
0
  2
*U34
 70
     1
 10
0.0
 20
0.0
 30
0.0
  3
*U34
  1

  0
SOLID
  5
6DBB
  8
DEFPOINTS
  6
CONTINUOUS
 10
1284.698004822191
 20
32.567521701952053
 30
0.0
 11
1284.698004822191
 21
32.128621701951943
 31
0.0
 12
1291.403934822192
 22
32.128621701951943
 32
0.0
 13
1291.403934822192
 23
32.128621701951943
 33
0.0
210
0.0
220
0.0
230
1.0
  0
SOLID
  5
6DBC
  8
DEFPOINTS
  6
CONTINUOUS
 10
-1284.698004822191
 20
32.567521701952053
 30
0.0
 11
-1291.403934822192
 21
32.567521701952053
 31
0.0
 12
-1291.403934822192
 22
32.128621701951943
 32
0.0
 13
-1291.403934822192
 23
32.128621701951943
 33
0.0
210
0.0
220
0.0
230
-1.0
  0
SOLID
  5
6DBD
  8
DEFPOINTS
  6
CONTINUOUS
 10
1275.2373998221899
 20
32.567521701952053
 30
0.0
 11
1275.2373998221899
 21
32.128621701951943
 31
0.0
 12
1277.852319822191
 22
32.128621701951943
 32
0.0
 13
1277.852319822191
 23
32.128621701951943
 33
0.0
  0
SOLID
  5
6DBE
  8
DEFPOINTS
  6
CONTINUOUS
 10
-1275.2373998221899
 20
32.567521701952053
 30
0.0
 11
-1277.852319822191
 21
32.567521701952053
 31
0.0
 12
-1277.852319822191
 22
32.128621701951943
 32
0.0
 13
-1277.852319822191
 23
32.128621701951943
 33
0.0
210
0.0
220
0.0
230
-1.0
  0
SOLID
  5
6DBF
  8
DEFPOINTS
  6
CONTINUOUS
 10
1273.27158982219
 20
32.567521701952053
 30
0.0
 11
1273.271589822192
 21
32.128621701951943
 31
0.0
 12
1275.0156398221909
 22
32.128621701951943
 32
0.0
 13
1275.0156398221909
 23
32.128621701951943
 33
0.0
210
0.0
220
0.0
230
1.0
  0
SOLID
  5
6DC0
  8
DEFPOINTS
  6
CONTINUOUS
 10
-1273.27158982219
 20
32.567521701952053
 30
0.0
 11
-1275.0156398221909
 21
32.567521701952053
 31
0.0
 12
-1275.0156398221909
 22
32.128621701951943
 32
0.0
 13
-1275.0156398221909
 23
32.128621701951943
 33
0.0
210
0.0
220
0.0
230
-1.0
  0
SOLID
  5
6DC1
  8
DEFPOINTS
  6
CONTINUOUS
 10
1265.3309896601911
 20
32.567521701952053
 30
0.0
 11
1265.3309896601911
 21
32.128621701951943
 31
0.0
 12
1269.3457696601911
 22
32.128621701951943
 32
0.0
 13
1269.3457696601911
 23
32.128621701951943
 33
0.0
  0
SOLID
  5
6DC2
  8
DEFPOINTS
  6
CONTINUOUS
 10
-1265.3309896601911
 20
32.567521701952053
 30
0.0
 11
-1269.3457696601911
 21
32.567521701952053
 31
0.0
 12
-1269.3457696601911
 22
32.128621701951943
 32
0.0
 13
-1269.3457696601911
 23
32.128621701951943
 33
0.0
210
0.0
220
0.0
230
-1.0
  0
SOLID
  5
6DC3
  8
DEFPOINTS
  6
CONTINUOUS
 10
1262.1685996601909
 20
32.567521701952053
 30
0.0
 11
1262.1685996601909
 21
32.128621701951943
 31
0.0
 12
1265.0745796601909
 22
32.128621701951943
 32
0.0
 13
1265.0745796601909
 23
32.128621701951943
 33
0.0
210
0.0
220
0.0
230
1.0
  0
SOLID
  5
6DC4
  8
DEFPOINTS
  6
CONTINUOUS
 10
-1262.1685996601909
 20
32.567521701952053
 30
0.0
 11
-1265.07457966019
 21
32.567521701952053
 31
0.0
 12
-1265.0745796601909
 22
32.128621701951943
 32
0.0
 13
-1265.0745796601909
 23
32.128621701951943
 33
0.0
210
0.0
220
0.0
230
-1.0
  0
SOLID
  5
6DC5
  8
DEFPOINTS
  6
CONTINUOUS
 10
1254.2637548221901
 20
32.567521701952053
 30
0.0
 11
1254.2637548221901
 21
32.128621701951943
 31
0.0
 12
1258.3120298221911
 22
32.128621701951943
 32
0.0
 13
1258.3120298221911
 23
32.128621701951943
 33
0.0
210
0.0
220
0.0
230
1.0
  0
SOLID
  5
6DC6
  8
DEFPOINTS
  6
CONTINUOUS
 10
-1254.2637548221901
 20
32.567521701952053
 30
0.0
 11
-1258.3120298221911
 21
32.567521701952053
 31
0.0
 12
-1258.3120298221911
 22
32.128621701951943
 32
0.0
 13
-1258.3120298221911
 23
32.128621701951943
 33
0.0
210
0.0
220
0.0
230
-1.0
  0
SOLID
  5
6DC7
  8
DEFPOINTS
  6
CONTINUOUS
 10
1251.191454822191
 20
32.567521701952053
 30
0.0
 11
1251.191454822191
 21
32.128621701951943
 31
0.0
 12
1253.986554822191
 22
32.128621701951943
 32
0.0
 13
1253.986554822191
 23
32.128621701951943
 33
0.0
210
0.0
220
0.0
230
1.0
  0
SOLID
  5
6DC8
  8
DEFPOINTS
  6
CONTINUOUS
 10
-1251.191454822191
 20
32.567521701952053
 30
0.0
 11
-1253.986554822191
 21
32.567521701952053
 31
0.0
 12
-1253.986554822191
 22
32.128621701951943
 32
0.0
 13
-1253.986554822191
 23
32.128621701951943
 33
0.0
210
0.0
220
0.0
230
-1.0
  0
SOLID
  5
6DC9
  8
DEFPOINTS
  6
CONTINUOUS
 10
1290.0364148221911
 20
32.128621701951943
 30
0.0
 11
1290.0364148221911
 21
31.718596701952269
 31
0.0
 12
1291.4039348221911
 22
31.718596701952269
 32
0.0
 13
1291.4039348221911
 23
31.718596701952269
 33
0.0
210
0.0
220
0.0
230
1.0
  0
SOLID
  5
6DCA
  8
DEFPOINTS
  6
CONTINUOUS
 10
-1290.0364148221911
 20
32.128621701951943
 30
0.0
 11
-1291.403934822192
 21
32.128621701951943
 31
0.0
 12
-1291.4039348221911
 22
31.718596701952269
 32
0.0
 13
-1291.4039348221911
 23
31.718596701952269
 33
0.0
210
0.0
220
0.0
230
-1.0
  0
SOLID
  5
6DCB
  8
DEFPOINTS
  6
CONTINUOUS
 10
1287.37067482219
 20
32.128621701951943
 30
0.0
 11
1287.37067482219
 21
31.718596701952269
 31
0.0
 12
1288.6527248221921
 22
31.718596701952269
 32
0.0
 13
1288.6527248221921
 23
31.718596701952269
 33
0.0
210
0.0
220
0.0
230
1.0
  0
SOLID
  5
6DCC
  8
DEFPOINTS
  6
CONTINUOUS
 10
-1287.37067482219
 20
32.128621701951943
 30
0.0
 11
-1288.6527248221901
 21
32.128621701951943
 31
0.0
 12
-1288.6527248221921
 22
31.718596701952269
 32
0.0
 13
-1288.6527248221921
 23
31.718596701952269
 33
0.0
210
0.0
220
0.0
230
-1.0
  0
SOLID
  5
6DCD
  8
DEFPOINTS
  6
CONTINUOUS
 10
1284.698004822191
 20
32.128621701951943
 30
0.0
 11
1284.698004822191
 21
31.718596701952269
 31
0.0
 12
1286.0562848221921
 22
31.718596701952269
 32
0.0
 13
1286.0562848221921
 23
31.718596701952269
 33
0.0
  0
SOLID
  5
6DCE
  8
DEFPOINTS
  6
CONTINUOUS
 10
-1284.698004822191
 20
32.128621701951943
 30
0.0
 11
-1286.0562848221921
 21
32.128621701951943
 31
0.0
 12
-1286.0562848221921
 22
31.718596701952269
 32
0.0
 13
-1286.0562848221921
 23
31.718596701952269
 33
0.0
210
0.0
220
0.0
230
-1.0
  0
SOLID
  5
6DCF
  8
DEFPOINTS
  6
CONTINUOUS
 10
1276.7735498221921
 20
32.128621701951943
 30
0.0
 11
1276.7735498221921
 21
31.46565170195208
 31
0.0
 12
1277.852319822191
 22
31.46565170195208
 32
0.0
 13
1277.852319822191
 23
31.46565170195208
 33
0.0
210
0.0
220
0.0
230
1.0
  0
SOLID
  5
6DD0
  8
DEFPOINTS
  6
CONTINUOUS
 10
-1276.7735498221921
 20
32.128621701951943
 30
0.0
 11
-1277.852319822191
 21
32.128621701951943
 31
0.0
 12
-1277.852319822191
 22
31.46565170195208
 32
0.0
 13
-1277.852319822191
 23
31.46565170195208
 33
0.0
210
0.0
220
0.0
230
-1.0
  0
SOLID
  5
6DD1
  8
DEFPOINTS
  6
CONTINUOUS
 10
1275.2373998221899
 20
32.128621701951943
 30
0.0
 11
1275.2373998221899
 21
31.46565170195208
 31
0.0
 12
1276.348509822192
 22
31.46565170195208
 32
0.0
 13
1276.348509822192
 23
31.46565170195208
 33
0.0
210
0.0
220
0.0
230
1.0
  0
SOLID
  5
6DD2
  8
DEFPOINTS
  6
CONTINUOUS
 10
-1275.2373998221899
 20
32.128621701951943
 30
0.0
 11
-1276.34850982219
 21
32.128621701951943
 31
0.0
 12
-1276.348509822192
 22
31.46565170195208
 32
0.0
 13
-1276.348509822192
 23
31.46565170195208
 33
0.0
210
0.0
220
0.0
230
-1.0
  0
SOLID
  5
6DD3
  8
DEFPOINTS
  6
CONTINUOUS
 10
1263.1087696601901
 20
32.128621701951943
 30
0.0
 11
1263.1087696601919
 21
31.46565170195208
 31
0.0
 12
1264.356169660191
 22
31.46565170195208
 32
0.0
 13
1264.356169660191
 23
31.46565170195208
 33
0.0
210
0.0
220
0.0
230
1.0
  0
SOLID
  5
6DD4
  8
DEFPOINTS
  6
CONTINUOUS
 10
-1263.1087696601901
 20
32.128621701951943
 30
0.0
 11
-1264.356169660191
 21
32.128621701951943
 31
0.0
 12
-1264.356169660191
 22
31.46565170195208
 32
0.0
 13
-1264.356169660191
 23
31.46565170195208
 33
0.0
210
0.0
220
0.0
230
-1.0
  0
SOLID
  5
6DD5
  8
DEFPOINTS
  6
CONTINUOUS
 10
1284.698004822191
 20
31.718596701952269
 30
0.0
 11
1284.698004822191
 21
31.26814670195245
 31
0.0
 12
1291.4039348221911
 22
31.26814670195245
 32
0.0
 13
1291.4039348221911
 23
31.26814670195245
 33
0.0
  0
SOLID
  5
6DD6
  8
DEFPOINTS
  6
CONTINUOUS
 10
-1284.698004822191
 20
31.718596701952269
 30
0.0
 11
-1291.4039348221911
 21
31.718596701952269
 31
0.0
 12
-1291.4039348221911
 22
31.26814670195245
 32
0.0
 13
-1291.4039348221911
 23
31.26814670195245
 33
0.0
210
0.0
220
0.0
230
-1.0
  0
SOLID
  5
6DD7
  8
DEFPOINTS
  6
CONTINUOUS
 10
1275.2373998221899
 20
31.46565170195208
 30
0.0
 11
1275.2373998221899
 21
31.01982170195242
 31
0.0
 12
1277.852319822191
 22
31.01982170195242
 32
0.0
 13
1277.852319822191
 23
31.01982170195242
 33
0.0
  0
SOLID
  5
6DD8
  8
DEFPOINTS
  6
CONTINUOUS
 10
-1275.2373998221899
 20
31.46565170195208
 30
0.0
 11
-1277.852319822191
 21
31.46565170195208
 31
0.0
 12
-1277.852319822191
 22
31.01982170195242
 32
0.0
 13
-1277.852319822191
 23
31.01982170195242
 33
0.0
210
0.0
220
0.0
230
-1.0
  0
SOLID
  5
6DD9
  8
DEFPOINTS
  6
CONTINUOUS
 10
1273.271589822192
 20
31.46565170195208
 30
0.0
 11
1273.271589822192
 21
31.01982170195242
 31
0.0
 12
1275.0156398221909
 22
31.01982170195242
 32
0.0
 13
1275.0156398221909
 23
31.01982170195242
 33
0.0
210
0.0
220
0.0
230
1.0
  0
SOLID
  5
6DDA
  8
DEFPOINTS
  6
CONTINUOUS
 10
-1273.271589822192
 20
31.46565170195208
 30
0.0
 11
-1275.0156398221909
 21
31.46565170195208
 31
0.0
 12
-1275.0156398221909
 22
31.01982170195242
 32
0.0
 13
-1275.0156398221909
 23
31.01982170195242
 33
0.0
210
0.0
220
0.0
230
-1.0
  0
SOLID
  5
6DDB
  8
DEFPOINTS
  6
CONTINUOUS
 10
1262.1685996601909
 20
31.46565170195208
 30
0.0
 11
1262.1685996601921
 21
31.01982170195242
 31
0.0
 12
1265.07457966019
 22
31.01982170195242
 32
0.0
 13
1265.07457966019
 23
31.01982170195242
 33
0.0
210
0.0
220
0.0
230
1.0
  0
SOLID
  5
6DDC
  8
DEFPOINTS
  6
CONTINUOUS
 10
-1262.1685996601909
 20
31.46565170195208
 30
0.0
 11
-1265.07457966019
 21
31.46565170195208
 31
0.0
 12
-1265.07457966019
 22
31.01982170195242
 32
0.0
 13
-1265.07457966019
 23
31.01982170195242
 33
0.0
210
0.0
220
0.0
230
-1.0
  0
SOLID
  5
6DDD
  8
DEFPOINTS
  6
CONTINUOUS
 10
1257.0242048221919
 20
32.128621701951943
 30
0.0
 11
1257.02466222219
 21
30.934351701952441
 31
0.0
 12
1258.3120298221911
 22
30.934351701952441
 32
0.0
 13
1258.3120298221911
 23
30.934351701952441
 33
0.0
210
0.0
220
0.0
230
1.0
  0
SOLID
  5
6DDE
  8
DEFPOINTS
  6
CONTINUOUS
 10
-1257.0242048221919
 20
32.128621701951943
 30
0.0
 11
-1258.3120298221911
 21
32.128621701951943
 31
0.0
 12
-1258.3120298221911
 22
30.934351701952441
 32
0.0
 13
-1258.3120298221911
 23
30.934351701952441
 33
0.0
210
0.0
220
0.0
230
-1.0
  0
SOLID
  5
6DDF
  8
DEFPOINTS
  6
CONTINUOUS
 10
1257.02466222219
 20
30.934351701952441
 30
0.0
 11
1256.576522222193
 21
30.918181701952111
 31
0.0
 12
1258.3120298221911
 22
30.918181701952111
 32
0.0
 13
1258.3120298221911
 23
30.918181701952111
 33
0.0
210
0.0
220
0.0
230
1.0
  0
SOLID
  5
6DE0
  8
DEFPOINTS
  6
CONTINUOUS
 10
-1257.02466222219
 20
30.934351701952441
 30
0.0
 11
-1258.3120298221911
 21
30.934351701952441
 31
0.0
 12
-1258.3120298221911
 22
30.918181701952111
 32
0.0
 13
-1258.3120298221911
 23
30.918181701952111
 33
0.0
210
0.0
220
0.0
230
-1.0
  0
SOLID
  5
6DE1
  8
DEFPOINTS
  6
CONTINUOUS
 10
1284.698004822191
 20
31.01982170195242
 30
0.0
 11
1284.698004822191
 21
30.594781701952339
 31
0.0
 12
1291.4039348221911
 22
30.594781701952339
 32
0.0
 13
1291.4039348221911
 23
30.594781701952339
 33
0.0
  0
SOLID
  5
6DE2
  8
DEFPOINTS
  6
CONTINUOUS
 10
-1284.698004822191
 20
31.01982170195242
 30
0.0
 11
-1291.4039348221911
 21
31.01982170195242
 31
0.0
 12
-1291.4039348221911
 22
30.594781701952339
 32
0.0
 13
-1291.4039348221911
 23
30.594781701952339
 33
0.0
210
0.0
220
0.0
230
-1.0
  0
SOLID
  5
6DE3
  8
DEFPOINTS
  6
CONTINUOUS
 10
1263.1087696601901
 20
31.01982170195242
 30
0.0
 11
1262.7502195296879
 21
30.55782170195198
 31
0.0
 12
1265.0837948221899
 22
30.55782170195198
 32
0.0
 13
1265.0837948221899
 23
30.55782170195198
 33
0.0
210
0.0
220
0.0
230
1.0
  0
SOLID
  5
6DE4
  8
DEFPOINTS
  6
CONTINUOUS
 10
-1263.1087696601901
 20
31.01982170195242
 30
0.0
 11
-1264.356169660191
 21
31.01982170195242
 31
0.0
 12
-1265.0837948221899
 22
30.55782170195198
 32
0.0
 13
-1265.0837948221899
 23
30.55782170195198
 33
0.0
210
0.0
220
0.0
230
-1.0
  0
SOLID
  5
6DE5
  8
DEFPOINTS
  6
CONTINUOUS
 10
1276.7735498221909
 20
31.01982170195242
 30
0.0
 11
1276.7735498221909
 21
30.53934170195225
 31
0.0
 12
1277.852319822191
 22
30.53934170195225
 32
0.0
 13
1277.852319822191
 23
30.53934170195225
 33
0.0
210
0.0
220
0.0
230
1.0
  0
SOLID
  5
6DE6
  8
DEFPOINTS
  6
CONTINUOUS
 10
-1276.7735498221909
 20
31.01982170195242
 30
0.0
 11
-1277.852319822191
 21
31.01982170195242
 31
0.0
 12
-1277.852319822191
 22
30.53934170195225
 32
0.0
 13
-1277.852319822191
 23
30.53934170195225
 33
0.0
210
0.0
220
0.0
230
-1.0
  0
SOLID
  5
6DE7
  8
DEFPOINTS
  6
CONTINUOUS
 10
1275.2373998221899
 20
31.01982170195242
 30
0.0
 11
1275.2373998221899
 21
30.53934170195225
 31
0.0
 12
1276.348509822192
 22
30.53934170195225
 32
0.0
 13
1276.348509822192
 23
30.53934170195225
 33
0.0
210
0.0
220
0.0
230
1.0
  0
SOLID
  5
6DE8
  8
DEFPOINTS
  6
CONTINUOUS
 10
-1275.2373998221899
 20
31.01982170195242
 30
0.0
 11
-1276.3485098221911
 21
31.01982170195242
 31
0.0
 12
-1276.348509822192
 22
30.53934170195225
 32
0.0
 13
-1276.348509822192
 23
30.53934170195225
 33
0.0
210
0.0
220
0.0
230
-1.0
  0
SOLID
  5
6DE9
  8
DEFPOINTS
  6
CONTINUOUS
 10
1252.854654822193
 20
32.128621701951943
 30
0.0
 11
1252.8546548221909
 21
30.53934170195225
 31
0.0
 12
1253.986554822191
 22
30.53934170195225
 32
0.0
 13
1253.986554822191
 23
30.53934170195225
 33
0.0
210
0.0
220
0.0
230
1.0
  0
SOLID
  5
6DEA
  8
DEFPOINTS
  6
CONTINUOUS
 10
-1252.854654822193
 20
32.128621701951943
 30
0.0
 11
-1253.986554822191
 21
32.128621701951943
 31
0.0
 12
-1253.986554822191
 22
30.53934170195225
 32
0.0
 13
-1253.986554822191
 23
30.53934170195225
 33
0.0
210
0.0
220
0.0
230
-1.0
  0
SOLID
  5
6DEB
  8
DEFPOINTS
  6
CONTINUOUS
 10
1251.191454822191
 20
32.128621701951943
 30
0.0
 11
1251.191454822191
 21
30.53934170195225
 31
0.0
 12
1252.3441448221899
 22
30.53934170195225
 32
0.0
 13
1252.3441448221899
 23
30.53934170195225
 33
0.0
210
0.0
220
0.0
230
1.0
  0
SOLID
  5
6DEC
  8
DEFPOINTS
  6
CONTINUOUS
 10
-1251.191454822191
 20
32.128621701951943
 30
0.0
 11
-1252.3441448221899
 21
32.128621701951943
 31
0.0
 12
-1252.3441448221899
 22
30.53934170195225
 32
0.0
 13
-1252.3441448221899
 23
30.53934170195225
 33
0.0
210
0.0
220
0.0
230
-1.0
  0
SOLID
  5
6DED
  8
DEFPOINTS
  6
CONTINUOUS
 10
1256.576522222193
 20
30.918181701952111
 30
0.0
 11
1256.693874822193
 21
30.45387170195227
 31
0.0
 12
1258.3120298221911
 22
30.45387170195227
 32
0.0
 13
1258.3120298221911
 23
30.45387170195227
 33
0.0
  0
SOLID
  5
6DEE
  8
DEFPOINTS
  6
CONTINUOUS
 10
-1256.576522222193
 20
30.918181701952111
 30
0.0
 11
-1258.3120298221911
 21
30.918181701952111
 31
0.0
 12
-1258.3120298221911
 22
30.45387170195227
 32
0.0
 13
-1258.3120298221911
 23
30.45387170195227
 33
0.0
210
0.0
220
0.0
230
-1.0
  0
SOLID
  5
6DEF
  8
DEFPOINTS
  6
CONTINUOUS
 10
1255.05610966019
 20
32.128621701951943
 30
0.0
 11
1254.2637548221919
 21
30.45387170195227
 31
0.0
 12
1255.705194822189
 22
30.45387170195227
 32
0.0
 13
1255.705194822189
 23
30.45387170195227
 33
0.0
210
0.0
220
0.0
230
1.0
  0
SOLID
  5
6DF0
  8
DEFPOINTS
  6
CONTINUOUS
 10
-1255.05610966019
 20
32.128621701951943
 30
0.0
 11
-1256.4975496601901
 21
32.128621701951943
 31
0.0
 12
-1255.705194822189
 22
30.45387170195227
 32
0.0
 13
-1255.705194822189
 23
30.45387170195227
 33
0.0
210
0.0
220
0.0
230
-1.0
  0
SOLID
  5
6DF1
  8
DEFPOINTS
  6
CONTINUOUS
 10
1287.37067482219
 20
30.594781701952339
 30
0.0
 11
1287.37067482219
 21
30.18244670195191
 31
0.0
 12
1288.6527248221901
 22
30.18244670195191
 32
0.0
 13
1288.6527248221901
 23
30.18244670195191
 33
0.0
  0
SOLID
  5
6DF2
  8
DEFPOINTS
  6
CONTINUOUS
 10
-1287.37067482219
 20
30.594781701952339
 30
0.0
 11
-1288.6527248221901
 21
30.594781701952339
 31
0.0
 12
-1288.6527248221901
 22
30.18244670195191
 32
0.0
 13
-1288.6527248221901
 23
30.18244670195191
 33
0.0
210
0.0
220
0.0
230
-1.0
  0
SOLID
  5
6DF3
  8
DEFPOINTS
  6
CONTINUOUS
 10
1275.2373998221899
 20
30.53934170195225
 30
0.0
 11
1275.2373998221899
 21
30.061171701952389
 31
0.0
 12
1277.852319822191
 22
30.061171701952389
 32
0.0
 13
1277.852319822191
 23
30.061171701952389
 33
0.0
210
0.0
220
0.0
230
1.0
  0
SOLID
  5
6DF4
  8
DEFPOINTS
  6
CONTINUOUS
 10
-1275.2373998221899
 20
30.53934170195225
 30
0.0
 11
-1277.852319822191
 21
30.53934170195225
 31
0.0
 12
-1277.852319822191
 22
30.061171701952389
 32
0.0
 13
-1277.852319822191
 23
30.061171701952389
 33
0.0
210
0.0
220
0.0
230
-1.0
  0
SOLID
  5
6DF5
  8
DEFPOINTS
  6
CONTINUOUS
 10
1251.191454822191
 20
30.53934170195225
 30
0.0
 11
1251.191454822191
 21
30.061171701952389
 31
0.0
 12
1253.986554822191
 22
30.061171701952389
 32
0.0
 13
1253.986554822191
 23
30.061171701952389
 33
0.0
210
0.0
220
0.0
230
1.0
  0
SOLID
  5
6DF6
  8
DEFPOINTS
  6
CONTINUOUS
 10
-1251.191454822191
 20
30.53934170195225
 30
0.0
 11
-1253.986554822191
 21
30.53934170195225
 31
0.0
 12
-1253.986554822191
 22
30.061171701952389
 32
0.0
 13
-1253.986554822191
 23
30.061171701952389
 33
0.0
210
0.0
220
0.0
230
-1.0
  0
SOLID
  5
6DF7
  8
DEFPOINTS
  6
CONTINUOUS
 10
1262.7502195296879
 20
30.55782170195198
 30
0.0
 11
1262.18012482219
 21
29.823241701952611
 31
0.0
 12
1265.0843629333281
 22
29.823241701952611
 32
0.0
 13
1265.0843629333281
 23
29.823241701952611
 33
0.0
210
0.0
220
0.0
230
1.0
  0
SOLID
  5
6DF8
  8
DEFPOINTS
  6
CONTINUOUS
 10
-1262.7502195296879
 20
30.55782170195198
 30
0.0
 11
-1265.0837948221899
 21
30.55782170195198
 31
0.0
 12
-1265.0843629333281
 22
29.823241701952611
 32
0.0
 13
-1265.0843629333281
 23
29.823241701952611
 33
0.0
210
0.0
220
0.0
230
-1.0
  0
SOLID
  5
6DF9
  8
DEFPOINTS
  6
CONTINUOUS
 10
1284.425327412192
 20
30.18244670195191
 30
0.0
 11
1284.425327412192
 21
29.759716701951682
 31
0.0
 12
1291.60952482219
 22
29.759716701951682
 32
0.0
 13
1291.60952482219
 23
29.759716701951682
 33
0.0
210
0.0
220
0.0
230
1.0
  0
SOLID
  5
6DFA
  8
DEFPOINTS
  6
CONTINUOUS
 10
-1284.425327412192
 20
30.18244670195191
 30
0.0
 11
-1291.60952482219
 21
30.18244670195191
 31
0.0
 12
-1291.60952482219
 22
29.759716701951682
 32
0.0
 13
-1291.60952482219
 23
29.759716701951682
 33
0.0
210
0.0
220
0.0
230
-1.0
  0
SOLID
  5
6DFB
  8
DEFPOINTS
  6
CONTINUOUS
 10
1262.18012482219
 20
29.823241701952611
 30
0.0
 11
1262.1801985467091
 21
29.676684684825432
 31
0.0
 12
1265.0844762779241
 22
29.676684684825432
 32
0.0
 13
1265.0844762779241
 23
29.676684684825432
 33
0.0
210
0.0
220
0.0
230
1.0
  0
SOLID
  5
6DFC
  8
DEFPOINTS
  6
CONTINUOUS
 10
-1262.18012482219
 20
29.823241701952611
 30
0.0
 11
-1265.0843629333281
 21
29.823241701952611
 31
0.0
 12
-1265.0844762779241
 22
29.676684684825432
 32
0.0
 13
-1265.0844762779241
 23
29.676684684825432
 33
0.0
210
0.0
220
0.0
230
-1.0
  0
SOLID
  5
6DFD
  8
DEFPOINTS
  6
CONTINUOUS
 10
1276.7735498221909
 20
30.061171701952389
 30
0.0
 11
1276.7735498221909
 21
29.601481701952249
 31
0.0
 12
1277.852319822191
 22
29.601481701952249
 32
0.0
 13
1277.852319822191
 23
29.601481701952249
 33
0.0
  0
SOLID
  5
6DFE
  8
DEFPOINTS
  6
CONTINUOUS
 10
-1276.7735498221909
 20
30.061171701952389
 30
0.0
 11
-1277.852319822191
 21
30.061171701952389
 31
0.0
 12
-1277.852319822191
 22
29.601481701952249
 32
0.0
 13
-1277.852319822191
 23
29.601481701952249
 33
0.0
210
0.0
220
0.0
230
-1.0
  0
SOLID
  5
6DFF
  8
DEFPOINTS
  6
CONTINUOUS
 10
1275.2373998221899
 20
30.061171701952389
 30
0.0
 11
1275.2373998221899
 21
29.601481701952249
 31
0.0
 12
1276.3485098221911
 22
29.601481701952249
 32
0.0
 13
1276.3485098221911
 23
29.601481701952249
 33
0.0
210
0.0
220
0.0
230
1.0
  0
SOLID
  5
6E00
  8
DEFPOINTS
  6
CONTINUOUS
 10
-1275.2373998221899
 20
30.061171701952389
 30
0.0
 11
-1276.348509822189
 21
30.061171701952389
 31
0.0
 12
-1276.3485098221911
 22
29.601481701952249
 32
0.0
 13
-1276.3485098221911
 23
29.601481701952249
 33
0.0
210
0.0
220
0.0
230
-1.0
  0
SOLID
  5
6E01
  8
DEFPOINTS
  6
CONTINUOUS
 10
1254.2637548221901
 20
30.061171701952389
 30
0.0
 11
1254.2637548221901
 21
29.5991717019524
 31
0.0
 12
1258.3120298221911
 22
29.5991717019524
 32
0.0
 13
1258.3120298221911
 23
29.5991717019524
 33
0.0
  0
SOLID
  5
6E02
  8
DEFPOINTS
  6
CONTINUOUS
 10
-1254.2637548221901
 20
30.061171701952389
 30
0.0
 11
-1258.3120298221911
 21
30.061171701952389
 31
0.0
 12
-1258.3120298221911
 22
29.5991717019524
 32
0.0
 13
-1258.3120298221911
 23
29.5991717019524
 33
0.0
210
0.0
220
0.0
230
-1.0
  0
SOLID
  5
6E03
  8
DEFPOINTS
  6
CONTINUOUS
 10
-1265.062426821094
 20
29.228252132768372
 30
0.0
 11
-1265.0848230877029
 21
29.228252132768372
 31
0.0
 12
-1265.0848340908631
 22
29.214024809176859
 32
0.0
 13
-1265.0848340908631
 23
29.214024809176859
 33
0.0
210
0.0
220
0.0
230
-1.0
  0
SOLID
  5
6E04
  8
DEFPOINTS
  6
CONTINUOUS
 10
1264.356169660191
 20
29.676684684825432
 30
0.0
 11
1265.062426821094
 21
29.228252132768372
 31
0.0
 12
1265.0848230877029
 22
29.228252132768372
 32
0.0
 13
1265.0848230877029
 23
29.228252132768372
 33
0.0
210
0.0
220
0.0
230
1.0
  0
SOLID
  5
6E05
  8
DEFPOINTS
  6
CONTINUOUS
 10
-1264.356169660191
 20
29.676684684825432
 30
0.0
 11
-1265.0844762779241
 21
29.676684684825432
 31
0.0
 12
-1265.0848230877029
 22
29.228252132768372
 32
0.0
 13
-1265.0848230877029
 23
29.228252132768372
 33
0.0
210
0.0
220
0.0
230
-1.0
  0
SOLID
  5
6E06
  8
DEFPOINTS
  6
CONTINUOUS
 10
1262.1801985467091
 20
29.676684684825432
 30
0.0
 11
1262.1804241276809
 21
29.228252132768372
 31
0.0
 12
1264.356169660191
 22
29.228252132768372
 32
0.0
 13
1264.356169660191
 23
29.228252132768372
 33
0.0
210
0.0
220
0.0
230
1.0
  0
SOLID
  5
6E07
  8
DEFPOINTS
  6
CONTINUOUS
 10
-1262.1801985467091
 20
29.676684684825432
 30
0.0
 11
-1264.356169660191
 21
29.676684684825432
 31
0.0
 12
-1264.356169660191
 22
29.228252132768372
 32
0.0
 13
-1264.356169660191
 23
29.228252132768372
 33
0.0
210
0.0
220
0.0
230
-1.0
  0
SOLID
  5
6E08
  8
DEFPOINTS
  6
CONTINUOUS
 10
1263.108769660189
 20
29.228252132768372
 30
0.0
 11
1263.108769660189
 21
29.214024809176859
 31
0.0
 12
1264.356169660191
 22
29.214024809176859
 32
0.0
 13
1264.356169660191
 23
29.214024809176859
 33
0.0
  0
SOLID
  5
6E09
  8
DEFPOINTS
  6
CONTINUOUS
 10
-1263.108769660189
 20
29.228252132768372
 30
0.0
 11
-1264.356169660191
 21
29.228252132768372
 31
0.0
 12
-1264.356169660191
 22
29.214024809176859
 32
0.0
 13
-1264.356169660191
 23
29.214024809176859
 33
0.0
210
0.0
220
0.0
230
-1.0
  0
SOLID
  5
6E0A
  8
DEFPOINTS
  6
CONTINUOUS
 10
1262.1804241276809
 20
29.228252132768372
 30
0.0
 11
1262.18043128464
 21
29.214024809176859
 31
0.0
 12
1263.0977280828261
 22
29.214024809176859
 32
0.0
 13
1263.0977280828261
 23
29.214024809176859
 33
0.0
210
0.0
220
0.0
230
1.0
  0
SOLID
  5
6E0B
  8
DEFPOINTS
  6
CONTINUOUS
 10
-1262.1804241276809
 20
29.228252132768372
 30
0.0
 11
-1263.108769660189
 21
29.228252132768372
 31
0.0
 12
-1263.0977280828261
 22
29.214024809176859
 32
0.0
 13
-1263.0977280828261
 23
29.214024809176859
 33
0.0
210
0.0
220
0.0
230
-1.0
  0
SOLID
  5
6E0C
  8
DEFPOINTS
  6
CONTINUOUS
 10
1278.023259822191
 20
32.567521701952053
 30
0.0
 11
1278.023259822191
 21
29.123311701951931
 31
0.0
 12
1279.0650698221909
 22
29.123311701951931
 32
0.0
 13
1279.0650698221909
 23
29.123311701951931
 33
0.0
210
0.0
220
0.0
230
1.0
  0
SOLID
  5
6E0D
  8
DEFPOINTS
  6
CONTINUOUS
 10
-1278.023259822191
 20
32.567521701952053
 30
0.0
 11
-1279.0650698221909
 21
32.567521701952053
 31
0.0
 12
-1279.0650698221909
 22
29.123311701951931
 32
0.0
 13
-1279.0650698221909
 23
29.123311701951931
 33
0.0
210
0.0
220
0.0
230
-1.0
  0
SOLID
  5
6E0E
  8
DEFPOINTS
  6
CONTINUOUS
 10
1275.2373998221899
 20
29.601481701952249
 30
0.0
 11
1275.2373998221899
 21
29.123311701951931
 31
0.0
 12
1277.852319822191
 22
29.123311701951931
 32
0.0
 13
1277.852319822191
 23
29.123311701951931
 33
0.0
210
0.0
220
0.0
230
1.0
  0
SOLID
  5
6E0F
  8
DEFPOINTS
  6
CONTINUOUS
 10
-1275.2373998221899
 20
29.601481701952249
 30
0.0
 11
-1277.852319822191
 21
29.601481701952249
 31
0.0
 12
-1277.852319822191
 22
29.123311701951931
 32
0.0
 13
-1277.852319822191
 23
29.123311701951931
 33
0.0
210
0.0
220
0.0
230
-1.0
  0
SOLID
  5
6E10
  8
DEFPOINTS
  6
CONTINUOUS
 10
1275.4672699601911
 20
29.123311701951931
 30
0.0
 11
1275.4593963978921
 21
29.109021431951991
 31
0.0
 12
1277.708800622564
 22
29.109021431951991
 32
0.0
 13
1277.708800622564
 23
29.109021431951991
 33
0.0
210
0.0
220
0.0
230
1.0
  0
SOLID
  5
6E11
  8
DEFPOINTS
  6
CONTINUOUS
 10
-1275.4672699601911
 20
29.123311701951931
 30
0.0
 11
-1277.699386854192
 21
29.123311701951931
 31
0.0
 12
-1277.708800622564
 22
29.109021431951991
 32
0.0
 13
-1277.708800622564
 23
29.109021431951991
 33
0.0
210
0.0
220
0.0
230
-1.0
  0
SOLID
  5
6E12
  8
DEFPOINTS
  6
CONTINUOUS
 10
1284.4253274121911
 20
29.42592170195212
 30
0.0
 11
1284.4253274121911
 21
29.021671701952531
 31
0.0
 12
1291.60952482219
 22
29.021671701952531
 32
0.0
 13
1291.60952482219
 23
29.021671701952531
 33
0.0
  0
SOLID
  5
6E13
  8
DEFPOINTS
  6
CONTINUOUS
 10
-1284.4253274121911
 20
29.42592170195212
 30
0.0
 11
-1291.60952482219
 21
29.42592170195212
 31
0.0
 12
-1291.60952482219
 22
29.021671701952531
 32
0.0
 13
-1291.60952482219
 23
29.021671701952531
 33
0.0
210
0.0
220
0.0
230
-1.0
  0
SOLID
  5
6E14
  8
DEFPOINTS
  6
CONTINUOUS
 10
1279.3499973601899
 20
32.567521701952053
 30
0.0
 11
1279.3499973601899
 21
28.501921701951691
 31
0.0
 12
1280.4611073601909
 22
28.501921701951691
 32
0.0
 13
1280.4611073601909
 23
28.501921701951691
 33
0.0
210
0.0
220
0.0
230
1.0
  0
SOLID
  5
6E15
  8
DEFPOINTS
  6
CONTINUOUS
 10
-1279.3499973601899
 20
32.567521701952053
 30
0.0
 11
-1280.461107360192
 21
32.567521701952053
 31
0.0
 12
-1280.4611073601909
 22
28.501921701951691
 32
0.0
 13
-1280.4611073601909
 23
28.501921701951691
 33
0.0
210
0.0
220
0.0
230
-1.0
  0
SOLID
  5
6E16
  8
DEFPOINTS
  6
CONTINUOUS
 10
1268.012899660192
 20
32.128621701951943
 30
0.0
 11
1268.01289966019
 21
28.501921701951691
 31
0.0
 12
1269.3457696601911
 22
28.501921701951691
 32
0.0
 13
1269.3457696601911
 23
28.501921701951691
 33
0.0
210
0.0
220
0.0
230
1.0
  0
SOLID
  5
6E17
  8
DEFPOINTS
  6
CONTINUOUS
 10
-1268.012899660192
 20
32.128621701951943
 30
0.0
 11
-1269.3457696601911
 21
32.128621701951943
 31
0.0
 12
-1269.3457696601911
 22
28.501921701951691
 32
0.0
 13
-1269.3457696601911
 23
28.501921701951691
 33
0.0
210
0.0
220
0.0
230
-1.0
  0
SOLID
  5
6E18
  8
DEFPOINTS
  6
CONTINUOUS
 10
1265.3309896601911
 20
32.128621701951943
 30
0.0
 11
1265.3309896601911
 21
28.501921701951691
 31
0.0
 12
1266.6292096601919
 22
28.501921701951691
 32
0.0
 13
1266.6292096601919
 23
28.501921701951691
 33
0.0
210
0.0
220
0.0
230
1.0
  0
SOLID
  5
6E19
  8
DEFPOINTS
  6
CONTINUOUS
 10
-1265.3309896601911
 20
32.128621701951943
 30
0.0
 11
-1266.629209660191
 21
32.128621701951943
 31
0.0
 12
-1266.6292096601919
 22
28.501921701951691
 32
0.0
 13
-1266.6292096601919
 23
28.501921701951691
 33
0.0
210
0.0
220
0.0
230
-1.0
  0
SOLID
  5
6E1A
  8
DEFPOINTS
  6
CONTINUOUS
 10
1257.0242048221919
 20
29.5991717019524
 30
0.0
 11
1257.0242048221919
 21
28.501921701951691
 31
0.0
 12
1258.3120298221911
 22
28.501921701951691
 32
0.0
 13
1258.3120298221911
 23
28.501921701951691
 33
0.0
210
0.0
220
0.0
230
1.0
  0
SOLID
  5
6E1B
  8
DEFPOINTS
  6
CONTINUOUS
 10
-1257.0242048221919
 20
29.5991717019524
 30
0.0
 11
-1258.3120298221911
 21
29.5991717019524
 31
0.0
 12
-1258.3120298221911
 22
28.501921701951691
 32
0.0
 13
-1258.3120298221911
 23
28.501921701951691
 33
0.0
210
0.0
220
0.0
230
-1.0
  0
SOLID
  5
6E1C
  8
DEFPOINTS
  6
CONTINUOUS
 10
1254.2637548221901
 20
29.5991717019524
 30
0.0
 11
1254.2637548221901
 21
28.501921701951691
 31
0.0
 12
1255.5862298221921
 22
28.501921701951691
 32
0.0
 13
1255.5862298221921
 23
28.501921701951691
 33
0.0
210
0.0
220
0.0
230
1.0
  0
SOLID
  5
6E1D
  8
DEFPOINTS
  6
CONTINUOUS
 10
-1254.2637548221901
 20
29.5991717019524
 30
0.0
 11
-1255.5862298221909
 21
29.5991717019524
 31
0.0
 12
-1255.5862298221921
 22
28.501921701951691
 32
0.0
 13
-1255.5862298221921
 23
28.501921701951691
 33
0.0
210
0.0
220
0.0
230
-1.0
  0
SOLID
  5
6E1E
  8
DEFPOINTS
  6
CONTINUOUS
 10
1252.8546548221909
 20
30.061171701952389
 30
0.0
 11
1252.8546548221909
 21
28.501921701951691
 31
0.0
 12
1253.986554822191
 22
28.501921701951691
 32
0.0
 13
1253.986554822191
 23
28.501921701951691
 33
0.0
210
0.0
220
0.0
230
1.0
  0
SOLID
  5
6E1F
  8
DEFPOINTS
  6
CONTINUOUS
 10
-1252.8546548221909
 20
30.061171701952389
 30
0.0
 11
-1253.986554822191
 21
30.061171701952389
 31
0.0
 12
-1253.986554822191
 22
28.501921701951691
 32
0.0
 13
-1253.986554822191
 23
28.501921701951691
 33
0.0
210
0.0
220
0.0
230
-1.0
  0
SOLID
  5
6E20
  8
DEFPOINTS
  6
CONTINUOUS
 10
1251.191454822191
 20
30.061171701952389
 30
0.0
 11
1251.191454822191
 21
28.501921701951691
 31
0.0
 12
1252.3441448221911
 22
28.501921701951691
 32
0.0
 13
1252.3441448221911
 23
28.501921701951691
 33
0.0
210
0.0
220
0.0
230
1.0
  0
SOLID
  5
6E21
  8
DEFPOINTS
  6
CONTINUOUS
 10
-1251.191454822191
 20
30.061171701952389
 30
0.0
 11
-1252.3441448221911
 21
30.061171701952389
 31
0.0
 12
-1252.3441448221911
 22
28.501921701951691
 32
0.0
 13
-1252.3441448221911
 23
28.501921701951691
 33
0.0
210
0.0
220
0.0
230
-1.0
  0
SOLID
  5
6E22
  8
DEFPOINTS
  6
CONTINUOUS
 10
-1262.180833079429
 20
28.415296701952229
 30
0.0
 11
-1262.477849148416
 21
28.415296701952229
 31
0.0
 12
-1262.181025475393
 22
28.032832647484149
 32
0.0
 13
-1262.181025475393
 23
28.032832647484149
 33
0.0
210
0.0
220
0.0
230
-1.0
  0
SOLID
  5
6E23
  8
DEFPOINTS
  6
CONTINUOUS
 10
1290.327474822192
 20
29.021671701952531
 30
0.0
 11
1290.32747482219
 21
28.415296701952229
 31
0.0
 12
1291.6095248221909
 22
28.415296701952229
 32
0.0
 13
1291.6095248221909
 23
28.415296701952229
 33
0.0
210
0.0
220
0.0
230
1.0
  0
SOLID
  5
6E24
  8
DEFPOINTS
  6
CONTINUOUS
 10
-1290.327474822192
 20
29.021671701952531
 30
0.0
 11
-1291.60952482219
 21
29.021671701952531
 31
0.0
 12
-1291.6095248221909
 22
28.415296701952229
 32
0.0
 13
-1291.6095248221909
 23
28.415296701952229
 33
0.0
210
0.0
220
0.0
230
-1.0
  0
SOLID
  5
6E25
  8
DEFPOINTS
  6
CONTINUOUS
 10
1287.37067482219
 20
29.021671701952531
 30
0.0
 11
1287.3706748221921
 21
28.415296701952229
 31
0.0
 12
1288.6527248221901
 22
28.415296701952229
 32
0.0
 13
1288.6527248221901
 23
28.415296701952229
 33
0.0
210
0.0
220
0.0
230
1.0
  0
SOLID
  5
6E26
  8
DEFPOINTS
  6
CONTINUOUS
 10
-1287.37067482219
 20
29.021671701952531
 30
0.0
 11
-1288.6527248221901
 21
29.021671701952531
 31
0.0
 12
-1288.6527248221901
 22
28.415296701952229
 32
0.0
 13
-1288.6527248221901
 23
28.415296701952229
 33
0.0
210
0.0
220
0.0
230
-1.0
  0
SOLID
  5
6E27
  8
DEFPOINTS
  6
CONTINUOUS
 10
1284.4253274121911
 20
29.021671701952531
 30
0.0
 11
1284.4253274121911
 21
28.415296701952229
 31
0.0
 12
1285.714404822191
 22
28.415296701952229
 32
0.0
 13
1285.714404822191
 23
28.415296701952229
 33
0.0
210
0.0
220
0.0
230
1.0
  0
SOLID
  5
6E28
  8
DEFPOINTS
  6
CONTINUOUS
 10
-1284.4253274121911
 20
29.021671701952531
 30
0.0
 11
-1285.7144048221919
 21
29.021671701952531
 31
0.0
 12
-1285.714404822191
 22
28.415296701952229
 32
0.0
 13
-1285.714404822191
 23
28.415296701952229
 33
0.0
210
0.0
220
0.0
230
-1.0
  0
SOLID
  5
6E29
  8
DEFPOINTS
  6
CONTINUOUS
 10
1262.18043128464
 20
29.214024809176859
 30
0.0
 11
1262.180833079429
 21
28.415296701952229
 31
0.0
 12
1262.477849148416
 22
28.415296701952229
 32
0.0
 13
1262.477849148416
 23
28.415296701952229
 33
0.0
210
0.0
220
0.0
230
1.0
  0
SOLID
  5
6E2A
  8
DEFPOINTS
  6
CONTINUOUS
 10
-1262.18043128464
 20
29.214024809176859
 30
0.0
 11
-1263.0977280828261
 21
29.214024809176859
 31
0.0
 12
-1262.477849148416
 22
28.415296701952229
 32
0.0
 13
-1262.477849148416
 23
28.415296701952229
 33
0.0
210
0.0
220
0.0
230
-1.0
  0
SOLID
  5
6E2B
  8
DEFPOINTS
  6
CONTINUOUS
 10
1284.4253274121911
 20
28.415296701952229
 30
0.0
 11
1284.4253274121911
 21
28.016821701952271
 31
0.0
 12
1291.609524822192
 22
28.016821701952271
 32
0.0
 13
1291.609524822192
 23
28.016821701952271
 33
0.0
210
0.0
220
0.0
230
1.0
  0
SOLID
  5
6E2C
  8
DEFPOINTS
  6
CONTINUOUS
 10
-1284.4253274121911
 20
28.415296701952229
 30
0.0
 11
-1291.6095248221909
 21
28.415296701952229
 31
0.0
 12
-1291.609524822192
 22
28.016821701952271
 32
0.0
 13
-1291.609524822192
 23
28.016821701952271
 33
0.0
210
0.0
220
0.0
230
-1.0
  0
SOLID
  5
6E2D
  8
DEFPOINTS
  6
CONTINUOUS
 10
1278.8265263461919
 20
28.501921701951691
 30
0.0
 11
1278.999889954192
 21
28.016821701952271
 31
0.0
 12
1280.4611073601909
 22
28.016821701952271
 32
0.0
 13
1280.4611073601909
 23
28.016821701952271
 33
0.0
  0
SOLID
  5
6E2E
  8
DEFPOINTS
  6
CONTINUOUS
 10
-1278.8265263461919
 20
28.501921701951691
 30
0.0
 11
-1280.4611073601909
 21
28.501921701951691
 31
0.0
 12
-1280.4611073601909
 22
28.016821701952271
 32
0.0
 13
-1280.4611073601909
 23
28.016821701952271
 33
0.0
210
0.0
220
0.0
230
-1.0
  0
SOLID
  5
6E2F
  8
DEFPOINTS
  6
CONTINUOUS
 10
1276.557207360192
 20
29.109021431951991
 30
0.0
 11
1277.2766979821911
 21
28.016821701952271
 31
0.0
 12
1278.4282912461911
 22
28.016821701952271
 32
0.0
 13
1278.4282912461911
 23
28.016821701952271
 33
0.0
  0
SOLID
  5
6E30
  8
DEFPOINTS
  6
CONTINUOUS
 10
-1276.557207360192
 20
29.109021431951991
 30
0.0
 11
-1277.708800622564
 21
29.109021431951991
 31
0.0
 12
-1278.4282912461911
 22
28.016821701952271
 32
0.0
 13
-1278.4282912461911
 23
28.016821701952271
 33
0.0
210
0.0
220
0.0
230
-1.0
  0
SOLID
  5
6E31
  8
DEFPOINTS
  6
CONTINUOUS
 10
1275.4593963978921
 20
29.109021431951991
 30
0.0
 11
1274.8576231201901
 21
28.016821701952271
 31
0.0
 12
1275.955434083342
 22
28.016821701952271
 32
0.0
 13
1275.955434083342
 23
28.016821701952271
 33
0.0
210
0.0
220
0.0
230
1.0
  0
SOLID
  5
6E32
  8
DEFPOINTS
  6
CONTINUOUS
 10
-1275.4593963978921
 20
29.109021431951991
 30
0.0
 11
-1276.557207360192
 21
29.109021431951991
 31
0.0
 12
-1275.955434083342
 22
28.016821701952271
 32
0.0
 13
-1275.955434083342
 23
28.016821701952271
 33
0.0
210
0.0
220
0.0
230
-1.0
  0
SOLID
  5
6E33
  8
DEFPOINTS
  6
CONTINUOUS
 10
1273.870018346191
 20
30.23442170195267
 30
0.0
 11
1273.271589822192
 21
28.016821701952271
 31
0.0
 12
1274.417211296191
 22
28.016821701952271
 32
0.0
 13
1274.417211296191
 23
28.016821701952271
 33
0.0
210
0.0
220
0.0
230
1.0
  0
SOLID
  5
6E34
  8
DEFPOINTS
  6
CONTINUOUS
 10
-1273.870018346191
 20
30.23442170195267
 30
0.0
 11
-1275.01563982219
 21
30.23442170195267
 31
0.0
 12
-1274.417211296191
 22
28.016821701952271
 32
0.0
 13
-1274.417211296191
 23
28.016821701952271
 33
0.0
210
0.0
220
0.0
230
-1.0
  0
SOLID
  5
6E35
  8
DEFPOINTS
  6
CONTINUOUS
 10
1265.3309896601911
 20
28.501921701951691
 30
0.0
 11
1265.3309896601911
 21
28.016821701952271
 31
0.0
 12
1269.3457696601911
 22
28.016821701952271
 32
0.0
 13
1269.3457696601911
 23
28.016821701952271
 33
0.0
210
0.0
220
0.0
230
1.0
  0
SOLID
  5
6E36
  8
DEFPOINTS
  6
CONTINUOUS
 10
-1265.3309896601911
 20
28.501921701951691
 30
0.0
 11
-1269.3457696601911
 21
28.501921701951691
 31
0.0
 12
-1269.3457696601911
 22
28.016821701952271
 32
0.0
 13
-1269.3457696601911
 23
28.016821701952271
 33
0.0
210
0.0
220
0.0
230
-1.0
  0
SOLID
  5
6E37
  8
DEFPOINTS
  6
CONTINUOUS
 10
1263.108769660189
 20
29.214024809176859
 30
0.0
 11
1263.1087696601919
 21
28.016821701952271
 31
0.0
 12
1264.3561696601901
 22
28.016821701952271
 32
0.0
 13
1264.3561696601901
 23
28.016821701952271
 33
0.0
210
0.0
220
0.0
230
1.0
  0
SOLID
  5
6E38
  8
DEFPOINTS
  6
CONTINUOUS
 10
-1263.108769660189
 20
29.214024809176859
 30
0.0
 11
-1264.356169660191
 21
29.214024809176859
 31
0.0
 12
-1264.3561696601901
 22
28.016821701952271
 32
0.0
 13
-1264.3561696601901
 23
28.016821701952271
 33
0.0
210
0.0
220
0.0
230
-1.0
  0
SOLID
  5
6E39
  8
DEFPOINTS
  6
CONTINUOUS
 10
1254.2637548221901
 20
28.501921701951691
 30
0.0
 11
1254.2637548221901
 21
28.016821701952271
 31
0.0
 12
1258.3120298221911
 22
28.016821701952271
 32
0.0
 13
1258.3120298221911
 23
28.016821701952271
 33
0.0
210
0.0
220
0.0
230
1.0
  0
SOLID
  5
6E3A
  8
DEFPOINTS
  6
CONTINUOUS
 10
-1254.2637548221901
 20
28.501921701951691
 30
0.0
 11
-1258.3120298221911
 21
28.501921701951691
 31
0.0
 12
-1258.3120298221911
 22
28.016821701952271
 32
0.0
 13
-1258.3120298221911
 23
28.016821701952271
 33
0.0
210
0.0
220
0.0
230
-1.0
  0
SOLID
  5
6E3B
  8
DEFPOINTS
  6
CONTINUOUS
 10
1251.191454822191
 20
28.501921701951691
 30
0.0
 11
1251.191454822191
 21
28.016821701952271
 31
0.0
 12
1253.986554822191
 22
28.016821701952271
 32
0.0
 13
1253.986554822191
 23
28.016821701952271
 33
0.0
210
0.0
220
0.0
230
1.0
  0
SOLID
  5
6E3C
  8
DEFPOINTS
  6
CONTINUOUS
 10
-1251.191454822191
 20
28.501921701951691
 30
0.0
 11
-1253.986554822191
 21
28.501921701951691
 31
0.0
 12
-1253.986554822191
 22
28.016821701952271
 32
0.0
 13
-1253.986554822191
 23
28.016821701952271
 33
0.0
210
0.0
220
0.0
230
-1.0
  0
LINE
  5
6E3D
  8
DEFPOINTS
  6
CONTINUOUS
 10
1284.698004822191
 20
32.567521701952053
 30
0.0
 11
1284.698004822191
 21
32.128621701951943
 31
0.0
  0
LINE
  5
6E3E
  8
DEFPOINTS
  6
CONTINUOUS
 10
1291.403934822192
 20
32.567521701952053
 30
0.0
 11
1291.403934822192
 21
32.128621701951943
 31
0.0
  0
LINE
  5
6E3F
  8
DEFPOINTS
  6
CONTINUOUS
 10
1275.2373998221899
 20
32.567521701952053
 30
0.0
 11
1275.2373998221899
 21
32.128621701951943
 31
0.0
  0
LINE
  5
6E40
  8
DEFPOINTS
  6
CONTINUOUS
 10
1277.852319822191
 20
32.567521701952053
 30
0.0
 11
1277.852319822191
 21
32.128621701951943
 31
0.0
  0
LINE
  5
6E41
  8
DEFPOINTS
  6
CONTINUOUS
 10
1273.27158982219
 20
32.567521701952053
 30
0.0
 11
1273.271589822192
 21
32.128621701951943
 31
0.0
  0
LINE
  5
6E42
  8
DEFPOINTS
  6
CONTINUOUS
 10
1275.0156398221909
 20
32.567521701952053
 30
0.0
 11
1275.0156398221909
 21
32.128621701951943
 31
0.0
  0
LINE
  5
6E43
  8
DEFPOINTS
  6
CONTINUOUS
 10
1265.3309896601911
 20
32.567521701952053
 30
0.0
 11
1265.3309896601911
 21
32.128621701951943
 31
0.0
  0
LINE
  5
6E44
  8
DEFPOINTS
  6
CONTINUOUS
 10
1269.3457696601911
 20
32.567521701952053
 30
0.0
 11
1269.3457696601911
 21
32.128621701951943
 31
0.0
  0
LINE
  5
6E45
  8
DEFPOINTS
  6
CONTINUOUS
 10
1262.1685996601909
 20
32.567521701952053
 30
0.0
 11
1262.1685996601909
 21
32.128621701951943
 31
0.0
  0
LINE
  5
6E46
  8
DEFPOINTS
  6
CONTINUOUS
 10
1265.07457966019
 20
32.567521701952053
 30
0.0
 11
1265.0745796601909
 21
32.128621701951943
 31
0.0
  0
LINE
  5
6E47
  8
DEFPOINTS
  6
CONTINUOUS
 10
1254.2637548221901
 20
32.567521701952053
 30
0.0
 11
1254.2637548221901
 21
32.128621701951943
 31
0.0
  0
LINE
  5
6E48
  8
DEFPOINTS
  6
CONTINUOUS
 10
1258.3120298221911
 20
32.567521701952053
 30
0.0
 11
1258.3120298221911
 21
32.128621701951943
 31
0.0
  0
LINE
  5
6E49
  8
DEFPOINTS
  6
CONTINUOUS
 10
1251.191454822191
 20
32.567521701952053
 30
0.0
 11
1251.191454822191
 21
32.128621701951943
 31
0.0
  0
LINE
  5
6E4A
  8
DEFPOINTS
  6
CONTINUOUS
 10
1253.986554822191
 20
32.567521701952053
 30
0.0
 11
1253.986554822191
 21
32.128621701951943
 31
0.0
  0
LINE
  5
6E4B
  8
DEFPOINTS
  6
CONTINUOUS
 10
1290.0364148221911
 20
32.128621701951943
 30
0.0
 11
1290.0364148221911
 21
31.718596701952269
 31
0.0
  0
LINE
  5
6E4C
  8
DEFPOINTS
  6
CONTINUOUS
 10
1291.403934822192
 20
32.128621701951943
 30
0.0
 11
1291.4039348221911
 21
31.718596701952269
 31
0.0
  0
LINE
  5
6E4D
  8
DEFPOINTS
  6
CONTINUOUS
 10
1287.37067482219
 20
32.128621701951943
 30
0.0
 11
1287.37067482219
 21
31.718596701952269
 31
0.0
  0
LINE
  5
6E4E
  8
DEFPOINTS
  6
CONTINUOUS
 10
1288.6527248221901
 20
32.128621701951943
 30
0.0
 11
1288.6527248221921
 21
31.718596701952269
 31
0.0
  0
LINE
  5
6E4F
  8
DEFPOINTS
  6
CONTINUOUS
 10
1284.698004822191
 20
32.128621701951943
 30
0.0
 11
1284.698004822191
 21
31.718596701952269
 31
0.0
  0
LINE
  5
6E50
  8
DEFPOINTS
  6
CONTINUOUS
 10
1286.0562848221921
 20
32.128621701951943
 30
0.0
 11
1286.0562848221921
 21
31.718596701952269
 31
0.0
  0
LINE
  5
6E51
  8
DEFPOINTS
  6
CONTINUOUS
 10
1276.7735498221921
 20
32.128621701951943
 30
0.0
 11
1276.7735498221921
 21
31.46565170195208
 31
0.0
  0
LINE
  5
6E52
  8
DEFPOINTS
  6
CONTINUOUS
 10
1277.852319822191
 20
32.128621701951943
 30
0.0
 11
1277.852319822191
 21
31.46565170195208
 31
0.0
  0
LINE
  5
6E53
  8
DEFPOINTS
  6
CONTINUOUS
 10
1275.2373998221899
 20
32.128621701951943
 30
0.0
 11
1275.2373998221899
 21
31.46565170195208
 31
0.0
  0
LINE
  5
6E54
  8
DEFPOINTS
  6
CONTINUOUS
 10
1276.34850982219
 20
32.128621701951943
 30
0.0
 11
1276.348509822192
 21
31.46565170195208
 31
0.0
  0
LINE
  5
6E55
  8
DEFPOINTS
  6
CONTINUOUS
 10
1263.1087696601901
 20
32.128621701951943
 30
0.0
 11
1263.1087696601919
 21
31.46565170195208
 31
0.0
  0
LINE
  5
6E56
  8
DEFPOINTS
  6
CONTINUOUS
 10
1264.356169660191
 20
32.128621701951943
 30
0.0
 11
1264.356169660191
 21
31.46565170195208
 31
0.0
  0
LINE
  5
6E57
  8
DEFPOINTS
  6
CONTINUOUS
 10
1284.698004822191
 20
31.718596701952269
 30
0.0
 11
1284.698004822191
 21
31.26814670195245
 31
0.0
  0
LINE
  5
6E58
  8
DEFPOINTS
  6
CONTINUOUS
 10
1291.4039348221911
 20
31.718596701952269
 30
0.0
 11
1291.4039348221911
 21
31.26814670195245
 31
0.0
  0
LINE
  5
6E59
  8
DEFPOINTS
  6
CONTINUOUS
 10
1275.2373998221899
 20
31.46565170195208
 30
0.0
 11
1275.2373998221899
 21
31.01982170195242
 31
0.0
  0
LINE
  5
6E5A
  8
DEFPOINTS
  6
CONTINUOUS
 10
1277.852319822191
 20
31.46565170195208
 30
0.0
 11
1277.852319822191
 21
31.01982170195242
 31
0.0
  0
LINE
  5
6E5B
  8
DEFPOINTS
  6
CONTINUOUS
 10
1273.271589822192
 20
31.46565170195208
 30
0.0
 11
1273.271589822192
 21
31.01982170195242
 31
0.0
  0
LINE
  5
6E5C
  8
DEFPOINTS
  6
CONTINUOUS
 10
1275.0156398221909
 20
31.46565170195208
 30
0.0
 11
1275.0156398221909
 21
31.01982170195242
 31
0.0
  0
LINE
  5
6E5D
  8
DEFPOINTS
  6
CONTINUOUS
 10
1262.1685996601909
 20
31.46565170195208
 30
0.0
 11
1262.1685996601921
 21
31.01982170195242
 31
0.0
  0
LINE
  5
6E5E
  8
DEFPOINTS
  6
CONTINUOUS
 10
1265.07457966019
 20
31.46565170195208
 30
0.0
 11
1265.07457966019
 21
31.01982170195242
 31
0.0
  0
LINE
  5
6E5F
  8
DEFPOINTS
  6
CONTINUOUS
 10
1257.0242048221919
 20
32.128621701951943
 30
0.0
 11
1257.02466222219
 21
30.934351701952441
 31
0.0
  0
LINE
  5
6E60
  8
DEFPOINTS
  6
CONTINUOUS
 10
1258.3120298221911
 20
32.128621701951943
 30
0.0
 11
1258.3120298221911
 21
30.934351701952441
 31
0.0
  0
LINE
  5
6E61
  8
DEFPOINTS
  6
CONTINUOUS
 10
1257.02466222219
 20
30.934351701952441
 30
0.0
 11
1256.576522222193
 21
30.918181701952111
 31
0.0
  0
LINE
  5
6E62
  8
DEFPOINTS
  6
CONTINUOUS
 10
1258.3120298221911
 20
30.934351701952441
 30
0.0
 11
1258.3120298221911
 21
30.918181701952111
 31
0.0
  0
LINE
  5
6E63
  8
DEFPOINTS
  6
CONTINUOUS
 10
1284.698004822191
 20
31.01982170195242
 30
0.0
 11
1284.698004822191
 21
30.594781701952339
 31
0.0
  0
LINE
  5
6E64
  8
DEFPOINTS
  6
CONTINUOUS
 10
1291.4039348221911
 20
31.01982170195242
 30
0.0
 11
1291.4039348221911
 21
30.594781701952339
 31
0.0
  0
LINE
  5
6E65
  8
DEFPOINTS
  6
CONTINUOUS
 10
1263.1087696601901
 20
31.01982170195242
 30
0.0
 11
1262.7502195296879
 21
30.55782170195198
 31
0.0
  0
LINE
  5
6E66
  8
DEFPOINTS
  6
CONTINUOUS
 10
1264.356169660191
 20
31.01982170195242
 30
0.0
 11
1265.0837948221899
 21
30.55782170195198
 31
0.0
  0
LINE
  5
6E67
  8
DEFPOINTS
  6
CONTINUOUS
 10
1276.7735498221909
 20
31.01982170195242
 30
0.0
 11
1276.7735498221909
 21
30.53934170195225
 31
0.0
  0
LINE
  5
6E68
  8
DEFPOINTS
  6
CONTINUOUS
 10
1277.852319822191
 20
31.01982170195242
 30
0.0
 11
1277.852319822191
 21
30.53934170195225
 31
0.0
  0
LINE
  5
6E69
  8
DEFPOINTS
  6
CONTINUOUS
 10
1275.2373998221899
 20
31.01982170195242
 30
0.0
 11
1275.2373998221899
 21
30.53934170195225
 31
0.0
  0
LINE
  5
6E6A
  8
DEFPOINTS
  6
CONTINUOUS
 10
1276.3485098221911
 20
31.01982170195242
 30
0.0
 11
1276.348509822192
 21
30.53934170195225
 31
0.0
  0
LINE
  5
6E6B
  8
DEFPOINTS
  6
CONTINUOUS
 10
1252.854654822193
 20
32.128621701951943
 30
0.0
 11
1252.8546548221909
 21
30.53934170195225
 31
0.0
  0
LINE
  5
6E6C
  8
DEFPOINTS
  6
CONTINUOUS
 10
1253.986554822191
 20
32.128621701951943
 30
0.0
 11
1253.986554822191
 21
30.53934170195225
 31
0.0
  0
LINE
  5
6E6D
  8
DEFPOINTS
  6
CONTINUOUS
 10
1251.191454822191
 20
32.128621701951943
 30
0.0
 11
1251.191454822191
 21
30.53934170195225
 31
0.0
  0
LINE
  5
6E6E
  8
DEFPOINTS
  6
CONTINUOUS
 10
1252.3441448221899
 20
32.128621701951943
 30
0.0
 11
1252.3441448221899
 21
30.53934170195225
 31
0.0
  0
LINE
  5
6E6F
  8
DEFPOINTS
  6
CONTINUOUS
 10
1256.576522222193
 20
30.918181701952111
 30
0.0
 11
1256.693874822193
 21
30.45387170195227
 31
0.0
  0
LINE
  5
6E70
  8
DEFPOINTS
  6
CONTINUOUS
 10
1258.3120298221911
 20
30.918181701952111
 30
0.0
 11
1258.3120298221911
 21
30.45387170195227
 31
0.0
  0
LINE
  5
6E71
  8
DEFPOINTS
  6
CONTINUOUS
 10
1255.05610966019
 20
32.128621701951943
 30
0.0
 11
1254.2637548221919
 21
30.45387170195227
 31
0.0
  0
LINE
  5
6E72
  8
DEFPOINTS
  6
CONTINUOUS
 10
1256.4975496601901
 20
32.128621701951943
 30
0.0
 11
1255.705194822189
 21
30.45387170195227
 31
0.0
  0
LINE
  5
6E73
  8
DEFPOINTS
  6
CONTINUOUS
 10
1287.37067482219
 20
30.594781701952339
 30
0.0
 11
1287.37067482219
 21
30.18244670195191
 31
0.0
  0
LINE
  5
6E74
  8
DEFPOINTS
  6
CONTINUOUS
 10
1288.6527248221901
 20
30.594781701952339
 30
0.0
 11
1288.6527248221901
 21
30.18244670195191
 31
0.0
  0
LINE
  5
6E75
  8
DEFPOINTS
  6
CONTINUOUS
 10
1275.2373998221899
 20
30.53934170195225
 30
0.0
 11
1275.2373998221899
 21
30.061171701952389
 31
0.0
  0
LINE
  5
6E76
  8
DEFPOINTS
  6
CONTINUOUS
 10
1277.852319822191
 20
30.53934170195225
 30
0.0
 11
1277.852319822191
 21
30.061171701952389
 31
0.0
  0
LINE
  5
6E77
  8
DEFPOINTS
  6
CONTINUOUS
 10
1251.191454822191
 20
30.53934170195225
 30
0.0
 11
1251.191454822191
 21
30.061171701952389
 31
0.0
  0
LINE
  5
6E78
  8
DEFPOINTS
  6
CONTINUOUS
 10
1253.986554822191
 20
30.53934170195225
 30
0.0
 11
1253.986554822191
 21
30.061171701952389
 31
0.0
  0
LINE
  5
6E79
  8
DEFPOINTS
  6
CONTINUOUS
 10
1262.7502195296879
 20
30.55782170195198
 30
0.0
 11
1262.18012482219
 21
29.823241701952611
 31
0.0
  0
LINE
  5
6E7A
  8
DEFPOINTS
  6
CONTINUOUS
 10
1265.0837948221899
 20
30.55782170195198
 30
0.0
 11
1265.0843629333281
 21
29.823241701952611
 31
0.0
  0
LINE
  5
6E7B
  8
DEFPOINTS
  6
CONTINUOUS
 10
1284.425327412192
 20
30.18244670195191
 30
0.0
 11
1284.425327412192
 21
29.759716701951682
 31
0.0
  0
LINE
  5
6E7C
  8
DEFPOINTS
  6
CONTINUOUS
 10
1291.60952482219
 20
30.18244670195191
 30
0.0
 11
1291.60952482219
 21
29.759716701951682
 31
0.0
  0
LINE
  5
6E7D
  8
DEFPOINTS
  6
CONTINUOUS
 10
1262.18012482219
 20
29.823241701952611
 30
0.0
 11
1262.1801985467091
 21
29.676684684825432
 31
0.0
  0
LINE
  5
6E7E
  8
DEFPOINTS
  6
CONTINUOUS
 10
1265.0843629333281
 20
29.823241701952611
 30
0.0
 11
1265.0844762779241
 21
29.676684684825432
 31
0.0
  0
LINE
  5
6E7F
  8
DEFPOINTS
  6
CONTINUOUS
 10
1276.7735498221909
 20
30.061171701952389
 30
0.0
 11
1276.7735498221909
 21
29.601481701952249
 31
0.0
  0
LINE
  5
6E80
  8
DEFPOINTS
  6
CONTINUOUS
 10
1277.852319822191
 20
30.061171701952389
 30
0.0
 11
1277.852319822191
 21
29.601481701952249
 31
0.0
  0
LINE
  5
6E81
  8
DEFPOINTS
  6
CONTINUOUS
 10
1275.2373998221899
 20
30.061171701952389
 30
0.0
 11
1275.2373998221899
 21
29.601481701952249
 31
0.0
  0
LINE
  5
6E82
  8
DEFPOINTS
  6
CONTINUOUS
 10
1276.348509822189
 20
30.061171701952389
 30
0.0
 11
1276.3485098221911
 21
29.601481701952249
 31
0.0
  0
LINE
  5
6E83
  8
DEFPOINTS
  6
CONTINUOUS
 10
1254.2637548221901
 20
30.061171701952389
 30
0.0
 11
1254.2637548221901
 21
29.5991717019524
 31
0.0
  0
LINE
  5
6E84
  8
DEFPOINTS
  6
CONTINUOUS
 10
1258.3120298221911
 20
30.061171701952389
 30
0.0
 11
1258.3120298221911
 21
29.5991717019524
 31
0.0
  0
LINE
  5
6E85
  8
DEFPOINTS
  6
CONTINUOUS
 10
1265.0848230877029
 20
29.228252132768372
 30
0.0
 11
1265.0848340908631
 21
29.214024809176859
 31
0.0
  0
LINE
  5
6E86
  8
DEFPOINTS
  6
CONTINUOUS
 10
1265.0848340908631
 20
29.214024809176859
 30
0.0
 11
1265.062426821094
 21
29.228252132768372
 31
0.0
  0
LINE
  5
6E87
  8
DEFPOINTS
  6
CONTINUOUS
 10
1264.356169660191
 20
29.676684684825432
 30
0.0
 11
1265.062426821094
 21
29.228252132768372
 31
0.0
  0
LINE
  5
6E88
  8
DEFPOINTS
  6
CONTINUOUS
 10
1265.0844762779241
 20
29.676684684825432
 30
0.0
 11
1265.0848230877029
 21
29.228252132768372
 31
0.0
  0
LINE
  5
6E89
  8
DEFPOINTS
  6
CONTINUOUS
 10
1262.1801985467091
 20
29.676684684825432
 30
0.0
 11
1262.1804241276809
 21
29.228252132768372
 31
0.0
  0
LINE
  5
6E8A
  8
DEFPOINTS
  6
CONTINUOUS
 10
1264.356169660191
 20
29.676684684825432
 30
0.0
 11
1264.356169660191
 21
29.228252132768372
 31
0.0
  0
LINE
  5
6E8B
  8
DEFPOINTS
  6
CONTINUOUS
 10
1264.356169660191
 20
29.228252132768372
 30
0.0
 11
1264.356169660191
 21
29.214024809176859
 31
0.0
  0
LINE
  5
6E8C
  8
DEFPOINTS
  6
CONTINUOUS
 10
1262.1804241276809
 20
29.228252132768372
 30
0.0
 11
1262.18043128464
 21
29.214024809176859
 31
0.0
  0
LINE
  5
6E8D
  8
DEFPOINTS
  6
CONTINUOUS
 10
1278.023259822191
 20
32.567521701952053
 30
0.0
 11
1278.023259822191
 21
29.123311701951931
 31
0.0
  0
LINE
  5
6E8E
  8
DEFPOINTS
  6
CONTINUOUS
 10
1279.0650698221909
 20
32.567521701952053
 30
0.0
 11
1279.0650698221909
 21
29.123311701951931
 31
0.0
  0
LINE
  5
6E8F
  8
DEFPOINTS
  6
CONTINUOUS
 10
1275.2373998221899
 20
29.601481701952249
 30
0.0
 11
1275.2373998221899
 21
29.123311701951931
 31
0.0
  0
LINE
  5
6E90
  8
DEFPOINTS
  6
CONTINUOUS
 10
1277.852319822191
 20
29.601481701952249
 30
0.0
 11
1277.852319822191
 21
29.123311701951931
 31
0.0
  0
LINE
  5
6E91
  8
DEFPOINTS
  6
CONTINUOUS
 10
1275.4672699601911
 20
29.123311701951931
 30
0.0
 11
1275.4593963978921
 21
29.109021431951991
 31
0.0
  0
LINE
  5
6E92
  8
DEFPOINTS
  6
CONTINUOUS
 10
1277.699386854192
 20
29.123311701951931
 30
0.0
 11
1277.708800622564
 21
29.109021431951991
 31
0.0
  0
LINE
  5
6E93
  8
DEFPOINTS
  6
CONTINUOUS
 10
1284.4253274121911
 20
29.42592170195212
 30
0.0
 11
1284.4253274121911
 21
29.021671701952531
 31
0.0
  0
LINE
  5
6E94
  8
DEFPOINTS
  6
CONTINUOUS
 10
1291.60952482219
 20
29.42592170195212
 30
0.0
 11
1291.60952482219
 21
29.021671701952531
 31
0.0
  0
LINE
  5
6E95
  8
DEFPOINTS
  6
CONTINUOUS
 10
1279.3499973601899
 20
32.567521701952053
 30
0.0
 11
1279.3499973601899
 21
28.501921701951691
 31
0.0
  0
LINE
  5
6E96
  8
DEFPOINTS
  6
CONTINUOUS
 10
1280.461107360192
 20
32.567521701952053
 30
0.0
 11
1280.4611073601909
 21
28.501921701951691
 31
0.0
  0
LINE
  5
6E97
  8
DEFPOINTS
  6
CONTINUOUS
 10
1268.012899660192
 20
32.128621701951943
 30
0.0
 11
1268.01289966019
 21
28.501921701951691
 31
0.0
  0
LINE
  5
6E98
  8
DEFPOINTS
  6
CONTINUOUS
 10
1269.3457696601911
 20
32.128621701951943
 30
0.0
 11
1269.3457696601911
 21
28.501921701951691
 31
0.0
  0
LINE
  5
6E99
  8
DEFPOINTS
  6
CONTINUOUS
 10
1265.3309896601911
 20
32.128621701951943
 30
0.0
 11
1265.3309896601911
 21
28.501921701951691
 31
0.0
  0
LINE
  5
6E9A
  8
DEFPOINTS
  6
CONTINUOUS
 10
1266.629209660191
 20
32.128621701951943
 30
0.0
 11
1266.6292096601919
 21
28.501921701951691
 31
0.0
  0
LINE
  5
6E9B
  8
DEFPOINTS
  6
CONTINUOUS
 10
1257.0242048221919
 20
29.5991717019524
 30
0.0
 11
1257.0242048221919
 21
28.501921701951691
 31
0.0
  0
LINE
  5
6E9C
  8
DEFPOINTS
  6
CONTINUOUS
 10
1258.3120298221911
 20
29.5991717019524
 30
0.0
 11
1258.3120298221911
 21
28.501921701951691
 31
0.0
  0
LINE
  5
6E9D
  8
DEFPOINTS
  6
CONTINUOUS
 10
1254.2637548221901
 20
29.5991717019524
 30
0.0
 11
1254.2637548221901
 21
28.501921701951691
 31
0.0
  0
LINE
  5
6E9E
  8
DEFPOINTS
  6
CONTINUOUS
 10
1255.5862298221909
 20
29.5991717019524
 30
0.0
 11
1255.5862298221921
 21
28.501921701951691
 31
0.0
  0
LINE
  5
6E9F
  8
DEFPOINTS
  6
CONTINUOUS
 10
1252.8546548221909
 20
30.061171701952389
 30
0.0
 11
1252.8546548221909
 21
28.501921701951691
 31
0.0
  0
LINE
  5
6EA0
  8
DEFPOINTS
  6
CONTINUOUS
 10
1253.986554822191
 20
30.061171701952389
 30
0.0
 11
1253.986554822191
 21
28.501921701951691
 31
0.0
  0
LINE
  5
6EA1
  8
DEFPOINTS
  6
CONTINUOUS
 10
1251.191454822191
 20
30.061171701952389
 30
0.0
 11
1251.191454822191
 21
28.501921701951691
 31
0.0
  0
LINE
  5
6EA2
  8
DEFPOINTS
  6
CONTINUOUS
 10
1252.3441448221911
 20
30.061171701952389
 30
0.0
 11
1252.3441448221911
 21
28.501921701951691
 31
0.0
  0
LINE
  5
6EA3
  8
DEFPOINTS
  6
CONTINUOUS
 10
1262.477849148416
 20
28.415296701952229
 30
0.0
 11
1262.181025475393
 21
28.032832647484149
 31
0.0
  0
LINE
  5
6EA4
  8
DEFPOINTS
  6
CONTINUOUS
 10
1262.181025475393
 20
28.032832647484149
 30
0.0
 11
1262.180833079429
 21
28.415296701952229
 31
0.0
  0
LINE
  5
6EA5
  8
DEFPOINTS
  6
CONTINUOUS
 10
1290.327474822192
 20
29.021671701952531
 30
0.0
 11
1290.32747482219
 21
28.415296701952229
 31
0.0
  0
LINE
  5
6EA6
  8
DEFPOINTS
  6
CONTINUOUS
 10
1291.60952482219
 20
29.021671701952531
 30
0.0
 11
1291.6095248221909
 21
28.415296701952229
 31
0.0
  0
LINE
  5
6EA7
  8
DEFPOINTS
  6
CONTINUOUS
 10
1287.37067482219
 20
29.021671701952531
 30
0.0
 11
1287.3706748221921
 21
28.415296701952229
 31
0.0
  0
LINE
  5
6EA8
  8
DEFPOINTS
  6
CONTINUOUS
 10
1288.6527248221901
 20
29.021671701952531
 30
0.0
 11
1288.6527248221901
 21
28.415296701952229
 31
0.0
  0
LINE
  5
6EA9
  8
DEFPOINTS
  6
CONTINUOUS
 10
1284.4253274121911
 20
29.021671701952531
 30
0.0
 11
1284.4253274121911
 21
28.415296701952229
 31
0.0
  0
LINE
  5
6EAA
  8
DEFPOINTS
  6
CONTINUOUS
 10
1285.7144048221919
 20
29.021671701952531
 30
0.0
 11
1285.714404822191
 21
28.415296701952229
 31
0.0
  0
LINE
  5
6EAB
  8
DEFPOINTS
  6
CONTINUOUS
 10
1262.18043128464
 20
29.214024809176859
 30
0.0
 11
1262.180833079429
 21
28.415296701952229
 31
0.0
  0
LINE
  5
6EAC
  8
DEFPOINTS
  6
CONTINUOUS
 10
1263.0977280828261
 20
29.214024809176859
 30
0.0
 11
1262.477849148416
 21
28.415296701952229
 31
0.0
  0
LINE
  5
6EAD
  8
DEFPOINTS
  6
CONTINUOUS
 10
1284.4253274121911
 20
28.415296701952229
 30
0.0
 11
1284.4253274121911
 21
28.016821701952271
 31
0.0
  0
LINE
  5
6EAE
  8
DEFPOINTS
  6
CONTINUOUS
 10
1291.6095248221909
 20
28.415296701952229
 30
0.0
 11
1291.609524822192
 21
28.016821701952271
 31
0.0
  0
LINE
  5
6EAF
  8
DEFPOINTS
  6
CONTINUOUS
 10
1278.8265263461919
 20
28.501921701951691
 30
0.0
 11
1278.999889954192
 21
28.016821701952271
 31
0.0
  0
LINE
  5
6EB0
  8
DEFPOINTS
  6
CONTINUOUS
 10
1280.4611073601909
 20
28.501921701951691
 30
0.0
 11
1280.4611073601909
 21
28.016821701952271
 31
0.0
  0
LINE
  5
6EB1
  8
DEFPOINTS
  6
CONTINUOUS
 10
1276.557207360192
 20
29.109021431951991
 30
0.0
 11
1277.2766979821911
 21
28.016821701952271
 31
0.0
  0
LINE
  5
6EB2
  8
DEFPOINTS
  6
CONTINUOUS
 10
1277.708800622564
 20
29.109021431951991
 30
0.0
 11
1278.4282912461911
 21
28.016821701952271
 31
0.0
  0
LINE
  5
6EB3
  8
DEFPOINTS
  6
CONTINUOUS
 10
1275.4593963978921
 20
29.109021431951991
 30
0.0
 11
1274.8576231201901
 21
28.016821701952271
 31
0.0
  0
LINE
  5
6EB4
  8
DEFPOINTS
  6
CONTINUOUS
 10
1276.557207360192
 20
29.109021431951991
 30
0.0
 11
1275.955434083342
 21
28.016821701952271
 31
0.0
  0
LINE
  5
6EB5
  8
DEFPOINTS
  6
CONTINUOUS
 10
1273.870018346191
 20
30.23442170195267
 30
0.0
 11
1273.271589822192
 21
28.016821701952271
 31
0.0
  0
LINE
  5
6EB6
  8
DEFPOINTS
  6
CONTINUOUS
 10
1275.01563982219
 20
30.23442170195267
 30
0.0
 11
1274.417211296191
 21
28.016821701952271
 31
0.0
  0
LINE
  5
6EB7
  8
DEFPOINTS
  6
CONTINUOUS
 10
1265.3309896601911
 20
28.501921701951691
 30
0.0
 11
1265.3309896601911
 21
28.016821701952271
 31
0.0
  0
LINE
  5
6EB8
  8
DEFPOINTS
  6
CONTINUOUS
 10
1269.3457696601911
 20
28.501921701951691
 30
0.0
 11
1269.3457696601911
 21
28.016821701952271
 31
0.0
  0
LINE
  5
6EB9
  8
DEFPOINTS
  6
CONTINUOUS
 10
1263.108769660189
 20
29.214024809176859
 30
0.0
 11
1263.1087696601919
 21
28.016821701952271
 31
0.0
  0
LINE
  5
6EBA
  8
DEFPOINTS
  6
CONTINUOUS
 10
1264.356169660191
 20
29.214024809176859
 30
0.0
 11
1264.3561696601901
 21
28.016821701952271
 31
0.0
  0
LINE
  5
6EBB
  8
DEFPOINTS
  6
CONTINUOUS
 10
1254.2637548221901
 20
28.501921701951691
 30
0.0
 11
1254.2637548221901
 21
28.016821701952271
 31
0.0
  0
LINE
  5
6EBC
  8
DEFPOINTS
  6
CONTINUOUS
 10
1258.3120298221911
 20
28.501921701951691
 30
0.0
 11
1258.3120298221911
 21
28.016821701952271
 31
0.0
  0
LINE
  5
6EBD
  8
DEFPOINTS
  6
CONTINUOUS
 10
1251.191454822191
 20
28.501921701951691
 30
0.0
 11
1251.191454822191
 21
28.016821701952271
 31
0.0
  0
LINE
  5
6EBE
  8
DEFPOINTS
  6
CONTINUOUS
 10
1253.986554822191
 20
28.501921701951691
 30
0.0
 11
1253.986554822191
 21
28.016821701952271
 31
0.0
  0
ENDBLK
  5
6EC0
  8
0
  0
BLOCK
  8
0
  2
*U35
 70
     1
 10
0.0
 20
0.0
 30
0.0
  3
*U35
  1

  0
TEXT
  5
6F3B
  8
002寸法
 62
     2
 10
7.1499999999999986
 20
7.9282032302754706
 30
0.0
 40
3.0
  1
G
 41
0.9
  0
ENDBLK
  5
6F3D
  8
0
  0
BLOCK
  8
0
  2
*U36
 70
     1
 10
0.0
 20
0.0
 30
0.0
  3
*U36
  1

  0
TEXT
  5
6F4A
  8
003注釈
 10
1312.0
 20
67.999999999999815
 30
0.0
 40
6.0
  1
外観図
 41
0.9
  0
ENDBLK
  5
6F4C
  8
0
  0
BLOCK
  8
0
  2
*U37
 70
     1
 10
0.0
 20
0.0
 30
0.0
  3
*U37
  1

  0
TEXT
  5
6F4E
  8
003注釈
 10
1310.9714285714281
 20
24.0
 30
0.0
 40
6.0
  1
I-0103-A009-2
 41
0.9
  0
ENDBLK
  5
6F50
  8
0
  0
BLOCK
  8
0
  2
*U38
 70
     1
 10
0.0
 20
0.0
 30
0.0
  3
*U38
  1

  0
TEXT
  5
6F52
  8
003注釈
 10
1311.742857142857
 20
45.999999999999822
 30
0.0
 40
6.0
  1
TQP-□NB
 41
0.9
  0
ENDBLK
  5
6F54
  8
0
  0
BLOCK
  8
0
  2
*U39
 70
     1
 10
0.0
 20
0.0
 30
0.0
  3
*U39
  1

  0
TEXT
  5
6F56
  8
003注釈
 10
1278.3714285714279
 20
73.333333333332874
 30
0.0
 40
4.0
  1
2016.
 41
0.9
  0
TEXT
  5
6F57
  8
003注釈
 10
1278.2
 20
66.666666666666202
 30
0.0
 40
4.0
  1
07.14
 41
0.9
  0
ENDBLK
  5
6F59
  8
0
  0
BLOCK
  8
0
  2
*U40
 70
     1
 10
0.0
 20
0.0
 30
0.0
  3
*U40
  1

  0
TEXT
  5
6F5B
  8
003注釈
 10
1147.071428571428
 20
46.999999999999538
 30
0.0
 40
6.0
  1
1  2
 41
0.9
  0
ENDBLK
  5
6F5D
  8
0
  0
BLOCK
  8
0
  2
*U41
 70
     1
 10
0.0
 20
0.0
 30
0.0
  3
*U41
  1

  0
TEXT
  5
6F5F
  8
003注釈
 10
1280.24
 20
46.999999999999538
 30
0.0
 40
6.0
  1
益子
 41
0.9
  0
ENDBLK
  5
6F61
  8
0
  0
BLOCK
  8
0
  2
*U42
 70
     1
 10
0.0
 20
0.0
 30
0.0
  3
*U42
  1

  0
TEXT
  5
6F63
  8
003注釈
 10
1264.0
 20
192.8571428571428
 30
0.0
 40
6.0
  1
負荷方向　　：時計回り(-)/反時計回り(+)
 41
0.9
  0
TEXT
  5
6F64
  8
003注釈
 10
1264.0
 20
176.28571428571431
 30
0.0
 40
6.0
  1
使用キー寸法：10
 41
0.9
  0
TEXT
  5
6F65
  8
003注釈
 10
1319.6457142857139
 20
180.28571428571419
 30
0.0
 40
3.0
  1
 0
 41
0.9
  0
TEXT
  5
6F66
  8
003注釈
 10
1319.1314285714279
 20
176.28571428571431
 30
0.0
 40
3.0
  1
-0.036
 41
0.9
  0
TEXT
  5
6F67
  8
003注釈
 10
1334.045714285714
 20
176.28571428571431
 30
0.0
 40
6.0
  1
 \U+00D7 8
 41
0.9
  0
TEXT
  5
6F68
  8
003注釈
 10
1356.4685714285711
 20
180.28571428571419
 30
0.0
 40
3.0
  1
 0
 41
0.9
  0
TEXT
  5
6F69
  8
003注釈
 10
1355.954285714286
 20
176.28571428571431
 30
0.0
 40
3.0
  1
-0.090
 41
0.9
  0
ENDBLK
  5
6F6B
  8
0
  0
BLOCK
  8
0
  2
*U43
 70
     1
 10
0.0
 20
0.0
 30
0.0
  3
*U43
  1

  0
TEXT
  5
6F71
  8
003注釈
 10
1122.0
 20
36.0
 30
0.0
 40
4.0
  1
来歴
 50
90.0
 41
0.9
  0
TEXT
  5
6F72
  8
003注釈
 10
1128.0
 20
35.314285714285717
 30
0.0
 40
4.0
  1
I-0103-A009
 50
90.0
 41
0.9
  0
ENDBLK
  5
6F74
  8
0
  0
BLOCK
  8
0
  2
*U44
 70
     1
 10
0.0
 20
0.0
 30
0.0
  3
*U44
  1

  0
TEXT
  5
6F76
  8
003注釈
 10
1121.9282032302749
 20
82.371428571428609
 30
0.0
 40
4.0
  1
2016.
 50
90.0
 41
0.9
  0
TEXT
  5
6F77
  8
003注釈
 10
1127.9282032302749
 20
82.200000000000045
 30
0.0
 40
4.0
  1
07.14
 50
90.0
 41
0.9
  0
ENDBLK
  5
6F79
  8
0
  0
BLOCK
  8
0
  2
*U45
 70
     1
 10
0.0
 20
0.0
 30
0.0
  3
*U45
  1

  0
INSERT
  5
6F8F
  8
002寸法
  2
_OPEN
 10
860.53553390593265
 20
443.0355339059326
 30
0.0
 41
2.5
 42
2.5
 43
2.5
 50
44.999999999999538
  0
POLYLINE
  5
6F90
  8
002寸法
 66
     1
 10
0.0
 20
0.0
 30
0.0
  0
VERTEX
  5
6F91
  8
002寸法
 10
858.76776695296644
 20
441.26776695296633
 30
0.0
  0
VERTEX
  5
6F92
  8
002寸法
 10
857.0
 20
439.5
 30
0.0
  0
SEQEND
  5
6F93
  8
002寸法
  0
ENDBLK
  5
6F95
  8
0
  0
BLOCK
  8
0
  2
*U46
 70
     1
 10
0.0
 20
0.0
 30
0.0
  3
*U46
  1

  0
INSERT
  5
6F97
  8
002寸法
  2
_OPEN
 10
843.46446609406735
 20
443.0355339059326
 30
0.0
 41
2.5
 42
2.5
 43
2.5
 50
135.0000000000004
  0
POLYLINE
  5
6F98
  8
002寸法
 66
     1
 10
0.0
 20
0.0
 30
0.0
  0
VERTEX
  5
6F99
  8
002寸法
 10
845.23223304703356
 20
441.26776695296633
 30
0.0
  0
VERTEX
  5
6F9A
  8
002寸法
 10
847.0
 20
439.5
 30
0.0
  0
SEQEND
  5
6F9B
  8
002寸法
  0
ENDBLK
  5
6F9D
  8
0
  0
BLOCK
  8
0
  2
*U47
 70
     1
 10
0.0
 20
0.0
 30
0.0
  3
*U47
  1

  0
TEXT
  5
6F9F
  8
003注釈
 10
1293.2285714285711
 20
144.0
 30
0.0
 40
6.0
  1
200,500 N･m
 41
0.9
  0
ENDBLK
  5
6FA1
  8
0
  0
BLOCK
  8
0
  2
*U48
 70
     1
 10
0.0
 20
0.0
 30
0.0
  3
*U48
  1

  0
TEXT
  5
6FA3
  8
002寸法
 62
     2
 10
1306.5
 20
362.02857142857158
 30
0.0
 40
6.0
  1
139
 50
90.0
 41
0.9
  0
ENDBLK
  5
6FA5
  8
0
  0
BLOCK
  8
0
  2
*U49
 70
     1
 10
0.0
 20
0.0
 30
0.0
  3
*U49
  1

  0
TEXT
  5
6FA7
  8
002寸法
 62
     2
 10
1326.5
 20
361.9000000000002
 30
0.0
 40
6.0
  1
157
 50
90.0
 41
0.9
  0
ENDBLK
  5
6FA9
  8
0
  0
BLOCK
  8
0
  2
*U50
 70
     1
 10
0.0
 20
0.0
 30
0.0
  3
*U50
  1

  0
TEXT
  5
6FAB
  8
002寸法
 62
     2
 10
1077.0
 20
358.89142857142878
 30
0.0
 40
6.0
  1
\U+03C6107
 50
90.0
 41
0.9
  0
ENDBLK
  5
6FAD
  8
0
  0
BLOCK
  8
0
  2
*U51
 70
     1
 10
0.0
 20
0.0
 30
0.0
  3
*U51
  1

  0
TEXT
  5
6FAF
  8
002寸法
 62
     2
 10
706.99999999999989
 20
356.44857142857148
 30
0.0
 40
6.0
  1
\U+03C638h7
 50
90.0
 41
0.9
  0
ENDBLK
  5
6FB1
  8
0
  0
BLOCK
  8
0
  2
*U52
 70
     1
 10
0.0
 20
0.0
 30
0.0
  3
*U52
  1

  0
TEXT
  5
6FB3
  8
002寸法
 62
     2
 10
1057.0
 20
356.4485714285716
 30
0.0
 40
6.0
  1
\U+03C638h7
 50
90.0
 41
0.9
  0
ENDBLK
  5
6FB5
  8
0
  0
BLOCK
  8
0
  2
*U53
 70
     1
 10
0.0
 20
0.0
 30
0.0
  3
*U53
  1

  0
POLYLINE
  5
6FB7
  8
002寸法
 66
     1
 10
0.0
 20
0.0
 30
0.0
  0
VERTEX
  5
6FB8
  8
002寸法
 10
860.53553390593265
 20
443.0355339059326
 30
0.0
  0
VERTEX
  5
6FB9
  8
002寸法
 10
869.3743686707644
 20
451.87436867076462
 30
0.0
  0
VERTEX
  5
6FBA
  8
002寸法
 10
876.26360902461056
 20
458.76360902461062
 30
0.0
  0
SEQEND
  5
6FBB
  8
002寸法
  0
ENDBLK
  5
6FBD
  8
0
  0
BLOCK
  8
0
  2
*U54
 70
     1
 10
0.0
 20
0.0
 30
0.0
  3
*U54
  1

  0
TEXT
  5
6FBF
  8
002寸法
 62
     2
 10
868.64705883868692
 20
452.56127240106008
 30
0.0
 40
6.0
  1
R5
 50
45.0
 41
0.9
  0
ENDBLK
  5
6FC1
  8
0
  0
BLOCK
  8
0
  2
*U55
 70
     1
 10
0.0
 20
0.0
 30
0.0
  3
*U55
  1

  0
POLYLINE
  5
6FC3
  8
002寸法
 66
     1
 10
0.0
 20
0.0
 30
0.0
  0
VERTEX
  5
6FC4
  8
002寸法
 10
843.46446609406735
 20
443.0355339059326
 30
0.0
  0
VERTEX
  5
6FC5
  8
002寸法
 10
834.62563132923538
 20
451.87436867076451
 30
0.0
  0
VERTEX
  5
6FC6
  8
002寸法
 10
827.73639097538944
 20
458.76360902461062
 30
0.0
  0
SEQEND
  5
6FC7
  8
002寸法
  0
ENDBLK
  5
6FC9
  8
0
  0
BLOCK
  8
0
  2
*U56
 70
     1
 10
0.0
 20
0.0
 30
0.0
  3
*U56
  1

  0
TEXT
  5
6FCB
  8
002寸法
 62
     2
 10
827.71618792449829
 20
460.19802563787471
 30
0.0
 40
6.0
  1
R5
 50
315.0
 41
0.9
  0
ENDBLK
  5
6FCD
  8
0
  0
BLOCK
  8
0
  2
*U57
 70
     1
 10
0.0
 20
0.0
 30
0.0
  3
*U57
  1

  0
TEXT
  5
6FCF
  8
002寸法
 62
     2
 10
846.85714285714266
 20
469.5
 30
0.0
 40
6.0
  1
20
 41
0.9
  0
ENDBLK
  5
6FD1
  8
0
  0
BLOCK
  8
0
  2
*U58
 70
     1
 10
0.0
 20
0.0
 30
0.0
  3
*U58
  1

  0
TEXT
  5
6FD3
  8
002寸法
 62
     2
 10
785.49999999999977
 20
433.97142857142859
 30
0.0
 40
6.0
  1
10
 50
90.0
 41
0.9
  0
ENDBLK
  5
6FD5
  8
0
  0
BLOCK
  8
0
  2
*U59
 70
     1
 10
0.0
 20
0.0
 30
0.0
  3
*U59
  1

  0
TEXT
  5
6FD7
  8
002寸法
 62
     2
 10
820.85714285714278
 20
262.5
 30
0.0
 40
6.0
  1
52
 41
0.9
  0
ENDBLK
  5
6FD9
  8
0
  0
BLOCK
  8
0
  2
*U60
 70
     1
 10
0.0
 20
0.0
 30
0.0
  3
*U60
  1

  0
TEXT
  5
6FDB
  8
002寸法
 62
     2
 10
793.92857142857144
 20
242.5
 30
0.0
 40
6.0
  1
7
 41
0.9
  0
ENDBLK
  5
6FDD
  8
0
  0
BLOCK
  8
0
  2
*U61
 70
     1
 10
0.0
 20
0.0
 30
0.0
  3
*U61
  1

  0
TEXT
  5
6FDF
  8
002寸法
 62
     2
 10
755.2285714285714
 20
222.5
 30
0.0
 40
6.0
  1
65
 41
0.9
  0
ENDBLK
  5
6FE1
  8
0
  0
BLOCK
  8
0
  2
*U62
 70
     1
 10
0.0
 20
0.0
 30
0.0
  3
*U62
  1

  0
TEXT
  5
6FE3
  8
002寸法
 62
     2
 10
870.28571428571422
 20
202.5
 30
0.0
 40
6.0
  1
300
 41
0.9
  0
ENDBLK
  5
6FE5
  8
0
  0
BLOCK
  8
0
  2
*U63
 70
     1
 10
0.0
 20
0.0
 30
0.0
  3
*U63
  1

  0
TEXT
  5
6FE7
  8
002寸法
 62
     2
 10
747.85714285714266
 20
262.5
 30
0.0
 40
6.0
  1
50
 41
0.9
  0
ENDBLK
  5
6FE9
  8
0
  0
BLOCK
  8
0
  2
*U64
 70
     1
 10
0.0
 20
0.0
 30
0.0
  3
*U64
  1

  0
TEXT
  5
7018
  8
002寸法
 62
     2
 10
997.85714285714266
 20
262.5
 30
0.0
 40
6.0
  1
50
 41
0.9
  0
ENDBLK
  5
701A
  8
0
  0
BLOCK
  8
0
  2
*U65
 70
     1
 10
0.0
 20
0.0
 30
0.0
  3
*U65
  1

  0
TEXT
  5
701C
  8
002寸法
 62
     2
 10
1199.4000000000001
 20
262.5
 30
0.0
 40
6.0
  1
140
 41
0.9
  0
ENDBLK
  5
701E
  8
0
  0
BLOCK
  8
0
  2
*U66
 70
     1
 10
0.0
 20
0.0
 30
0.0
  3
*U66
  1

  0
TEXT
  5
7020
  8
002寸法
 62
     2
 10
1218.4714285714281
 20
469.5
 30
0.0
 40
6.0
  1
15
 41
0.9
  0
ENDBLK
  5
7022
  8
0
  0
BLOCK
  8
0
  2
*U67
 70
     1
 10
0.0
 20
0.0
 30
0.0
  3
*U67
  1

  0
TEXT
  5
702F
  8
002寸法
 62
     2
 10
1200.1071428571429
 20
401.0
 30
0.0
 40
6.0
  1
5
 41
0.9
  0
TEXT
  5
7030
  8
002寸法
 62
     2
 10
1204.735714285714
 20
405.0
 30
0.0
 40
3.0
  1
+0.2
 41
0.9
  0
TEXT
  5
7031
  8
002寸法
 62
     2
 10
1205.25
 20
401.0
 30
0.0
 40
3.0
  1
 0
 41
0.9
  0
ENDBLK
  5
7033
  8
0
  0
ENDSEC
  0
SECTION
  2
ENTITIES
  0
POLYLINE
  5
51C
  8
DEFPOINTS
 66
     1
 10
0.0
 20
0.0
 30
0.0
 70
     1
  0
VERTEX
  5
6DAB
  8
DEFPOINTS
 10
594.0
 20
0.0
 30
0.0
  0
VERTEX
  5
6DAC
  8
DEFPOINTS
 10
1434.0
 20
0.0
 30
0.0
  0
VERTEX
  5
6DAD
  8
DEFPOINTS
 10
1434.0
 20
594.0
 30
0.0
  0
VERTEX
  5
6DAE
  8
DEFPOINTS
 10
594.0
 20
594.0
 30
0.0
  0
SEQEND
  5
6DAF
  8
DEFPOINTS
  0
POLYLINE
  5
51E
  8
DEFPOINTS
 66
     1
 10
0.0
 20
0.0
 30
0.0
 70
     1
  0
VERTEX
  5
6DB0
  8
DEFPOINTS
 10
643.0
 20
20.0
 30
0.0
  0
VERTEX
  5
6DB1
  8
DEFPOINTS
 10
1413.0
 20
20.0
 30
0.0
  0
VERTEX
  5
6DB2
  8
DEFPOINTS
 10
1413.0
 20
574.0
 30
0.0
  0
VERTEX
  5
6DB3
  8
DEFPOINTS
 10
643.0
 20
574.0
 30
0.0
  0
SEQEND
  5
6DB4
  8
DEFPOINTS
  0
TEXT
  5
564
  8
DEFPOINTS
 10
1177.3496849213279
 20
24.66684100940029
 30
0.0
 40
15.0
  1
Ａ３
 41
0.7222222220000001
  7
表題
  0
LINE
  5
565
  8
DEFPOINTS
 10
1060.0
 20
118.0
 30
0.0
 11
1413.0
 21
118.0
 31
0.0
  0
LINE
  5
566
  8
DEFPOINTS
 10
1060.0
 20
102.0
 30
0.0
 11
1413.0
 21
102.0
 31
0.0
  0
POLYLINE
  5
567
  8
DEFPOINTS
 66
     1
 10
0.0
 20
0.0
 30
0.0
 70
     1
  0
VERTEX
  5
6DB5
  8
DEFPOINTS
 10
1060.0
 20
134.0
 30
0.0
  0
VERTEX
  5
6DB6
  8
DEFPOINTS
 10
1413.0
 20
134.0
 30
0.0
  0
VERTEX
  5
6DB7
  8
DEFPOINTS
 10
1413.0
 20
20.0
 30
0.0
  0
VERTEX
  5
6DB8
  8
DEFPOINTS
 10
1060.0
 20
20.0
 30
0.0
  0
SEQEND
  5
6DB9
  8
DEFPOINTS
  0
LINE
  5
568
  8
DEFPOINTS
 10
1142.0
 20
41.999999999999538
 30
0.0
 11
1413.0
 21
42.0
 31
0.0
  0
LINE
  5
569
  8
DEFPOINTS
 10
1142.0
 20
63.999999999999552
 30
0.0
 11
1413.0
 21
64.0
 31
0.0
  0
LINE
  5
56A
  8
DEFPOINTS
 10
1141.9999999999991
 20
85.999999999999545
 30
0.0
 11
1413.0
 21
86.0
 31
0.0
  0
TEXT
  5
56C
  8
DEFPOINTS
 10
1270.626336874619
 20
80.999999999999545
 30
0.0
 40
4.0
  1
作成日付
  7
表題
 72
     1
 11
1281.1830379055471
 21
80.999999999999545
 31
0.0
  0
INSERT
  5
56D
  8
DEFPOINTS
  6
CONTINUOUS
  2
*U34
 10
0.0
 20
0.0
 30
0.0
1001
ACAD
1002
{
1000
R14_HATCH_DATA
1000
56D
1011
1.0
1021
0.0
1031
0.0
1021
0.0
1031
0.0
1011
0.0
1021
0.0
1031
0.0
1021
1.0
1031
0.0
1011
0.0
1021
0.0
1031
0.0
1021
0.0
1031
1.0
1040
0.0
1010
0.0
1020
0.0
1030
1.0
1000
SOLID,_O
1070
     1
1070
     0
1071
       25
1071
        7
1070
     0
1070
     1
1071
        4
1040
1253.986554822191
1040
32.567521701952501
1040
1251.191454822191
1040
32.567521701952501
1040
1251.191454822191
1040
28.016821701952271
1040
1253.986554822191
1040
28.016821701952271
1071
        0
1071
       22
1070
     0
1070
     1
1071
        4
1040
1252.8546548221909
1040
30.061171701952389
1040
1252.8546548221909
1040
28.501921701952138
1040
1252.3441448221911
1040
28.501921701952138
1040
1252.3441448221911
1040
30.061171701952389
1071
        0
1071
       22
1070
     0
1070
     1
1071
        4
1040
1252.8546548221909
1040
30.53934170195225
1040
1252.3441448221899
1040
30.53934170195225
1040
1252.3441448221899
1040
32.128621701951943
1040
1252.854654822193
1040
32.128621701952397
1071
        0
1071
        7
1070
     0
1070
     1
1071
        4
1040
1258.3120298221911
1040
30.061171701952389
1040
1254.2637548221901
1040
30.061171701952389
1040
1254.2637548221901
1040
28.016821701952271
1040
1258.3120298221911
1040
28.016821701952271
1071
        0
1071
       22
1070
     0
1070
     1
1071
        4
1040
1255.5862298221909
1040
29.5991717019524
1040
1257.0242048221919
1040
29.5991717019524
1040
1257.0242048221919
1040
28.501921701952138
1040
1255.5862298221921
1040
28.501921701952138
1071
        0
1071
        7
1070
     0
1070
     1
1071
       12
1040
1256.4975496601901
1040
32.128621701951943
1040
1257.0242048221919
1040
32.128621701951943
1040
1257.02466222219
1040
30.934351701952441
1040
1256.576522222193
1040
30.918181701952111
1040
1256.693874822193
1040
30.453871701952721
1040
1258.3120298221911
1040
30.45387170195227
1040
1258.3120298221911
1040
32.567521701952501
1040
1254.2637548221901
1040
32.567521701952501
1040
1254.2637548221901
1040
32.128621701952397
1040
1255.05610966019
1040
32.128621701951943
1040
1254.2637548221919
1040
30.45387170195227
1040
1255.7051948221899
1040
30.453871701952721
1071
        0
1071
        7
1070
     0
1070
     1
1071
       22
1040
1265.0837948221899
1040
30.55782170195198
1040
1264.356169660191
1040
31.01982170195242
1040
1265.07457966019
1040
31.01982170195242
1040
1265.07457966019
1040
31.46565170195208
1040
1264.356169660191
1040
31.46565170195208
1040
1264.356169660191
1040
32.128621701952397
1040
1265.0745796601909
1040
32.128621701951943
1040
1265.07457966019
1040
32.567521701952501
1040
1262.1685996601909
1040
32.567521701952501
1040
1262.1685996601909
1040
32.128621701951943
1040
1263.1087696601901
1040
32.128621701952397
1040
1263.1087696601919
1040
31.46565170195208
1040
1262.1685996601909
1040
31.46565170195208
1040
1262.1685996601921
1040
31.01982170195242
1040
1263.1087696601901
1040
31.01982170195242
1040
1262.18012482219
1040
29.823241701952611
1040
1262.181025475393
1040
28.032832647484149
1040
1263.108769660189
1040
29.228252132768372
1040
1263.1087696601919
1040
28.016821701952271
1040
1264.3561696601901
1040
28.016821701952271
1040
1264.356169660191
1040
29.676684684825432
1040
1265.0848340908631
1040
29.214024809176859
1071
        0
1071
        7
1070
     0
1070
     1
1071
        4
1040
1269.3457696601911
1040
32.567521701952501
1040
1265.3309896601911
1040
32.567521701952501
1040
1265.3309896601911
1040
28.016821701952271
1040
1269.3457696601911
1040
28.016821701952271
1071
        0
1071
       22
1070
     0
1070
     1
1071
        4
1040
1266.629209660191
1040
32.128621701951943
1040
1268.012899660192
1040
32.128621701951943
1040
1268.01289966019
1040
28.5019217019526
1040
1266.6292096601919
1040
28.501921701951691
1071
        0
1071
        7
1070
     0
1070
     1
1071
        4
1040
1275.0156398221909
1040
32.567521701952053
1040
1273.27158982219
1040
32.567521701952053
1040
1273.271589822192
1040
32.128621701952397
1040
1275.0156398221909
1040
32.128621701951943
1071
        0
1071
        7
1070
     0
1070
     1
1071
        4
1040
1275.0156398221909
1040
31.46565170195208
1040
1273.271589822192
1040
31.46565170195208
1040
1273.271589822192
1040
31.01982170195242
1040
1275.0156398221909
1040
31.01982170195242
1071
        0
1071
        7
1070
     0
1070
     1
1071
        4
1040
1275.01563982219
1040
30.23442170195267
1040
1273.870018346191
1040
30.23442170195267
1040
1273.271589822192
1040
28.016821701952271
1040
1274.417211296191
1040
28.016821701952271
1071
        0
1071
        7
1070
     0
1070
     1
1071
       11
1040
1277.852319822191
1040
32.567521701952501
1040
1275.2373998221899
1040
32.567521701952501
1040
1275.2373998221899
1040
29.123311701951931
1040
1275.4672699601911
1040
29.123311701951931
1040
1274.8576231201901
1040
28.016821701952271
1040
1275.955434083342
1040
28.016821701952271
1040
1276.557207360192
1040
29.109021431951991
1040
1277.2766979821911
1040
28.016821701952271
1040
1278.4282912461911
1040
28.016821701952271
1040
1277.699386854192
1040
29.123311701951931
1040
1277.852319822191
1040
29.123311701951931
1071
        0
1071
       22
1070
     0
1070
     1
1071
        4
1040
1276.348509822189
1040
30.061171701952389
1040
1276.7735498221909
1040
30.061171701952389
1040
1276.7735498221909
1040
29.601481701952249
1040
1276.3485098221911
1040
29.601481701952711
1071
        0
1071
       22
1070
     0
1070
     1
1071
        4
1040
1276.348509822192
1040
30.53934170195225
1040
1276.3485098221911
1040
31.01982170195242
1040
1276.7735498221909
1040
31.01982170195242
1040
1276.7735498221909
1040
30.53934170195225
1071
        0
1071
       22
1070
     0
1070
     1
1071
        4
1040
1276.348509822192
1040
31.465651701952542
1040
1276.34850982219
1040
32.128621701952397
1040
1276.7735498221921
1040
32.128621701951943
1040
1276.7735498221921
1040
31.46565170195208
1071
        0
1071
        7
1070
     0
1070
     1
1071
        4
1040
1279.0650698221909
1040
32.567521701952501
1040
1278.023259822191
1040
32.567521701952501
1040
1278.023259822191
1040
29.123311701951931
1040
1279.0650698221909
1040
29.123311701951931
1071
        0
1071
        7
1070
     0
1070
     1
1071
        6
1040
1280.461107360192
1040
32.567521701952501
1040
1279.3499973601899
1040
32.567521701952501
1040
1279.3499973601899
1040
28.501921701951691
1040
1278.8265263461919
1040
28.501921701951691
1040
1278.999889954192
1040
28.016821701952271
1040
1280.4611073601909
1040
28.016821701952271
1071
        0
1071
        7
1070
     0
1070
     1
1071
        4
1040
1291.60952482219
1040
29.425921701952579
1040
1284.4253274121911
1040
29.42592170195212
1040
1284.4253274121911
1040
28.016821701952271
1040
1291.609524822192
1040
28.016821701952271
1071
        0
1071
       22
1070
     0
1070
     1
1071
        4
1040
1288.6527248221901
1040
29.021671701952979
1040
1290.327474822192
1040
29.021671701952979
1040
1290.32747482219
1040
28.415296701952229
1040
1288.6527248221901
1040
28.415296701952229
1071
        0
1071
       22
1070
     0
1070
     1
1071
        4
1040
1287.3706748221921
1040
28.415296701952229
1040
1285.714404822191
1040
28.415296701952229
1040
1285.7144048221919
1040
29.021671701952531
1040
1287.37067482219
1040
29.021671701952531
1071
        0
1071
        7
1070
     0
1070
     1
1071
       12
1040
1291.60952482219
1040
30.18244670195191
1040
1288.6527248221901
1040
30.18244670195191
1040
1288.6527248221901
1040
30.594781701952339
1040
1291.4039348221911
1040
30.594781701952339
1040
1291.4039348221911
1040
31.01982170195242
1040
1284.698004822191
1040
31.01982170195242
1040
1284.698004822191
1040
30.594781701952339
1040
1287.37067482219
1040
30.594781701952339
1040
1287.37067482219
1040
30.18244670195191
1040
1284.425327412192
1040
30.18244670195191
1040
1284.425327412192
1040
29.759716701951682
1040
1291.60952482219
1040
29.759716701951682
1071
        0
1071
        7
1070
     0
1070
     1
1071
        4
1040
1291.403934822192
1040
32.567521701952501
1040
1284.698004822191
1040
32.567521701952501
1040
1284.698004822191
1040
31.26814670195245
1040
1291.4039348221911
1040
31.26814670195245
1071
        0
1071
       22
1070
     0
1070
     1
1071
        4
1040
1288.6527248221921
1040
31.718596701952269
1040
1288.6527248221901
1040
32.128621701951943
1040
1290.0364148221911
1040
32.128621701951943
1040
1290.0364148221911
1040
31.718596701952269
1071
        0
1071
       22
1070
     0
1070
     1
1071
        4
1040
1287.37067482219
1040
31.718596701952269
1040
1286.0562848221921
1040
31.718596701952269
1040
1286.0562848221921
1040
32.128621701952397
1040
1287.37067482219
1040
32.128621701952397
1071
        0
1070
     1
1070
     1
1040
0.0129395892018505
1071
       25
1040
1253.3706561138449
1040
30.211529648123818
1040
0.0
1040
1253.3706561138449
1040
30.211529648123818
1040
0.0
1040
1253.3706561138449
1040
30.211529648123818
1040
0.0
1040
1254.967735464938
1040
29.280136385687001
1040
0.0
1040
1254.967735464938
1040
29.280136385687001
1040
0.0
1040
1254.901178213855
1040
31.142939006254441
1040
0.0
1040
1264.0177928528219
1040
30.145006156718871
1040
0.0
1040
1266.1472319876129
1040
30.145006156718871
1040
0.0
1040
1266.1472319876129
1040
30.145006156718871
1040
0.0
1040
1274.3005148906041
1040
32.423705340176191
1040
0.0
1040
1274.3824541746301
1040
31.194863705811709
1040
0.0
1040
1274.218555961583
1040
29.365250400337569
1040
0.0
1040
1275.638889271348
1040
29.938707683615121
1040
0.0
1040
1275.638889271348
1040
29.938707683615121
1040
0.0
1040
1275.638889271348
1040
29.938707683615121
1040
0.0
1040
1275.638889271348
1040
29.938707683615121
1040
0.0
1040
1278.6980671966189
1040
30.594092034701589
1040
0.0
1040
1280.1457070527281
1040
30.73063178248367
1040
0.0
1040
1288.1739102574729
1040
28.811864443885948
1040
0.0
1040
1288.1739102574729
1040
28.811864443885948
1040
0.0
1040
1288.1739102574729
1040
28.811864443885948
1040
0.0
1040
1287.989974147107
1040
30.141658252965051
1040
0.0
1040
1288.0890242238411
1040
31.641229411994122
1040
0.0
1040
1288.0890242238411
1040
31.641229411994122
1040
0.0
1040
1288.0890242238411
1040
31.641229411994122
1040
0.0
1002
}
  0
TEXT
  5
56E
  8
DEFPOINTS
 10
1270.7693122472831
 20
58.999999999999552
 30
0.0
 40
4.0
  1
製図
  7
表題
 72
     2
 11
1281.3260132782109
 21
58.999999999999552
 31
0.0
  0
LINE
  5
570
  8
DEFPOINTS
 10
1060.0
 20
34.0
 30
0.0
 11
1142.0
 21
34.0
 31
0.0
  0
LINE
  5
571
  8
DEFPOINTS
 10
1060.0
 20
78.0
 30
0.0
 11
1142.0
 21
78.0
 31
0.0
  0
LINE
  5
572
  8
DEFPOINTS
 10
1142.0
 20
134.0
 30
0.0
 11
1142.0
 21
20.0
 31
0.0
  0
TEXT
  5
573
  8
DEFPOINTS
 10
1143.4613402061859
 20
58.90576480445862
 30
0.0
 40
4.0
  1
尺度
  7
表題
 72
     2
 11
1154.018041237113
 21
58.90576480445862
 31
0.0
  0
TEXT
  5
574
  8
DEFPOINTS
 10
1144.033813529727
 20
80.999999999999545
 30
0.0
 40
4.0
  1
熱処理
  7
表題
 72
     2
 11
1159.8688650761189
 21
80.999999999999545
 31
0.0
  0
LINE
  5
576
  8
DEFPOINTS
 10
1074.0
 20
134.0
 30
0.0
 11
1074.0
 21
20.0
 31
0.0
  0
LINE
  5
577
  8
DEFPOINTS
 10
1088.0
 20
134.0
 30
0.0
 11
1088.0
 21
20.0
 31
0.0
  0
LINE
  5
578
  8
DEFPOINTS
 10
1116.0
 20
134.0
 30
0.0
 11
1116.0
 21
20.0
 31
0.0
  0
LINE
  5
579
  8
DEFPOINTS
 10
1102.0
 20
134.0
 30
0.0
 11
1102.0
 21
20.0
 31
0.0
  0
LINE
  5
57A
  8
DEFPOINTS
 10
1130.0
 20
134.0
 30
0.0
 11
1130.0
 21
20.0
 31
0.0
  0
TEXT
  5
57B
  8
DEFPOINTS
 10
1139.0
 20
80.329896907216039
 30
0.0
 40
4.0
  1
年 月 日
 50
90.0
  7
表題
 72
     1
 11
1139.0
 21
89.999999999999545
 31
0.0
  0
TEXT
  5
57C
  8
DEFPOINTS
 10
1139.0
 20
37.525773195875843
 30
0.0
 40
4.0
  1
来歴　改訂記事
 50
90.0
  7
表題
 72
     1
 11
1139.0
 21
55.999999999999552
 31
0.0
  0
TEXT
  5
57D
  8
DEFPOINTS
 10
1139.0
 20
21.52354287618024
 30
0.0
 40
4.0
  1
記号
 50
90.0
  7
表題
 72
     2
 11
1139.0
 21
32.08024390710807
 31
0.0
  0
TEXT
  5
57E
  8
DEFPOINTS
 10
1139.0
 20
104.7216494845356
 30
0.0
 40
4.0
  1
氏名
 50
90.0
  7
表題
 72
     1
 11
1139.0
 21
109.9999999999995
 31
0.0
  0
TEXT
  5
57F
  8
DEFPOINTS
 10
1139.0
 20
120.7216494845356
 30
0.0
 40
4.0
  1
承認
 50
90.0
  7
表題
 72
     1
 11
1139.0
 21
125.9999999999995
 31
0.0
  0
LINE
  5
580
  8
DEFPOINTS
 10
1162.0
 20
134.0
 30
0.0
 11
1162.0
 21
85.999999999999545
 31
0.0
  0
TEXT
  5
581
  8
DEFPOINTS
 10
1207.0638061001559
 20
58.999999999999552
 30
0.0
 40
4.0
  1
検図
  7
表題
 72
     2
 11
1217.620507131084
 21
58.999999999999552
 31
0.0
  0
LINE
  5
582
  8
DEFPOINTS
 10
1190.0
 20
85.999999999999545
 30
0.0
 11
1190.0
 21
64.0
 31
0.0
  0
TEXT
  5
583
  8
DEFPOINTS
 10
1191.2698117426601
 20
80.999999999999545
 30
0.0
 40
4.0
  1
表面処理
  7
表題
 72
     2
 11
1212.383213804515
 21
80.999999999999545
 31
0.0
  0
LINE
  5
584
  8
DEFPOINTS
 10
1206.0
 20
64.0
 30
0.0
 11
1206.0
 21
20.0
 31
0.0
  0
LINE
  5
585
  8
DEFPOINTS
 10
1174.0
 20
64.0
 30
0.0
 11
1174.0
 21
20.0
 31
0.0
  0
TEXT
  5
586
  8
DEFPOINTS
 10
1174.7216494845361
 20
58.999999999999552
 30
0.0
 40
4.0
  1
承認
  7
表題
 72
     1
 11
1180.0
 21
58.999999999999552
 31
0.0
  0
LINE
  5
587
  8
DEFPOINTS
 10
1270.0
 20
85.999999999999545
 30
0.0
 11
1270.0
 21
41.999999999999538
 31
0.0
  0
TEXT
  5
588
  8
DEFPOINTS
 10
1238.721649484537
 20
80.999999999999545
 30
0.0
 40
4.0
  1
台数
  7
表題
 72
     1
 11
1244.0000000000009
 21
80.999999999999545
 31
0.0
  0
TEXT
  5
589
  8
DEFPOINTS
 10
1225.8228129900949
 20
28.318039390480411
 30
0.0
 40
5.0
  1
株式会社
  0
TEXT
  5
596
  8
DEFPOINTS
 10
1239.5847442277261
 20
58.999999999999552
 30
0.0
 40
4.0
  1
設計
  7
表題
 72
     2
 11
1250.1414452586539
 21
58.999999999999552
 31
0.0
  0
LINE
  5
597
  8
DEFPOINTS
 10
1238.0
 20
85.999999999999716
 30
0.0
 11
1238.0
 21
42.0
 31
0.0
  0
LINE
  5
598
  8
DEFPOINTS
 10
1234.0
 20
134.0
 30
0.0
 11
1234.0
 21
85.999999999999545
 31
0.0
  0
LINE
  5
59A
  8
DEFPOINTS
 10
1302.0
 20
134.0
 30
0.0
 11
1302.0
 21
20.0
 31
0.0
  0
TEXT
  5
59D
  8
DEFPOINTS
 10
1303.552177953402
 20
80.999999999999545
 30
0.0
 40
4.0
  1
名称
  7
表題
 72
     2
 11
1314.10887898433
 21
80.999999999999545
 31
0.0
  0
TEXT
  5
59E
  8
DEFPOINTS
 10
1303.9002106411519
 20
36.999999999999552
 30
0.0
 40
4.0
  1
図面番号
  7
表題
 72
     2
 11
1325.0136127030071
 21
36.999999999999552
 31
0.0
  0
LINE
  5
59F
  8
DEFPOINTS
 10
1282.0
 20
134.0
 30
0.0
 11
1282.0
 21
85.999999999999545
 31
0.0
  0
LINE
  5
5A0
  8
DEFPOINTS
 10
1322.0
 20
134.0
 30
0.0
 11
1322.0
 21
85.999999999999545
 31
0.0
  0
LINE
  5
5A1
  8
DEFPOINTS
 10
1342.0
 20
134.0
 30
0.0
 11
1342.0
 21
85.999999999999545
 31
0.0
  0
TEXT
  5
5A2
  8
DEFPOINTS
 10
1148.1181079394751
 20
23.252432152093661
 30
0.0
 40
7.5
  1
角法
  7
表題
  0
TEXT
  5
5A4
  8
DEFPOINTS
 10
1148.1181079394751
 20
33.252432152093661
 30
0.0
 40
7.5
  1
第３
  7
表題
  0
TEXT
  5
102B
  8
DEFPOINTS
 10
1180.6082474226801
 20
91.139175257731338
 30
0.0
 40
6.0
  1
部　品　名
  7
表題
  0
TEXT
  5
102C
  8
DEFPOINTS
 10
1245.0
 20
92.0
 30
0.0
 40
6.0
  1
材　 質
  7
表題
  0
TEXT
  5
102D
  8
DEFPOINTS
 10
1350.0
 20
91.000000000000028
 30
0.0
 40
6.0
  1
　摘　　　要
  7
表題
 72
     1
 11
1373.7525773195871
 21
91.000000000000028
 31
0.0
  0
TEXT
  5
102E
  8
DEFPOINTS
 10
1302.5734800632349
 20
94.806774942158384
 30
0.0
 40
3.0
  1
1セット分
  7
表題
 72
     2
 11
1321.3466759395239
 21
94.806774942158384
 31
0.0
  0
TEXT
  5
102F
  8
DEFPOINTS
 10
1308.409056037216
 20
89.670164660350054
 30
0.0
 40
3.0
  1
個数
  7
表題
 72
     2
 11
1316.3265818104121
 21
89.670164660350054
 31
0.0
  0
TEXT
  5
1030
  8
DEFPOINTS
 10
1285.644041939046
 20
94.80677494215864
 30
0.0
 40
3.0
  1
1台分
  7
表題
 72
     2
 11
1296.499712042139
 21
94.80677494215864
 31
0.0
  0
TEXT
  5
1031
  8
DEFPOINTS
 10
1287.409056037216
 20
89.670164660350309
 30
0.0
 40
3.0
  1
個数
  7
表題
 72
     2
 11
1295.326581810411
 21
89.670164660350309
 31
0.0
  0
TEXT
  5
1032
  8
DEFPOINTS
 10
1325.0
 20
91.000000000000028
 30
0.0
 40
6.0
  1
総数
  7
表題
  0
TEXT
  5
1033
  8
DEFPOINTS
 10
1144.2525773195871
 20
91.466761905627664
 30
0.0
 40
6.0
  1
番号
  7
表題
  0
LINE
  5
1091
  8
DEFPOINTS
  6
CENTER
 10
1014.0
 20
594.0
 30
0.0
 11
1014.0
 21
0.0
 31
0.0
  0
INSERT
  5
2DA2
  8
DEFPOINTS
  2
A$C0C1533B0
 10
1214.2928129900949
 20
26.298039390480881
 30
0.0
 41
2.0
 42
2.0
 43
2.0
  0
LINE
  5
45FC
  8
DEFPOINTS
 10
1393.0
 20
42.0
 30
0.0
 11
1393.0
 21
20.0
 31
0.0
  0
INSERT
  5
4647
  8
011形状
  2
*U36
 10
0.0
 20
0.0
 30
0.0
  0
INSERT
  5
4648
  8
011形状
  2
*U37
 10
0.0
 20
0.0
 30
0.0
  0
INSERT
  5
4649
  8
011形状
  2
*U38
 10
0.0
 20
0.0
 30
0.0
  0
INSERT
  5
4681
  8
011形状
  2
*U39
 10
0.0
 20
0.0
 30
0.0
  0
INSERT
  5
4682
  8
011形状
  2
*U40
 10
0.0
 20
0.0
 30
0.0
  0
INSERT
  5
4683
  8
011形状
  2
*U41
 10
0.0
 20
0.0
 30
0.0
  0
INSERT
  5
475A
  8
011形状
  2
*U42
 10
0.0
 20
0.0
 30
0.0
  0
INSERT
  5
4A69
  8
011形状
  2
*U43
 10
0.0
 20
0.0
 30
0.0
  0
INSERT
  5
4A7A
  8
011形状
  2
*U44
 10
0.0
 20
0.0
 30
0.0
  0
LINE
  5
5540
  8
003注釈
 62
     1
 10
1129.2928932188131
 20
20.70710678118655
 30
0.0
 11
1116.707106781186
 21
33.292893218813447
 31
0.0
  0
LINE
  5
5544
  8
003注釈
 62
     1
 10
1129.2928932188131
 20
102.7071067811865
 30
0.0
 11
1116.6560304674381
 21
117.2452655925477
 31
0.0
  0
LINE
  5
5545
  8
003注釈
 62
     1
 10
1129.2928932188131
 20
118.7071067811865
 30
0.0
 11
1116.6560304674381
 21
133.2452655925477
 31
0.0
  0
INSERT
  5
627B
  8
011形状
  2
*U45
 10
0.0
 20
0.0
 30
0.0
1001
ACAD
1000
DSTYLE
1002
{
1070
    41
1040
2.5
1002
}
  0
INSERT
  5
628A
  8
011形状
  2
*U46
 10
0.0
 20
0.0
 30
0.0
1001
ACAD
1000
DSTYLE
1002
{
1070
    41
1040
2.5
1002
}
  0
INSERT
  5
6470
  8
011形状
  2
*U47
 10
0.0
 20
0.0
 30
0.0
  0
LINE
  5
675D
  8
011形状
 10
801.0
 20
423.5
 30
0.0
 11
801.0
 21
316.5
 31
0.0
  0
LINE
  5
675E
  8
011形状
 10
903.0
 20
316.5
 30
0.0
 11
903.0
 21
423.5
 31
0.0
  0
LINE
  5
675F
  8
011形状
 10
800.0
 20
422.49999999999989
 30
0.0
 11
801.0
 21
423.5
 31
0.0
  0
LINE
  5
6760
  8
011形状
 10
800.0
 20
422.49999999999989
 30
0.0
 11
800.0
 21
317.5
 31
0.0
  0
LINE
  5
6761
  8
011形状
 10
801.0
 20
316.5
 30
0.0
 11
800.0
 21
317.5
 31
0.0
  0
LINE
  5
6762
  8
011形状
 10
904.0
 20
317.5
 30
0.0
 11
903.0
 21
316.5
 31
0.0
  0
LINE
  5
6763
  8
011形状
 10
904.0
 20
317.5
 30
0.0
 11
904.0
 21
422.49999999999989
 31
0.0
  0
LINE
  5
6764
  8
011形状
 10
903.0
 20
423.5
 30
0.0
 11
904.0
 21
422.49999999999989
 31
0.0
  0
LINE
  5
6765
  8
011形状
 10
904.0
 20
421.49999999999989
 30
0.0
 11
905.0
 21
420.5
 31
0.0
  0
LINE
  5
6766
  8
011形状
 10
905.0
 20
420.5
 30
0.0
 11
905.0
 21
319.5
 31
0.0
  0
LINE
  5
6767
  8
011形状
 10
905.0
 20
319.5
 30
0.0
 11
904.0
 21
318.5
 31
0.0
  0
LINE
  5
6768
  8
011形状
 10
905.0
 20
413.7701812759999
 30
0.0
 11
905.0
 21
406.7701812759999
 31
0.0
  0
LINE
  5
6769
  8
011形状
 10
905.0
 20
413.7701812759999
 30
0.0
 11
906.20000000000005
 21
413.67018127599999
 31
0.0
  0
LINE
  5
676A
  8
011形状
 10
905.0
 20
406.7701812759999
 30
0.0
 11
906.20000000000005
 21
406.87018127599993
 31
0.0
  0
ARC
  5
676B
  8
011形状
 10
905.89999999999986
 20
408.37018127599998
 30
0.0
 40
1.5
 50
280.99999999999932
 51
337.60000000000048
  0
ARC
  5
676C
  8
011形状
 10
905.89999999999986
 20
412.17018127599988
 30
0.0
 40
1.5
 50
22.399999999999459
 51
79.000000000000696
  0
ARC
  5
676D
  8
011形状
 10
897.79999999999995
 20
410.2701812759999
 30
0.0
 40
9.8000000000000007
 50
345.79999999999978
 51
14.300000000000949
  0
LINE
  5
676E
  8
001センタ
 10
909.60000000000002
 20
410.2701812759999
 30
0.0
 11
901.0
 21
410.2701812759999
 31
0.0
  0
LINE
  5
676F
  8
011形状
 10
905.0
 20
373.5
 30
0.0
 11
905.0
 21
366.5
 31
0.0
  0
LINE
  5
6770
  8
011形状
 10
905.0
 20
373.5
 30
0.0
 11
906.20000000000005
 21
373.39999999999998
 31
0.0
  0
LINE
  5
6771
  8
011形状
 10
905.0
 20
366.5
 30
0.0
 11
906.20000000000005
 21
366.60000000000002
 31
0.0
  0
ARC
  5
6772
  8
011形状
 10
905.89999999999986
 20
368.10000000000002
 30
0.0
 40
1.5
 50
280.99999999999932
 51
337.60000000000048
  0
ARC
  5
6773
  8
011形状
 10
905.89999999999986
 20
371.89999999999998
 30
0.0
 40
1.5
 50
22.399999999999459
 51
79.000000000000696
  0
ARC
  5
6774
  8
011形状
 10
897.79999999999995
 20
370.0
 30
0.0
 40
9.8000000000000007
 50
345.79999999999978
 51
14.300000000000949
  0
LINE
  5
6775
  8
011形状
 10
905.0
 20
326.22981872399998
 30
0.0
 11
905.0
 21
333.2298187240001
 31
0.0
  0
LINE
  5
6776
  8
011形状
 10
905.0
 20
326.22981872399998
 30
0.0
 11
906.20000000000005
 21
326.32981872400001
 31
0.0
  0
LINE
  5
6777
  8
011形状
 10
905.0
 20
333.2298187240001
 30
0.0
 11
906.20000000000005
 21
333.12981872400002
 31
0.0
  0
ARC
  5
6778
  8
011形状
 10
905.89999999999986
 20
331.62981872400002
 30
0.0
 40
1.5
 50
22.399999999999459
 51
79.000000000000696
  0
ARC
  5
6779
  8
011形状
 10
905.89999999999986
 20
327.82981872400001
 30
0.0
 40
1.5
 50
280.99999999999932
 51
337.60000000000048
  0
ARC
  5
677A
  8
011形状
 10
897.79999999999995
 20
329.72981872399998
 30
0.0
 40
9.8000000000000007
 50
345.69999999999908
 51
14.20000000000023
  0
LINE
  5
677B
  8
001センタ
 10
909.60000000000002
 20
329.72981872399998
 30
0.0
 11
901.0
 21
329.72981872399998
 31
0.0
  0
LINE
  5
677C
  8
011形状
 10
897.49999999999989
 20
423.5
 30
0.0
 11
903.0
 21
423.5
 31
0.0
  0
LINE
  5
677D
  8
011形状
 10
801.0
 20
423.5
 30
0.0
 11
806.49999999999989
 21
423.5
 31
0.0
  0
LINE
  5
677E
  8
011形状
 10
801.0
 20
316.5
 30
0.0
 11
806.49999999999989
 21
316.5
 31
0.0
  0
LINE
  5
677F
  8
011形状
 10
897.49999999999989
 20
316.5
 30
0.0
 11
903.0
 21
316.5
 31
0.0
  0
POINT
  5
6780
  8
011形状
 10
728.0
 20
387.0
 30
0.0
  0
POINT
  5
6781
  8
011形状
 10
728.0
 20
387.0
 30
0.0
  0
POINT
  5
6782
  8
011形状
 10
728.0
 20
387.0
 30
0.0
  0
LINE
  5
6783
  8
001センタ
 10
773.0
 20
377.5
 30
0.0
 11
773.0
 21
362.5
 31
0.0
  0
POINT
  5
6784
  8
011形状
 10
1028.0
 20
387.0
 30
0.0
  0
POINT
  5
6785
  8
011形状
 10
1028.0
 20
387.0
 30
0.0
  0
LINE
  5
6786
  8
001センタ
 10
983.0
 20
377.5
 30
0.0
 11
983.0
 21
362.5
 31
0.0
  0
LINE
  5
6787
  8
011形状
 10
846.0
 20
357.0
 30
0.0
 11
895.0
 21
357.0
 31
0.0
  0
LINE
  5
6788
  8
011形状
 10
895.0
 20
357.0
 30
0.0
 11
895.0
 21
383.0
 31
0.0
  0
LINE
  5
6789
  8
011形状
 10
895.0
 20
383.0
 30
0.0
 11
846.0
 21
383.0
 31
0.0
  0
LINE
  5
678A
  8
011形状
 10
846.0
 20
383.0
 30
0.0
 11
846.0
 21
357.0
 31
0.0
  0
LINE
  5
678B
  8
011形状
 10
872.0
 20
383.0
 30
0.0
 11
872.0
 21
357.0
 31
0.0
  0
CIRCLE
  5
678C
  8
011形状
 10
849.0
 20
380.0
 30
0.0
 40
2.7999999999999989
  0
LINE
  5
678D
  8
001センタ
 10
844.70000000000005
 20
380.0
 30
0.0
 11
853.29999999999995
 21
380.0
 31
0.0
  0
LINE
  5
678E
  8
001センタ
 10
849.0
 20
375.69999999999999
 30
0.0
 11
849.0
 21
384.30000000000001
 31
0.0
  0
LINE
  5
678F
  8
011形状
 10
849.29999999999995
 20
378.19999999999999
 30
0.0
 11
848.70000000000005
 21
378.19999999999999
 31
0.0
  0
LINE
  5
6790
  8
011形状
 10
847.20000000000005
 20
379.69999999999999
 30
0.0
 11
847.20000000000005
 21
380.30000000000001
 31
0.0
  0
LINE
  5
6791
  8
011形状
 10
849.29999999999995
 20
381.80000000000001
 30
0.0
 11
848.70000000000005
 21
381.80000000000001
 31
0.0
  0
LINE
  5
6792
  8
011形状
 10
850.79999999999995
 20
379.69999999999999
 30
0.0
 11
850.79999999999995
 21
380.30000000000001
 31
0.0
  0
LINE
  5
6793
  8
011形状
 10
849.29999999999995
 20
381.80000000000001
 30
0.0
 11
849.29999999999995
 21
381.19999999999999
 31
0.0
  0
LINE
  5
6794
  8
011形状
 10
850.79999999999995
 20
380.30000000000001
 30
0.0
 11
850.20000000000005
 21
380.30000000000001
 31
0.0
  0
LINE
  5
6795
  8
011形状
 10
850.79999999999995
 20
379.69999999999999
 30
0.0
 11
850.20000000000005
 21
379.69999999999999
 31
0.0
  0
LINE
  5
6796
  8
011形状
 10
848.70000000000005
 20
378.19999999999999
 30
0.0
 11
848.70000000000005
 21
378.80000000000001
 31
0.0
  0
LINE
  5
6797
  8
011形状
 10
847.20000000000005
 20
380.30000000000001
 30
0.0
 11
847.79999999999995
 21
380.30000000000001
 31
0.0
  0
LINE
  5
6798
  8
011形状
 10
849.29999999999995
 20
381.80000000000001
 30
0.0
 11
849.29999999999995
 21
381.19999999999999
 31
0.0
  0
LINE
  5
6799
  8
011形状
 10
848.70000000000005
 20
381.80000000000001
 30
0.0
 11
848.70000000000005
 21
381.19999999999999
 31
0.0
  0
LINE
  5
679A
  8
011形状
 10
847.20000000000005
 20
379.69999999999999
 30
0.0
 11
847.79999999999995
 21
379.69999999999999
 31
0.0
  0
LINE
  5
679B
  8
011形状
 10
849.29999999999995
 20
378.19999999999999
 30
0.0
 11
849.29999999999995
 21
378.80000000000001
 31
0.0
  0
ARC
  5
679C
  8
011形状
 10
847.89999999999986
 20
381.10000000000002
 30
0.0
 40
0.8
 50
262.30000000000069
 51
7.6999999999984681
  0
ARC
  5
679D
  8
011形状
 10
847.89999999999986
 20
378.89999999999998
 30
0.0
 40
0.8
 50
352.3000000000016
 51
97.699999999999349
  0
ARC
  5
679E
  8
011形状
 10
850.10000000000014
 20
378.89999999999998
 30
0.0
 40
0.8
 50
82.300000000000665
 51
187.69999999999851
  0
ARC
  5
679F
  8
011形状
 10
850.10000000000014
 20
381.10000000000002
 30
0.0
 40
0.8
 50
172.30000000000149
 51
277.69999999999931
  0
CIRCLE
  5
67A0
  8
011形状
 10
869.0
 20
380.0
 30
0.0
 40
2.7999999999999989
  0
LINE
  5
67A1
  8
001センタ
 10
864.70000000000005
 20
380.0
 30
0.0
 11
873.29999999999995
 21
380.0
 31
0.0
  0
LINE
  5
67A2
  8
001センタ
 10
869.0
 20
375.69999999999999
 30
0.0
 11
869.0
 21
384.30000000000001
 31
0.0
  0
LINE
  5
67A3
  8
011形状
 10
869.29999999999995
 20
378.19999999999999
 30
0.0
 11
868.70000000000005
 21
378.19999999999999
 31
0.0
  0
LINE
  5
67A4
  8
011形状
 10
867.20000000000005
 20
379.69999999999999
 30
0.0
 11
867.20000000000005
 21
380.30000000000001
 31
0.0
  0
LINE
  5
67A5
  8
011形状
 10
869.29999999999995
 20
381.80000000000001
 30
0.0
 11
868.70000000000005
 21
381.80000000000001
 31
0.0
  0
LINE
  5
67A6
  8
011形状
 10
870.79999999999995
 20
379.69999999999999
 30
0.0
 11
870.79999999999995
 21
380.30000000000001
 31
0.0
  0
LINE
  5
67A7
  8
011形状
 10
869.29999999999995
 20
381.80000000000001
 30
0.0
 11
869.29999999999995
 21
381.19999999999999
 31
0.0
  0
LINE
  5
67A8
  8
011形状
 10
870.79999999999995
 20
380.30000000000001
 30
0.0
 11
870.19999999999993
 21
380.30000000000001
 31
0.0
  0
LINE
  5
67A9
  8
011形状
 10
870.79999999999995
 20
379.69999999999999
 30
0.0
 11
870.19999999999993
 21
379.69999999999999
 31
0.0
  0
LINE
  5
67AA
  8
011形状
 10
868.70000000000005
 20
378.19999999999999
 30
0.0
 11
868.70000000000005
 21
378.80000000000001
 31
0.0
  0
LINE
  5
67AB
  8
011形状
 10
867.20000000000005
 20
380.30000000000001
 30
0.0
 11
867.79999999999995
 21
380.30000000000001
 31
0.0
  0
LINE
  5
67AC
  8
011形状
 10
869.29999999999995
 20
381.80000000000001
 30
0.0
 11
869.29999999999995
 21
381.19999999999999
 31
0.0
  0
LINE
  5
67AD
  8
011形状
 10
868.70000000000005
 20
381.80000000000001
 30
0.0
 11
868.70000000000005
 21
381.19999999999999
 31
0.0
  0
LINE
  5
67AE
  8
011形状
 10
867.20000000000005
 20
379.69999999999999
 30
0.0
 11
867.79999999999995
 21
379.69999999999999
 31
0.0
  0
LINE
  5
67AF
  8
011形状
 10
869.29999999999995
 20
378.19999999999999
 30
0.0
 11
869.29999999999995
 21
378.80000000000001
 31
0.0
  0
ARC
  5
67B0
  8
011形状
 10
867.89999999999998
 20
381.10000000000002
 30
0.0
 40
0.8
 50
262.30000000000069
 51
7.6999999999984681
  0
ARC
  5
67B1
  8
011形状
 10
867.89999999999998
 20
378.89999999999998
 30
0.0
 40
0.8
 50
352.3000000000016
 51
97.699999999999349
  0
ARC
  5
67B2
  8
011形状
 10
870.10000000000002
 20
378.89999999999998
 30
0.0
 40
0.8
 50
82.300000000000665
 51
187.69999999999851
  0
ARC
  5
67B3
  8
011形状
 10
870.10000000000002
 20
381.10000000000002
 30
0.0
 40
0.8
 50
172.30000000000149
 51
277.69999999999931
  0
CIRCLE
  5
67B4
  8
011形状
 10
849.0
 20
360.0
 30
0.0
 40
2.7999999999999989
  0
LINE
  5
67B5
  8
001センタ
 10
844.70000000000005
 20
360.0
 30
0.0
 11
853.29999999999995
 21
360.0
 31
0.0
  0
LINE
  5
67B6
  8
001センタ
 10
849.0
 20
364.30000000000001
 30
0.0
 11
849.0
 21
355.69999999999999
 31
0.0
  0
LINE
  5
67B7
  8
011形状
 10
849.29999999999995
 20
361.80000000000001
 30
0.0
 11
848.70000000000005
 21
361.80000000000001
 31
0.0
  0
LINE
  5
67B8
  8
011形状
 10
847.20000000000005
 20
360.30000000000001
 30
0.0
 11
847.20000000000005
 21
359.69999999999999
 31
0.0
  0
LINE
  5
67B9
  8
011形状
 10
849.29999999999995
 20
358.19999999999999
 30
0.0
 11
848.70000000000005
 21
358.19999999999999
 31
0.0
  0
LINE
  5
67BA
  8
011形状
 10
850.79999999999995
 20
360.30000000000001
 30
0.0
 11
850.79999999999995
 21
359.69999999999999
 31
0.0
  0
LINE
  5
67BB
  8
011形状
 10
849.29999999999995
 20
358.19999999999999
 30
0.0
 11
849.29999999999995
 21
358.80000000000001
 31
0.0
  0
LINE
  5
67BC
  8
011形状
 10
850.79999999999995
 20
359.69999999999999
 30
0.0
 11
850.20000000000005
 21
359.69999999999999
 31
0.0
  0
LINE
  5
67BD
  8
011形状
 10
850.79999999999995
 20
360.30000000000001
 30
0.0
 11
850.20000000000005
 21
360.30000000000001
 31
0.0
  0
LINE
  5
67BE
  8
011形状
 10
848.70000000000005
 20
361.80000000000001
 30
0.0
 11
848.70000000000005
 21
361.19999999999999
 31
0.0
  0
LINE
  5
67BF
  8
011形状
 10
847.20000000000005
 20
359.69999999999999
 30
0.0
 11
847.79999999999995
 21
359.69999999999999
 31
0.0
  0
LINE
  5
67C0
  8
011形状
 10
849.29999999999995
 20
358.19999999999999
 30
0.0
 11
849.29999999999995
 21
358.80000000000001
 31
0.0
  0
LINE
  5
67C1
  8
011形状
 10
848.70000000000005
 20
358.19999999999999
 30
0.0
 11
848.70000000000005
 21
358.80000000000001
 31
0.0
  0
LINE
  5
67C2
  8
011形状
 10
847.20000000000005
 20
360.30000000000001
 30
0.0
 11
847.79999999999995
 21
360.30000000000001
 31
0.0
  0
LINE
  5
67C3
  8
011形状
 10
849.29999999999995
 20
361.80000000000001
 30
0.0
 11
849.29999999999995
 21
361.19999999999999
 31
0.0
  0
ARC
  5
67C4
  8
011形状
 10
847.89999999999986
 20
358.89999999999998
 30
0.0
 40
0.8
 50
352.3000000000016
 51
97.699999999999349
  0
ARC
  5
67C5
  8
011形状
 10
847.89999999999986
 20
361.10000000000002
 30
0.0
 40
0.8
 50
262.30000000000069
 51
7.6999999999984681
  0
ARC
  5
67C6
  8
011形状
 10
850.10000000000014
 20
361.10000000000002
 30
0.0
 40
0.8
 50
172.30000000000149
 51
277.69999999999931
  0
ARC
  5
67C7
  8
011形状
 10
850.10000000000014
 20
358.89999999999998
 30
0.0
 40
0.8
 50
82.300000000000665
 51
187.69999999999851
  0
CIRCLE
  5
67C8
  8
011形状
 10
869.0
 20
360.0
 30
0.0
 40
2.7999999999999989
  0
LINE
  5
67C9
  8
001センタ
 10
864.70000000000005
 20
360.0
 30
0.0
 11
873.29999999999995
 21
360.0
 31
0.0
  0
LINE
  5
67CA
  8
001センタ
 10
869.0
 20
364.30000000000001
 30
0.0
 11
869.0
 21
355.69999999999999
 31
0.0
  0
LINE
  5
67CB
  8
011形状
 10
869.29999999999995
 20
361.80000000000001
 30
0.0
 11
868.70000000000005
 21
361.80000000000001
 31
0.0
  0
LINE
  5
67CC
  8
011形状
 10
867.20000000000005
 20
360.30000000000001
 30
0.0
 11
867.20000000000005
 21
359.69999999999999
 31
0.0
  0
LINE
  5
67CD
  8
011形状
 10
869.29999999999995
 20
358.19999999999999
 30
0.0
 11
868.70000000000005
 21
358.19999999999999
 31
0.0
  0
LINE
  5
67CE
  8
011形状
 10
870.79999999999995
 20
360.30000000000001
 30
0.0
 11
870.79999999999995
 21
359.69999999999999
 31
0.0
  0
LINE
  5
67CF
  8
011形状
 10
869.29999999999995
 20
358.19999999999999
 30
0.0
 11
869.29999999999995
 21
358.80000000000001
 31
0.0
  0
LINE
  5
67D0
  8
011形状
 10
870.79999999999995
 20
359.69999999999999
 30
0.0
 11
870.19999999999993
 21
359.69999999999999
 31
0.0
  0
LINE
  5
67D1
  8
011形状
 10
870.79999999999995
 20
360.30000000000001
 30
0.0
 11
870.19999999999993
 21
360.30000000000001
 31
0.0
  0
LINE
  5
67D2
  8
011形状
 10
868.70000000000005
 20
361.80000000000001
 30
0.0
 11
868.70000000000005
 21
361.19999999999999
 31
0.0
  0
LINE
  5
67D3
  8
011形状
 10
867.20000000000005
 20
359.69999999999999
 30
0.0
 11
867.79999999999995
 21
359.69999999999999
 31
0.0
  0
LINE
  5
67D4
  8
011形状
 10
869.29999999999995
 20
358.19999999999999
 30
0.0
 11
869.29999999999995
 21
358.80000000000001
 31
0.0
  0
LINE
  5
67D5
  8
011形状
 10
868.70000000000005
 20
358.19999999999999
 30
0.0
 11
868.70000000000005
 21
358.80000000000001
 31
0.0
  0
LINE
  5
67D6
  8
011形状
 10
867.20000000000005
 20
360.30000000000001
 30
0.0
 11
867.79999999999995
 21
360.30000000000001
 31
0.0
  0
LINE
  5
67D7
  8
011形状
 10
869.29999999999995
 20
361.80000000000001
 30
0.0
 11
869.29999999999995
 21
361.19999999999999
 31
0.0
  0
ARC
  5
67D8
  8
011形状
 10
867.89999999999998
 20
358.89999999999998
 30
0.0
 40
0.8
 50
352.3000000000016
 51
97.699999999999349
  0
ARC
  5
67D9
  8
011形状
 10
867.89999999999998
 20
361.10000000000002
 30
0.0
 40
0.8
 50
262.30000000000069
 51
7.6999999999984681
  0
ARC
  5
67DA
  8
011形状
 10
870.10000000000002
 20
361.10000000000002
 30
0.0
 40
0.8
 50
172.30000000000149
 51
277.69999999999931
  0
ARC
  5
67DB
  8
011形状
 10
870.10000000000002
 20
358.89999999999998
 30
0.0
 40
0.8
 50
82.300000000000665
 51
187.69999999999851
  0
LINE
  5
67DC
  8
001センタ
 10
883.5
 20
383.0
 30
0.0
 11
883.5
 21
357.0
 31
0.0
  0
CIRCLE
  5
67DD
  8
011形状
 10
883.5
 20
370.0
 30
0.0
 40
8.0
  0
CIRCLE
  5
67DE
  8
011形状
 10
883.5
 20
370.0
 30
0.0
 40
6.4000000000000004
  0
CIRCLE
  5
67DF
  8
011形状
 10
883.5
 20
370.0
 30
0.0
 40
5.0
  0
LINE
  5
67E0
  8
011形状
 10
873.0
 20
378.5
 30
0.0
 11
873.0
 21
361.5
 31
0.0
  0
ARC
  5
67E1
  8
011形状
 10
875.0
 20
378.5
 30
0.0
 40
2.0
 50
90.0
 51
180.0
  0
LINE
  5
67E2
  8
011形状
 10
892.0
 20
380.5
 30
0.0
 11
875.0
 21
380.5
 31
0.0
  0
CIRCLE
  5
67E3
  8
011形状
 10
875.5
 20
378.0
 30
0.0
 40
2.1000000000000001
  0
LINE
  5
67E4
  8
011形状
 10
876.75999999999988
 20
378.20999999999998
 30
0.0
 11
876.75999999999988
 21
377.79000000000002
 31
0.0
  0
LINE
  5
67E5
  8
011形状
 10
875.71000000000015
 20
376.74000000000001
 30
0.0
 11
875.28999999999996
 21
376.74000000000001
 31
0.0
  0
LINE
  5
67E6
  8
011形状
 10
874.2399999999999
 20
378.20999999999998
 30
0.0
 11
874.2399999999999
 21
377.79000000000002
 31
0.0
  0
LINE
  5
67E7
  8
011形状
 10
875.71000000000015
 20
379.25999999999999
 30
0.0
 11
875.28999999999996
 21
379.25999999999999
 31
0.0
  0
LINE
  5
67E8
  8
011形状
 10
874.2399999999999
 20
378.20999999999998
 30
0.0
 11
874.65999999999997
 21
378.20999999999998
 31
0.0
  0
LINE
  5
67E9
  8
011形状
 10
875.28999999999996
 20
379.25999999999999
 30
0.0
 11
875.28999999999996
 21
378.83999999999997
 31
0.0
  0
LINE
  5
67EA
  8
011形状
 10
875.71000000000015
 20
379.25999999999999
 30
0.0
 11
875.71000000000015
 21
378.83999999999997
 31
0.0
  0
LINE
  5
67EB
  8
011形状
 10
876.75999999999988
 20
377.79000000000002
 30
0.0
 11
876.3399999999998
 21
377.79000000000002
 31
0.0
  0
LINE
  5
67EC
  8
011形状
 10
875.28999999999996
 20
376.74000000000001
 30
0.0
 11
875.28999999999996
 21
377.16000000000003
 31
0.0
  0
LINE
  5
67ED
  8
011形状
 10
874.2399999999999
 20
378.20999999999998
 30
0.0
 11
874.65999999999997
 21
378.20999999999998
 31
0.0
  0
LINE
  5
67EE
  8
011形状
 10
874.2399999999999
 20
377.79000000000002
 30
0.0
 11
874.65999999999997
 21
377.79000000000002
 31
0.0
  0
LINE
  5
67EF
  8
011形状
 10
875.71000000000015
 20
376.74000000000001
 30
0.0
 11
875.71000000000015
 21
377.16000000000003
 31
0.0
  0
LINE
  5
67F0
  8
011形状
 10
876.75999999999988
 20
378.20999999999998
 30
0.0
 11
876.3399999999998
 21
378.20999999999998
 31
0.0
  0
ARC
  5
67F1
  8
011形状
 10
874.73000000000002
 20
377.23000000000002
 30
0.0
 40
0.5600000000000001
 50
352.3000000000016
 51
97.699999999999349
  0
ARC
  5
67F2
  8
011形状
 10
876.26999999999998
 20
377.23000000000002
 30
0.0
 40
0.5600000000000001
 50
82.300000000000665
 51
187.69999999999851
  0
ARC
  5
67F3
  8
011形状
 10
876.26999999999998
 20
378.76999999999998
 30
0.0
 40
0.5600000000000001
 50
172.30000000000149
 51
277.69999999999931
  0
ARC
  5
67F4
  8
011形状
 10
874.73000000000002
 20
378.76999999999998
 30
0.0
 40
0.5600000000000001
 50
262.30000000000069
 51
7.6999999999984681
  0
LINE
  5
67F5
  8
001センタ
 10
875.5
 20
380.5
 30
0.0
 11
875.5
 21
375.5
 31
0.0
  0
LINE
  5
67F6
  8
001センタ
 10
878.0
 20
378.0
 30
0.0
 11
873.0
 21
378.0
 31
0.0
  0
LINE
  5
67F7
  8
011形状
 10
894.0
 20
378.5
 30
0.0
 11
894.0
 21
361.5
 31
0.0
  0
ARC
  5
67F8
  8
011形状
 10
892.0
 20
378.5
 30
0.0
 40
2.0
 50
0.0
 51
90.0
  0
CIRCLE
  5
67F9
  8
011形状
 10
891.5
 20
378.0
 30
0.0
 40
2.1000000000000001
  0
LINE
  5
67FA
  8
011形状
 10
892.75999999999988
 20
378.20999999999998
 30
0.0
 11
892.75999999999988
 21
377.79000000000002
 31
0.0
  0
LINE
  5
67FB
  8
011形状
 10
891.71000000000015
 20
376.74000000000001
 30
0.0
 11
891.28999999999996
 21
376.74000000000001
 31
0.0
  0
LINE
  5
67FC
  8
011形状
 10
890.24000000000001
 20
378.20999999999998
 30
0.0
 11
890.24000000000001
 21
377.79000000000002
 31
0.0
  0
LINE
  5
67FD
  8
011形状
 10
891.71000000000015
 20
379.25999999999999
 30
0.0
 11
891.28999999999996
 21
379.25999999999999
 31
0.0
  0
LINE
  5
67FE
  8
011形状
 10
890.24000000000001
 20
378.20999999999998
 30
0.0
 11
890.65999999999997
 21
378.20999999999998
 31
0.0
  0
LINE
  5
67FF
  8
011形状
 10
891.28999999999996
 20
379.25999999999999
 30
0.0
 11
891.28999999999996
 21
378.83999999999997
 31
0.0
  0
LINE
  5
6800
  8
011形状
 10
891.71000000000015
 20
379.25999999999999
 30
0.0
 11
891.71000000000015
 21
378.83999999999997
 31
0.0
  0
LINE
  5
6801
  8
011形状
 10
892.75999999999988
 20
377.79000000000002
 30
0.0
 11
892.33999999999992
 21
377.79000000000002
 31
0.0
  0
LINE
  5
6802
  8
011形状
 10
891.28999999999996
 20
376.74000000000001
 30
0.0
 11
891.28999999999996
 21
377.16000000000003
 31
0.0
  0
LINE
  5
6803
  8
011形状
 10
890.24000000000001
 20
378.20999999999998
 30
0.0
 11
890.65999999999997
 21
378.20999999999998
 31
0.0
  0
LINE
  5
6804
  8
011形状
 10
890.24000000000001
 20
377.79000000000002
 30
0.0
 11
890.65999999999997
 21
377.79000000000002
 31
0.0
  0
LINE
  5
6805
  8
011形状
 10
891.71000000000015
 20
376.74000000000001
 30
0.0
 11
891.71000000000015
 21
377.16000000000003
 31
0.0
  0
LINE
  5
6806
  8
011形状
 10
892.75999999999988
 20
378.20999999999998
 30
0.0
 11
892.33999999999992
 21
378.20999999999998
 31
0.0
  0
ARC
  5
6807
  8
011形状
 10
890.73000000000013
 20
377.23000000000002
 30
0.0
 40
0.5600000000000001
 50
352.3000000000016
 51
97.699999999999349
  0
ARC
  5
6808
  8
011形状
 10
892.26999999999998
 20
377.23000000000002
 30
0.0
 40
0.5600000000000001
 50
82.300000000000665
 51
187.69999999999851
  0
ARC
  5
6809
  8
011形状
 10
892.26999999999998
 20
378.76999999999998
 30
0.0
 40
0.5600000000000001
 50
172.30000000000149
 51
277.69999999999931
  0
ARC
  5
680A
  8
011形状
 10
890.73000000000013
 20
378.76999999999998
 30
0.0
 40
0.5600000000000001
 50
262.30000000000069
 51
7.6999999999984681
  0
LINE
  5
680B
  8
001センタ
 10
894.0
 20
378.0
 30
0.0
 11
889.0
 21
378.0
 31
0.0
  0
LINE
  5
680C
  8
001センタ
 10
891.5
 20
380.64999999999998
 30
0.0
 11
891.5
 21
375.35000000000002
 31
0.0
  0
LINE
  5
680D
  8
011形状
 10
892.0
 20
359.5
 30
0.0
 11
875.0
 21
359.5
 31
0.0
  0
ARC
  5
680E
  8
011形状
 10
892.0
 20
361.5
 30
0.0
 40
2.0
 50
270.0
 51
0.0
  0
CIRCLE
  5
680F
  8
011形状
 10
891.5
 20
362.0
 30
0.0
 40
2.1000000000000001
  0
LINE
  5
6810
  8
011形状
 10
892.75999999999988
 20
362.20999999999998
 30
0.0
 11
892.75999999999988
 21
361.79000000000002
 31
0.0
  0
LINE
  5
6811
  8
011形状
 10
891.71000000000015
 20
360.74000000000001
 30
0.0
 11
891.28999999999996
 21
360.74000000000001
 31
0.0
  0
LINE
  5
6812
  8
011形状
 10
890.24000000000001
 20
362.20999999999998
 30
0.0
 11
890.24000000000001
 21
361.79000000000002
 31
0.0
  0
LINE
  5
6813
  8
011形状
 10
891.71000000000015
 20
363.25999999999999
 30
0.0
 11
891.28999999999996
 21
363.25999999999999
 31
0.0
  0
LINE
  5
6814
  8
011形状
 10
890.24000000000001
 20
362.20999999999998
 30
0.0
 11
890.65999999999997
 21
362.20999999999998
 31
0.0
  0
LINE
  5
6815
  8
011形状
 10
891.28999999999996
 20
363.25999999999999
 30
0.0
 11
891.28999999999996
 21
362.83999999999997
 31
0.0
  0
LINE
  5
6816
  8
011形状
 10
891.71000000000015
 20
363.25999999999999
 30
0.0
 11
891.71000000000015
 21
362.83999999999997
 31
0.0
  0
LINE
  5
6817
  8
011形状
 10
892.75999999999988
 20
361.79000000000002
 30
0.0
 11
892.33999999999992
 21
361.79000000000002
 31
0.0
  0
LINE
  5
6818
  8
011形状
 10
891.28999999999996
 20
360.74000000000001
 30
0.0
 11
891.28999999999996
 21
361.16000000000003
 31
0.0
  0
LINE
  5
6819
  8
011形状
 10
890.24000000000001
 20
362.20999999999998
 30
0.0
 11
890.65999999999997
 21
362.20999999999998
 31
0.0
  0
LINE
  5
681A
  8
011形状
 10
890.24000000000001
 20
361.79000000000002
 30
0.0
 11
890.65999999999997
 21
361.79000000000002
 31
0.0
  0
LINE
  5
681B
  8
011形状
 10
891.71000000000015
 20
360.74000000000001
 30
0.0
 11
891.71000000000015
 21
361.16000000000003
 31
0.0
  0
LINE
  5
681C
  8
011形状
 10
892.75999999999988
 20
362.20999999999998
 30
0.0
 11
892.33999999999992
 21
362.20999999999998
 31
0.0
  0
ARC
  5
681D
  8
011形状
 10
890.73000000000013
 20
361.23000000000002
 30
0.0
 40
0.5600000000000001
 50
352.3000000000016
 51
97.699999999999349
  0
ARC
  5
681E
  8
011形状
 10
892.26999999999998
 20
361.23000000000002
 30
0.0
 40
0.5600000000000001
 50
82.300000000000665
 51
187.69999999999851
  0
ARC
  5
681F
  8
011形状
 10
892.26999999999998
 20
362.76999999999998
 30
0.0
 40
0.5600000000000001
 50
172.30000000000149
 51
277.69999999999931
  0
ARC
  5
6820
  8
011形状
 10
890.73000000000013
 20
362.76999999999998
 30
0.0
 40
0.5600000000000001
 50
262.30000000000069
 51
7.6999999999984681
  0
LINE
  5
6821
  8
001センタ
 10
894.0
 20
362.0
 30
0.0
 11
889.0
 21
362.0
 31
0.0
  0
LINE
  5
6822
  8
001センタ
 10
891.5
 20
364.5
 30
0.0
 11
891.5
 21
359.55000000000001
 31
0.0
  0
ARC
  5
6823
  8
011形状
 10
875.0
 20
361.5
 30
0.0
 40
2.0
 50
180.0
 51
270.0
  0
CIRCLE
  5
6824
  8
011形状
 10
875.5
 20
362.0
 30
0.0
 40
2.1000000000000001
  0
LINE
  5
6825
  8
011形状
 10
876.75999999999988
 20
362.20999999999998
 30
0.0
 11
876.75999999999988
 21
361.79000000000002
 31
0.0
  0
LINE
  5
6826
  8
011形状
 10
875.71000000000015
 20
360.74000000000001
 30
0.0
 11
875.28999999999996
 21
360.74000000000001
 31
0.0
  0
LINE
  5
6827
  8
011形状
 10
874.2399999999999
 20
362.20999999999998
 30
0.0
 11
874.2399999999999
 21
361.79000000000002
 31
0.0
  0
LINE
  5
6828
  8
011形状
 10
875.71000000000015
 20
363.25999999999999
 30
0.0
 11
875.28999999999996
 21
363.25999999999999
 31
0.0
  0
LINE
  5
6829
  8
011形状
 10
874.2399999999999
 20
362.20999999999998
 30
0.0
 11
874.65999999999997
 21
362.20999999999998
 31
0.0
  0
LINE
  5
682A
  8
011形状
 10
875.28999999999996
 20
363.25999999999999
 30
0.0
 11
875.28999999999996
 21
362.83999999999997
 31
0.0
  0
LINE
  5
682B
  8
011形状
 10
875.71000000000015
 20
363.25999999999999
 30
0.0
 11
875.71000000000015
 21
362.83999999999997
 31
0.0
  0
LINE
  5
682C
  8
011形状
 10
876.75999999999988
 20
361.79000000000002
 30
0.0
 11
876.3399999999998
 21
361.79000000000002
 31
0.0
  0
LINE
  5
682D
  8
011形状
 10
875.28999999999996
 20
360.74000000000001
 30
0.0
 11
875.28999999999996
 21
361.16000000000003
 31
0.0
  0
LINE
  5
682E
  8
011形状
 10
874.2399999999999
 20
362.20999999999998
 30
0.0
 11
874.65999999999997
 21
362.20999999999998
 31
0.0
  0
LINE
  5
682F
  8
011形状
 10
874.2399999999999
 20
361.79000000000002
 30
0.0
 11
874.65999999999997
 21
361.79000000000002
 31
0.0
  0
LINE
  5
6830
  8
011形状
 10
875.71000000000015
 20
360.74000000000001
 30
0.0
 11
875.71000000000015
 21
361.16000000000003
 31
0.0
  0
LINE
  5
6831
  8
011形状
 10
876.75999999999988
 20
362.20999999999998
 30
0.0
 11
876.3399999999998
 21
362.20999999999998
 31
0.0
  0
ARC
  5
6832
  8
011形状
 10
874.73000000000002
 20
361.23000000000002
 30
0.0
 40
0.5600000000000001
 50
352.3000000000016
 51
97.699999999999349
  0
ARC
  5
6833
  8
011形状
 10
876.26999999999998
 20
361.23000000000002
 30
0.0
 40
0.5600000000000001
 50
82.300000000000665
 51
187.69999999999851
  0
ARC
  5
6834
  8
011形状
 10
876.26999999999998
 20
362.76999999999998
 30
0.0
 40
0.5600000000000001
 50
172.30000000000149
 51
277.69999999999931
  0
ARC
  5
6835
  8
011形状
 10
874.73000000000002
 20
362.76999999999998
 30
0.0
 40
0.5600000000000001
 50
262.30000000000069
 51
7.6999999999984681
  0
LINE
  5
6836
  8
001センタ
 10
875.5
 20
364.64999999999998
 30
0.0
 11
875.5
 21
359.5
 31
0.0
  0
LINE
  5
6837
  8
001センタ
 10
878.0
 20
362.0
 30
0.0
 11
873.0
 21
362.0
 31
0.0
  0
CIRCLE
  5
6838
  8
011形状
 10
809.0
 20
389.53105325000001
 30
0.0
 40
2.7999999999999989
  0
LINE
  5
6839
  8
001センタ
 10
804.70000000000005
 20
389.53105325000001
 30
0.0
 11
813.29999999999995
 21
389.53105325000001
 31
0.0
  0
LINE
  5
683A
  8
001センタ
 10
809.0
 20
385.23105325
 30
0.0
 11
809.0
 21
393.83105325000002
 31
0.0
  0
LINE
  5
683B
  8
011形状
 10
809.29999999999995
 20
387.73105325
 30
0.0
 11
808.69999999999993
 21
387.73105325
 31
0.0
  0
LINE
  5
683C
  8
011形状
 10
807.20000000000005
 20
389.23105325
 30
0.0
 11
807.20000000000005
 21
389.83105325000002
 31
0.0
  0
LINE
  5
683D
  8
011形状
 10
809.29999999999995
 20
391.33105325000002
 30
0.0
 11
808.69999999999993
 21
391.33105325000002
 31
0.0
  0
LINE
  5
683E
  8
011形状
 10
810.79999999999995
 20
389.23105325
 30
0.0
 11
810.79999999999995
 21
389.83105325000002
 31
0.0
  0
LINE
  5
683F
  8
011形状
 10
809.29999999999995
 20
391.33105325000002
 30
0.0
 11
809.29999999999995
 21
390.73105325
 31
0.0
  0
LINE
  5
6840
  8
011形状
 10
810.79999999999995
 20
389.83105325000002
 30
0.0
 11
810.20000000000005
 21
389.83105325000002
 31
0.0
  0
LINE
  5
6841
  8
011形状
 10
810.79999999999995
 20
389.23105325
 30
0.0
 11
810.20000000000005
 21
389.23105325
 31
0.0
  0
LINE
  5
6842
  8
011形状
 10
808.69999999999993
 20
387.73105325
 30
0.0
 11
808.69999999999993
 21
388.33105325000002
 31
0.0
  0
LINE
  5
6843
  8
011形状
 10
807.20000000000005
 20
389.83105325000002
 30
0.0
 11
807.79999999999995
 21
389.83105325000002
 31
0.0
  0
LINE
  5
6844
  8
011形状
 10
809.29999999999995
 20
391.33105325000002
 30
0.0
 11
809.29999999999995
 21
390.73105325
 31
0.0
  0
LINE
  5
6845
  8
011形状
 10
808.69999999999993
 20
391.33105325000002
 30
0.0
 11
808.69999999999993
 21
390.73105325
 31
0.0
  0
LINE
  5
6846
  8
011形状
 10
807.20000000000005
 20
389.23105325
 30
0.0
 11
807.79999999999995
 21
389.23105325
 31
0.0
  0
LINE
  5
6847
  8
011形状
 10
809.29999999999995
 20
387.73105325
 30
0.0
 11
809.29999999999995
 21
388.33105325000002
 31
0.0
  0
ARC
  5
6848
  8
011形状
 10
807.89999999999998
 20
390.63105324999998
 30
0.0
 40
0.8
 50
262.30000000000069
 51
7.6999999999984681
  0
ARC
  5
6849
  8
011形状
 10
807.89999999999998
 20
388.43105324999999
 30
0.0
 40
0.8
 50
352.3000000000016
 51
97.699999999999349
  0
ARC
  5
684A
  8
011形状
 10
810.10000000000002
 20
388.43105324999999
 30
0.0
 40
0.8
 50
82.300000000000665
 51
187.69999999999851
  0
ARC
  5
684B
  8
011形状
 10
810.10000000000002
 20
390.63105324999998
 30
0.0
 40
0.8
 50
172.30000000000149
 51
277.69999999999931
  0
CIRCLE
  5
684C
  8
011形状
 10
842.0
 20
389.53105325000001
 30
0.0
 40
2.7999999999999989
  0
LINE
  5
684D
  8
001センタ
 10
837.70000000000005
 20
389.53105325000001
 30
0.0
 11
846.29999999999995
 21
389.53105325000001
 31
0.0
  0
LINE
  5
684E
  8
001センタ
 10
842.0
 20
385.23105325
 30
0.0
 11
842.0
 21
393.83105325000002
 31
0.0
  0
LINE
  5
684F
  8
011形状
 10
842.29999999999995
 20
387.73105325
 30
0.0
 11
841.69999999999993
 21
387.73105325
 31
0.0
  0
LINE
  5
6850
  8
011形状
 10
840.20000000000005
 20
389.23105325
 30
0.0
 11
840.20000000000005
 21
389.83105325000002
 31
0.0
  0
LINE
  5
6851
  8
011形状
 10
842.29999999999995
 20
391.33105325000002
 30
0.0
 11
841.69999999999993
 21
391.33105325000002
 31
0.0
  0
LINE
  5
6852
  8
011形状
 10
843.79999999999984
 20
389.23105325
 30
0.0
 11
843.79999999999984
 21
389.83105325000002
 31
0.0
  0
LINE
  5
6853
  8
011形状
 10
842.29999999999995
 20
391.33105325000002
 30
0.0
 11
842.29999999999995
 21
390.73105325
 31
0.0
  0
LINE
  5
6854
  8
011形状
 10
843.79999999999984
 20
389.83105325000002
 30
0.0
 11
843.20000000000005
 21
389.83105325000002
 31
0.0
  0
LINE
  5
6855
  8
011形状
 10
843.79999999999984
 20
389.23105325
 30
0.0
 11
843.20000000000005
 21
389.23105325
 31
0.0
  0
LINE
  5
6856
  8
011形状
 10
841.69999999999993
 20
387.73105325
 30
0.0
 11
841.69999999999993
 21
388.33105325000002
 31
0.0
  0
LINE
  5
6857
  8
011形状
 10
840.20000000000005
 20
389.83105325000002
 30
0.0
 11
840.79999999999995
 21
389.83105325000002
 31
0.0
  0
LINE
  5
6858
  8
011形状
 10
842.29999999999995
 20
391.33105325000002
 30
0.0
 11
842.29999999999995
 21
390.73105325
 31
0.0
  0
LINE
  5
6859
  8
011形状
 10
841.69999999999993
 20
391.33105325000002
 30
0.0
 11
841.69999999999993
 21
390.73105325
 31
0.0
  0
LINE
  5
685A
  8
011形状
 10
840.20000000000005
 20
389.23105325
 30
0.0
 11
840.79999999999995
 21
389.23105325
 31
0.0
  0
LINE
  5
685B
  8
011形状
 10
842.29999999999995
 20
387.73105325
 30
0.0
 11
842.29999999999995
 21
388.33105325000002
 31
0.0
  0
ARC
  5
685C
  8
011形状
 10
840.89999999999998
 20
390.63105324999998
 30
0.0
 40
0.8
 50
262.30000000000069
 51
7.6999999999984681
  0
ARC
  5
685D
  8
011形状
 10
840.89999999999998
 20
388.43105324999999
 30
0.0
 40
0.8
 50
352.3000000000016
 51
97.699999999999349
  0
ARC
  5
685E
  8
011形状
 10
843.10000000000002
 20
388.43105324999999
 30
0.0
 40
0.8
 50
82.300000000000665
 51
187.69999999999851
  0
ARC
  5
685F
  8
011形状
 10
843.10000000000002
 20
390.63105324999998
 30
0.0
 40
0.8
 50
172.30000000000149
 51
277.69999999999931
  0
CIRCLE
  5
6860
  8
011形状
 10
842.0
 20
350.46894674999999
 30
0.0
 40
2.7999999999999989
  0
LINE
  5
6861
  8
001センタ
 10
837.70000000000005
 20
350.46894674999999
 30
0.0
 11
846.29999999999995
 21
350.46894674999999
 31
0.0
  0
LINE
  5
6862
  8
001センタ
 10
842.0
 20
354.76894675
 30
0.0
 11
842.0
 21
346.16894674999998
 31
0.0
  0
LINE
  5
6863
  8
011形状
 10
842.29999999999995
 20
352.26894675
 30
0.0
 11
841.69999999999993
 21
352.26894675
 31
0.0
  0
LINE
  5
6864
  8
011形状
 10
840.20000000000005
 20
350.76894675
 30
0.0
 11
840.20000000000005
 21
350.16894674999998
 31
0.0
  0
LINE
  5
6865
  8
011形状
 10
842.29999999999995
 20
348.66894674999998
 30
0.0
 11
841.69999999999993
 21
348.66894674999998
 31
0.0
  0
LINE
  5
6866
  8
011形状
 10
843.79999999999984
 20
350.76894675
 30
0.0
 11
843.79999999999984
 21
350.16894674999998
 31
0.0
  0
LINE
  5
6867
  8
011形状
 10
842.29999999999995
 20
348.66894674999998
 30
0.0
 11
842.29999999999995
 21
349.26894675
 31
0.0
  0
LINE
  5
6868
  8
011形状
 10
843.79999999999984
 20
350.16894674999998
 30
0.0
 11
843.20000000000005
 21
350.16894674999998
 31
0.0
  0
LINE
  5
6869
  8
011形状
 10
843.79999999999984
 20
350.76894675
 30
0.0
 11
843.20000000000005
 21
350.76894675
 31
0.0
  0
LINE
  5
686A
  8
011形状
 10
841.69999999999993
 20
352.26894675
 30
0.0
 11
841.69999999999993
 21
351.66894674999998
 31
0.0
  0
LINE
  5
686B
  8
011形状
 10
840.20000000000005
 20
350.16894674999998
 30
0.0
 11
840.79999999999995
 21
350.16894674999998
 31
0.0
  0
LINE
  5
686C
  8
011形状
 10
842.29999999999995
 20
348.66894674999998
 30
0.0
 11
842.29999999999995
 21
349.26894675
 31
0.0
  0
LINE
  5
686D
  8
011形状
 10
841.69999999999993
 20
348.66894674999998
 30
0.0
 11
841.69999999999993
 21
349.26894675
 31
0.0
  0
LINE
  5
686E
  8
011形状
 10
840.20000000000005
 20
350.76894675
 30
0.0
 11
840.79999999999995
 21
350.76894675
 31
0.0
  0
LINE
  5
686F
  8
011形状
 10
842.29999999999995
 20
352.26894675
 30
0.0
 11
842.29999999999995
 21
351.66894674999998
 31
0.0
  0
ARC
  5
6870
  8
011形状
 10
840.89999999999998
 20
349.36894675000002
 30
0.0
 40
0.8
 50
352.3000000000016
 51
97.699999999999349
  0
ARC
  5
6871
  8
011形状
 10
840.89999999999998
 20
351.56894675000001
 30
0.0
 40
0.8
 50
262.30000000000069
 51
7.6999999999984681
  0
ARC
  5
6872
  8
011形状
 10
843.10000000000002
 20
351.56894675000001
 30
0.0
 40
0.8
 50
172.30000000000149
 51
277.69999999999931
  0
ARC
  5
6873
  8
011形状
 10
843.10000000000002
 20
349.36894675000002
 30
0.0
 40
0.8
 50
82.300000000000665
 51
187.69999999999851
  0
CIRCLE
  5
6874
  8
011形状
 10
809.0
 20
350.46894674999999
 30
0.0
 40
2.7999999999999989
  0
LINE
  5
6875
  8
001センタ
 10
804.70000000000005
 20
350.46894674999999
 30
0.0
 11
813.29999999999995
 21
350.46894674999999
 31
0.0
  0
LINE
  5
6876
  8
001センタ
 10
809.0
 20
354.76894675
 30
0.0
 11
809.0
 21
346.16894674999998
 31
0.0
  0
LINE
  5
6877
  8
011形状
 10
809.29999999999995
 20
352.26894675
 30
0.0
 11
808.69999999999993
 21
352.26894675
 31
0.0
  0
LINE
  5
6878
  8
011形状
 10
807.20000000000005
 20
350.76894675
 30
0.0
 11
807.20000000000005
 21
350.16894674999998
 31
0.0
  0
LINE
  5
6879
  8
011形状
 10
809.29999999999995
 20
348.66894674999998
 30
0.0
 11
808.69999999999993
 21
348.66894674999998
 31
0.0
  0
LINE
  5
687A
  8
011形状
 10
810.79999999999995
 20
350.76894675
 30
0.0
 11
810.79999999999995
 21
350.16894674999998
 31
0.0
  0
LINE
  5
687B
  8
011形状
 10
809.29999999999995
 20
348.66894674999998
 30
0.0
 11
809.29999999999995
 21
349.26894675
 31
0.0
  0
LINE
  5
687C
  8
011形状
 10
810.79999999999995
 20
350.16894674999998
 30
0.0
 11
810.20000000000005
 21
350.16894674999998
 31
0.0
  0
LINE
  5
687D
  8
011形状
 10
810.79999999999995
 20
350.76894675
 30
0.0
 11
810.20000000000005
 21
350.76894675
 31
0.0
  0
LINE
  5
687E
  8
011形状
 10
808.69999999999993
 20
352.26894675
 30
0.0
 11
808.69999999999993
 21
351.66894674999998
 31
0.0
  0
LINE
  5
687F
  8
011形状
 10
807.20000000000005
 20
350.16894674999998
 30
0.0
 11
807.79999999999995
 21
350.16894674999998
 31
0.0
  0
LINE
  5
6880
  8
011形状
 10
809.29999999999995
 20
348.66894674999998
 30
0.0
 11
809.29999999999995
 21
349.26894675
 31
0.0
  0
LINE
  5
6881
  8
011形状
 10
808.69999999999993
 20
348.66894674999998
 30
0.0
 11
808.69999999999993
 21
349.26894675
 31
0.0
  0
LINE
  5
6882
  8
011形状
 10
807.20000000000005
 20
350.76894675
 30
0.0
 11
807.79999999999995
 21
350.76894675
 31
0.0
  0
LINE
  5
6883
  8
011形状
 10
809.29999999999995
 20
352.26894675
 30
0.0
 11
809.29999999999995
 21
351.66894674999998
 31
0.0
  0
ARC
  5
6884
  8
011形状
 10
807.89999999999998
 20
349.36894675000002
 30
0.0
 40
0.8
 50
352.3000000000016
 51
97.699999999999349
  0
ARC
  5
6885
  8
011形状
 10
807.89999999999998
 20
351.56894675000001
 30
0.0
 40
0.8
 50
262.30000000000069
 51
7.6999999999984681
  0
ARC
  5
6886
  8
011形状
 10
810.10000000000002
 20
351.56894675000001
 30
0.0
 40
0.8
 50
172.30000000000149
 51
277.69999999999931
  0
ARC
  5
6887
  8
011形状
 10
810.10000000000002
 20
349.36894675000002
 30
0.0
 40
0.8
 50
82.300000000000665
 51
187.69999999999851
  0
ARC
  5
6888
  8
011形状
 10
829.0
 20
378.31021434299998
 30
0.0
 40
3.2000000000000002
 50
303.15288792899452
 51
236.84711207100551
  0
CIRCLE
  5
6889
  8
011形状
 10
829.0
 20
358.64254788400001
 30
0.0
 40
5.0
  0
CIRCLE
  5
688A
  8
011形状
 10
829.0
 20
358.875544547
 30
0.0
 40
5.5
  0
ARC
  5
688B
  8
011形状
 10
829.0
 20
358.875544547
 30
0.0
 40
5.0
 50
0.0
 51
180.0
  0
LINE
  5
688C
  8
011形状
 10
834.0
 20
358.875544547
 30
0.0
 11
834.0
 21
358.64254788400001
 31
0.0
  0
LINE
  5
688D
  8
011形状
 10
824.0
 20
358.875544547
 30
0.0
 11
824.0
 21
358.64254788400001
 31
0.0
  0
LINE
  5
688E
  8
011形状
 10
834.5
 20
360.58418674900003
 30
0.0
 11
834.5
 21
358.875544547
 31
0.0
  0
LINE
  5
688F
  8
011形状
 10
823.49999999999989
 20
360.58418674900003
 30
0.0
 11
823.49999999999989
 21
358.875544547
 31
0.0
  0
ARC
  5
6890
  8
011形状
 10
829.0
 20
360.58418674900003
 30
0.0
 40
5.5
 50
0.0
 51
180.0
  0
ARC
  5
6891
  8
011形状
 10
829.0
 20
361.20551118600002
 30
0.0
 40
5.0
 50
51.521043152999113
 51
128.47895684700089
  0
LINE
  5
6892
  8
011形状
 10
827.25
 20
375.63112867799998
 30
0.0
 11
827.25
 21
365.88925968400002
 31
0.0
  0
LINE
  5
6893
  8
011形状
 10
830.75
 20
375.63112867799998
 30
0.0
 11
830.75
 21
365.88925968400002
 31
0.0
  0
LINE
  5
6894
  8
001センタ
 10
829.0
 20
350.0
 30
0.0
 11
829.0
 21
390.0
 31
0.0
  0
LINE
  5
6895
  8
001センタ
 10
821.49999999999989
 20
358.64254788400001
 30
0.0
 11
836.5
 21
358.64254788400001
 31
0.0
  0
LINE
  5
6896
  8
011形状
 10
800.0
 20
413.7701812759999
 30
0.0
 11
800.0
 21
406.7701812759999
 31
0.0
  0
LINE
  5
6897
  8
011形状
 10
800.0
 20
413.7701812759999
 30
0.0
 11
798.79999999999995
 21
413.67018127599999
 31
0.0
  0
LINE
  5
6898
  8
011形状
 10
800.0
 20
406.7701812759999
 30
0.0
 11
798.79999999999995
 21
406.87018127599993
 31
0.0
  0
ARC
  5
6899
  8
011形状
 10
799.10000000000002
 20
408.37018127599998
 30
0.0
 40
1.5
 50
202.39999999999941
 51
259.00000000000068
  0
ARC
  5
689A
  8
011形状
 10
799.10000000000002
 20
412.17018127599988
 30
0.0
 40
1.5
 50
100.9999999999993
 51
157.60000000000051
  0
ARC
  5
689B
  8
011形状
 10
807.20000000000005
 20
410.2701812759999
 30
0.0
 40
9.8000000000000007
 50
165.69999999999899
 51
194.20000000000019
  0
LINE
  5
689C
  8
001センタ
 10
795.39999999999986
 20
410.2701812759999
 30
0.0
 11
804.0
 21
410.2701812759999
 31
0.0
  0
LINE
  5
689D
  8
011形状
 10
800.0
 20
326.22981872399998
 30
0.0
 11
800.0
 21
333.2298187240001
 31
0.0
  0
LINE
  5
689E
  8
011形状
 10
800.0
 20
326.22981872399998
 30
0.0
 11
798.79999999999995
 21
326.32981872400001
 31
0.0
  0
LINE
  5
689F
  8
011形状
 10
800.0
 20
333.2298187240001
 30
0.0
 11
798.79999999999995
 21
333.12981872400002
 31
0.0
  0
ARC
  5
68A0
  8
011形状
 10
799.10000000000002
 20
331.62981872400002
 30
0.0
 40
1.5
 50
100.9999999999993
 51
157.60000000000051
  0
ARC
  5
68A1
  8
011形状
 10
799.10000000000002
 20
327.82981872400001
 30
0.0
 40
1.5
 50
202.39999999999941
 51
259.00000000000068
  0
ARC
  5
68A2
  8
011形状
 10
807.20000000000005
 20
329.72981872399998
 30
0.0
 40
9.8000000000000007
 50
165.7999999999997
 51
194.30000000000101
  0
LINE
  5
68A3
  8
001センタ
 10
795.39999999999986
 20
329.72981872399998
 30
0.0
 11
804.0
 21
329.72981872399998
 31
0.0
  0
LINE
  5
68A4
  8
011形状
 10
800.0
 20
373.5
 30
0.0
 11
800.0
 21
366.5
 31
0.0
  0
LINE
  5
68A5
  8
011形状
 10
800.0
 20
373.5
 30
0.0
 11
798.79999999999995
 21
373.39999999999998
 31
0.0
  0
LINE
  5
68A6
  8
011形状
 10
800.0
 20
366.5
 30
0.0
 11
798.79999999999995
 21
366.60000000000002
 31
0.0
  0
ARC
  5
68A7
  8
011形状
 10
799.10000000000002
 20
368.10000000000002
 30
0.0
 40
1.5
 50
202.39999999999941
 51
259.00000000000068
  0
ARC
  5
68A8
  8
011形状
 10
799.10000000000002
 20
371.89999999999998
 30
0.0
 40
1.5
 50
100.9999999999993
 51
157.60000000000051
  0
ARC
  5
68A9
  8
011形状
 10
807.20000000000005
 20
370.0
 30
0.0
 40
9.8000000000000007
 50
165.69999999999899
 51
194.20000000000019
  0
LINE
  5
68AA
  8
011形状
 10
818.0
 20
424.96065563500002
 30
0.0
 11
818.0
 21
393.36257942300011
 31
0.0
  0
LINE
  5
68AB
  8
011形状
 10
886.0
 20
424.96065563500002
 30
0.0
 11
818.0
 21
424.96065563500002
 31
0.0
  0
LINE
  5
68AC
  8
011形状
 10
886.0
 20
393.36257942300011
 30
0.0
 11
886.0
 21
424.96065563500002
 31
0.0
  0
LINE
  5
68AD
  8
011形状
 10
818.0
 20
393.36257942300011
 30
0.0
 11
886.0
 21
393.36257942300011
 31
0.0
  0
LINE
  5
68AE
  8
011形状
 10
818.0
 20
396.96065563500008
 30
0.0
 11
886.0
 21
396.96065563500008
 31
0.0
  0
LINE
  5
68AF
  8
011形状
 10
886.0
 20
394.22860482700003
 30
0.0
 11
818.0
 21
394.22860482700003
 31
0.0
  0
LINE
  5
68B0
  8
011形状
 10
818.0
 20
315.03934436499998
 30
0.0
 11
818.0
 21
346.637420577
 31
0.0
  0
LINE
  5
68B1
  8
011形状
 10
886.0
 20
315.03934436499998
 30
0.0
 11
818.0
 21
315.03934436499998
 31
0.0
  0
LINE
  5
68B2
  8
011形状
 10
886.0
 20
346.637420577
 30
0.0
 11
886.0
 21
315.03934436499998
 31
0.0
  0
LINE
  5
68B3
  8
011形状
 10
818.0
 20
346.637420577
 30
0.0
 11
886.0
 21
346.637420577
 31
0.0
  0
LINE
  5
68B4
  8
011形状
 10
818.0
 20
343.03934436499998
 30
0.0
 11
886.0
 21
343.03934436499998
 31
0.0
  0
LINE
  5
68B5
  8
011形状
 10
886.0
 20
345.77139517299997
 30
0.0
 11
818.0
 21
345.77139517299997
 31
0.0
  0
LINE
  5
68B6
  8
011形状
 10
800.0
 20
350.0
 30
0.0
 11
793.0
 21
350.0
 31
0.0
  0
LINE
  5
68B7
  8
011形状
 10
800.0
 20
390.0
 30
0.0
 11
793.0
 21
390.0
 31
0.0
  0
LINE
  5
68B8
  8
011形状
 10
793.0
 20
350.0
 30
0.0
 11
793.0
 21
390.0
 31
0.0
  0
LINE
  5
68B9
  8
011形状
 10
730.0
 20
389.0
 30
0.0
 11
730.0
 21
375.0
 31
0.0
  0
LINE
  5
68BA
  8
011形状
 10
728.0
 20
387.0
 30
0.0
 11
730.0
 21
389.0
 31
0.0
  0
LINE
  5
68BB
  8
011形状
 10
793.0
 20
389.0
 30
0.0
 11
730.0
 21
389.0
 31
0.0
  0
LINE
  5
68BC
  8
011形状
 10
728.0
 20
365.0
 30
0.0
 11
773.0
 21
365.0
 31
0.0
  0
LINE
  5
68BD
  8
011形状
 10
728.0
 20
375.0
 30
0.0
 11
773.0
 21
375.0
 31
0.0
  0
ARC
  5
68BE
  8
011形状
 10
773.0
 20
370.0
 30
0.0
 40
5.0
 50
270.0
 51
90.000006096998547
  0
LINE
  5
68BF
  8
011形状
 10
793.0
 20
351.0
 30
0.0
 11
730.0
 21
351.0
 31
0.0
  0
LINE
  5
68C0
  8
011形状
 10
728.0
 20
353.0
 30
0.0
 11
730.0
 21
351.0
 31
0.0
  0
LINE
  5
68C1
  8
011形状
 10
730.0
 20
351.0
 30
0.0
 11
730.0
 21
365.0
 31
0.0
  0
LINE
  5
68C2
  8
011形状
 10
728.0
 20
353.0
 30
0.0
 11
728.0
 21
387.0
 31
0.0
  0
LINE
  5
68C3
  8
011形状
 10
967.0
 20
397.0
 30
0.0
 11
968.0
 21
396.0
 31
0.0
  0
LINE
  5
68C4
  8
011形状
 10
967.0
 20
397.0
 30
0.0
 11
905.0
 21
397.0
 31
0.0
  0
LINE
  5
68C5
  8
011形状
 10
967.0
 20
343.0
 30
0.0
 11
968.0
 21
344.0
 31
0.0
  0
LINE
  5
68C6
  8
011形状
 10
967.0
 20
343.0
 30
0.0
 11
905.0
 21
343.0
 31
0.0
  0
LINE
  5
68C7
  8
011形状
 10
967.0
 20
343.0
 30
0.0
 11
967.0
 21
397.0
 31
0.0
  0
LINE
  5
68C8
  8
011形状
 10
968.0
 20
344.0
 30
0.0
 11
968.0
 21
396.0
 31
0.0
  0
LINE
  5
68C9
  8
011形状
 10
983.0
 20
375.0
 30
0.0
 11
1028.0
 21
375.0
 31
0.0
  0
LINE
  5
68CA
  8
011形状
 10
983.0
 20
365.0
 30
0.0
 11
1028.0
 21
365.0
 31
0.0
  0
LINE
  5
68CB
  8
011形状
 10
1026.0
 20
351.0
 30
0.0
 11
968.0
 21
351.0
 31
0.0
  0
LINE
  5
68CC
  8
011形状
 10
1026.0
 20
351.0
 30
0.0
 11
1028.0
 21
353.0
 31
0.0
  0
LINE
  5
68CD
  8
011形状
 10
1026.0
 20
365.0
 30
0.0
 11
1026.0
 21
351.0
 31
0.0
  0
LINE
  5
68CE
  8
011形状
 10
1026.0
 20
375.0
 30
0.0
 11
1026.0
 21
389.0
 31
0.0
  0
LINE
  5
68CF
  8
011形状
 10
1026.0
 20
389.0
 30
0.0
 11
1028.0
 21
387.0
 31
0.0
  0
LINE
  5
68D0
  8
011形状
 10
1028.0
 20
387.0
 30
0.0
 11
1028.0
 21
353.0
 31
0.0
  0
LINE
  5
68D1
  8
011形状
 10
1026.0
 20
389.0
 30
0.0
 11
968.0
 21
389.0
 31
0.0
  0
ARC
  5
68D2
  8
011形状
 10
983.0
 20
370.0
 30
0.0
 40
5.0
 50
90.0
 51
270.0
  0
LINE
  5
68D3
  8
011形状
 10
845.0
 20
347.67654827000001
 30
0.0
 11
806.0
 21
347.67654827000001
 31
0.0
  0
LINE
  5
68D4
  8
011形状
 10
845.0
 20
392.32345172999999
 30
0.0
 11
806.0
 21
392.32345172999999
 31
0.0
  0
LINE
  5
68D5
  8
011形状
 10
845.0
 20
347.67654827000001
 30
0.0
 11
845.0
 21
392.32345172999999
 31
0.0
  0
LINE
  5
68D6
  8
011形状
 10
806.0
 20
347.67654827000001
 30
0.0
 11
806.0
 21
392.32345172999999
 31
0.0
  0
LINE
  5
68D7
  8
011形状
 10
808.5
 20
448.5
 30
0.0
 11
895.5
 21
448.5
 31
0.0
  0
LINE
  5
68D8
  8
011形状
 10
806.49999999999989
 20
446.49999999999989
 30
0.0
 11
808.5
 21
448.5
 31
0.0
  0
LINE
  5
68D9
  8
011形状
 10
806.49999999999989
 20
446.49999999999989
 30
0.0
 11
806.49999999999989
 21
422.97169055299997
 31
0.0
  0
LINE
  5
68DA
  8
011形状
 10
818.0
 20
430.49999999999989
 30
0.0
 11
818.0
 21
422.97169055299997
 31
0.0
  0
LINE
  5
68DB
  8
011形状
 10
847.0
 20
444.5
 30
0.0
 11
857.0
 21
444.5
 31
0.0
  0
LINE
  5
68DC
  8
011形状
 10
847.0
 20
434.49999999999989
 30
0.0
 11
857.0
 21
434.49999999999989
 31
0.0
  0
LINE
  5
68DD
  8
011形状
 10
897.49999999999989
 20
446.49999999999989
 30
0.0
 11
895.5
 21
448.5
 31
0.0
  0
LINE
  5
68DE
  8
011形状
 10
897.49999999999989
 20
446.49999999999989
 30
0.0
 11
897.49999999999989
 21
422.97169055299997
 31
0.0
  0
LINE
  5
68DF
  8
011形状
 10
886.0
 20
430.49999999999989
 30
0.0
 11
886.0
 21
422.97169055299997
 31
0.0
  0
LINE
  5
68E0
  8
011形状
 10
886.0
 20
422.97169055299997
 30
0.0
 11
897.49999999999989
 21
422.97169055299997
 31
0.0
  0
LINE
  5
68E1
  8
011形状
 10
806.49999999999989
 20
422.97169055299997
 30
0.0
 11
818.0
 21
422.97169055299997
 31
0.0
  0
LINE
  5
68E2
  8
001センタ
 10
864.49999999999989
 20
439.5
 30
0.0
 11
839.49999999999989
 21
439.5
 31
0.0
  0
LINE
  5
68E3
  8
001センタ
 10
857.0
 20
442.0
 30
0.0
 11
857.0
 21
437.0
 31
0.0
  0
LINE
  5
68E4
  8
001センタ
 10
847.0
 20
442.0
 30
0.0
 11
847.0
 21
437.0
 31
0.0
  0
ARC
  5
68E5
  8
011形状
 10
847.0
 20
439.5
 30
0.0
 40
5.0
 50
90.0
 51
270.0
  0
LINE
  5
68E6
  8
001センタ
 10
852.0
 20
447.0
 30
0.0
 11
852.0
 21
432.0
 31
0.0
  0
ARC
  5
68E7
  8
011形状
 10
857.0
 20
439.5
 30
0.0
 40
5.0
 50
269.99995594999058
 51
90.0
  0
LINE
  5
68E8
  8
011形状
 10
886.0
 20
430.49999999999989
 30
0.0
 11
818.0
 21
430.49999999999989
 31
0.0
  0
LINE
  5
68E9
  8
011形状
 10
808.5
 20
291.5
 30
0.0
 11
895.5
 21
291.5
 31
0.0
  0
LINE
  5
68EA
  8
011形状
 10
806.49999999999989
 20
293.5
 30
0.0
 11
808.5
 21
291.5
 31
0.0
  0
LINE
  5
68EB
  8
011形状
 10
806.49999999999989
 20
293.5
 30
0.0
 11
806.49999999999989
 21
317.02830944700003
 31
0.0
  0
LINE
  5
68EC
  8
011形状
 10
818.0
 20
309.5
 30
0.0
 11
818.0
 21
317.02830944700003
 31
0.0
  0
LINE
  5
68ED
  8
011形状
 10
847.0
 20
295.5
 30
0.0
 11
857.0
 21
295.5
 31
0.0
  0
LINE
  5
68EE
  8
011形状
 10
847.0
 20
305.5
 30
0.0
 11
857.0
 21
305.5
 31
0.0
  0
LINE
  5
68EF
  8
011形状
 10
897.49999999999989
 20
293.5
 30
0.0
 11
895.5
 21
291.5
 31
0.0
  0
LINE
  5
68F0
  8
011形状
 10
897.49999999999989
 20
293.5
 30
0.0
 11
897.49999999999989
 21
317.02830944700003
 31
0.0
  0
LINE
  5
68F1
  8
011形状
 10
886.0
 20
309.5
 30
0.0
 11
886.0
 21
317.02830944700003
 31
0.0
  0
LINE
  5
68F2
  8
011形状
 10
886.0
 20
317.02830944700003
 30
0.0
 11
897.49999999999989
 21
317.02830944700003
 31
0.0
  0
LINE
  5
68F3
  8
011形状
 10
806.49999999999989
 20
317.02830944700003
 30
0.0
 11
818.0
 21
317.02830944700003
 31
0.0
  0
LINE
  5
68F4
  8
001センタ
 10
864.49999999999989
 20
300.5
 30
0.0
 11
839.49999999999989
 21
300.5
 31
0.0
  0
LINE
  5
68F5
  8
001センタ
 10
857.0
 20
298.0
 30
0.0
 11
857.0
 21
303.0
 31
0.0
  0
LINE
  5
68F6
  8
001センタ
 10
847.0
 20
298.0
 30
0.0
 11
847.0
 21
303.0
 31
0.0
  0
ARC
  5
68F7
  8
011形状
 10
847.0
 20
300.5
 30
0.0
 40
5.0
 50
90.0
 51
270.0
  0
LINE
  5
68F8
  8
001センタ
 10
852.0
 20
293.0
 30
0.0
 11
852.0
 21
308.0
 31
0.0
  0
ARC
  5
68F9
  8
011形状
 10
857.0
 20
300.5
 30
0.0
 40
5.0
 50
270.0
 51
90.000044049996362
  0
LINE
  5
68FA
  8
011形状
 10
886.0
 20
309.5
 30
0.0
 11
818.0
 21
309.5
 31
0.0
  0
LINE
  5
68FB
  8
001センタ
 10
718.0
 20
370.0
 30
0.0
 11
1038.0
 21
370.0
 31
0.0
  0
CIRCLE
  5
68FC
  8
011形状
 10
1224.0
 20
370.0
 30
0.0
 40
52.5
  0
CIRCLE
  5
68FD
  8
011形状
 10
1224.0
 20
370.0
 30
0.0
 40
51.5
  0
CIRCLE
  5
68FE
  8
011形状
 10
1224.0
 20
370.0
 30
0.0
 40
50.5
  0
CIRCLE
  5
68FF
  8
001センタ
 10
1224.0
 20
370.0
 30
0.0
 40
46.5
  0
CIRCLE
  5
6900
  8
011形状
 10
1177.5
 20
370.0
 30
0.0
 40
4.0
  0
LINE
  5
6901
  8
011形状
 10
1175.4000000000001
 20
370.39999999999998
 30
0.0
 11
1175.4000000000001
 21
369.60000000000002
 31
0.0
  0
LINE
  5
6902
  8
011形状
 10
1177.0999999999999
 20
367.89999999999998
 30
0.0
 11
1177.9000000000001
 21
367.89999999999998
 31
0.0
  0
LINE
  5
6903
  8
011形状
 10
1179.5999999999999
 20
369.60000000000002
 30
0.0
 11
1179.5999999999999
 21
370.39999999999998
 31
0.0
  0
LINE
  5
6904
  8
011形状
 10
1177.0999999999999
 20
372.10000000000002
 30
0.0
 11
1177.9000000000001
 21
372.10000000000002
 31
0.0
  0
LINE
  5
6905
  8
011形状
 10
1177.9000000000001
 20
367.89999999999998
 30
0.0
 11
1177.9000000000001
 21
368.69999999999999
 31
0.0
  0
LINE
  5
6906
  8
011形状
 10
1177.0999999999999
 20
367.89999999999998
 30
0.0
 11
1177.0999999999999
 21
368.69999999999999
 31
0.0
  0
LINE
  5
6907
  8
011形状
 10
1179.5999999999999
 20
369.60000000000002
 30
0.0
 11
1178.8
 21
369.60000000000002
 31
0.0
  0
LINE
  5
6908
  8
011形状
 10
1177.9000000000001
 20
372.10000000000002
 30
0.0
 11
1177.9000000000001
 21
371.30000000000001
 31
0.0
  0
LINE
  5
6909
  8
011形状
 10
1175.4000000000001
 20
370.39999999999998
 30
0.0
 11
1176.2
 21
370.39999999999998
 31
0.0
  0
LINE
  5
690A
  8
011形状
 10
1179.5999999999999
 20
370.39999999999998
 30
0.0
 11
1178.8
 21
370.39999999999998
 31
0.0
  0
LINE
  5
690B
  8
011形状
 10
1177.0999999999999
 20
372.10000000000002
 30
0.0
 11
1177.0999999999999
 21
371.30000000000001
 31
0.0
  0
LINE
  5
690C
  8
011形状
 10
1175.4000000000001
 20
369.60000000000002
 30
0.0
 11
1176.2
 21
369.60000000000002
 31
0.0
  0
ARC
  5
690D
  8
011形状
 10
1178.7
 20
368.80000000000001
 30
0.0
 40
0.8
 50
82.300000000000665
 51
187.69999999999851
  0
ARC
  5
690E
  8
011形状
 10
1178.7
 20
371.19999999999999
 30
0.0
 40
0.8
 50
172.30000000000149
 51
277.69999999999931
  0
ARC
  5
690F
  8
011形状
 10
1176.3
 20
371.19999999999999
 30
0.0
 40
0.8
 50
262.30000000000069
 51
7.6999999999984681
  0
ARC
  5
6910
  8
011形状
 10
1176.3
 20
368.80000000000001
 30
0.0
 40
0.8
 50
352.3000000000016
 51
97.699999999999349
  0
CIRCLE
  5
6911
  8
011形状
 10
1247.25
 20
329.72981872399998
 30
0.0
 40
4.0
  0
LINE
  5
6912
  8
001センタ
 10
1250.25
 20
324.53366630099998
 30
0.0
 11
1244.25
 21
334.92597114699998
 31
0.0
  0
LINE
  5
6913
  8
011形状
 10
1247.953589838
 20
327.711165376
 30
0.0
 11
1248.6464101619999
 21
328.11116537599997
 31
0.0
  0
LINE
  5
6914
  8
011形状
 10
1249.268653348
 20
330.433408563
 30
0.0
 11
1248.868653348
 21
331.12622888599998
 31
0.0
  0
LINE
  5
6915
  8
011形状
 10
1246.546410162
 20
331.74847207200003
 30
0.0
 11
1245.8535898380001
 21
331.34847207199999
 31
0.0
  0
LINE
  5
6916
  8
011形状
 10
1245.631346652
 20
328.33340856299998
 30
0.0
 11
1245.231346652
 21
329.02622888600001
 31
0.0
  0
LINE
  5
6917
  8
011形状
 10
1248.868653348
 20
331.12622888599998
 30
0.0
 11
1248.175833025
 21
330.726228886
 31
0.0
  0
LINE
  5
6918
  8
011形状
 10
1249.268653348
 20
330.433408563
 30
0.0
 11
1248.5758330250001
 21
330.03340856300002
 31
0.0
  0
LINE
  5
6919
  8
011形状
 10
1246.546410162
 20
331.74847207200003
 30
0.0
 11
1246.9464101619999
 21
331.05565174899999
 31
0.0
  0
LINE
  5
691A
  8
011形状
 10
1245.231346652
 20
329.02622888600001
 30
0.0
 11
1245.9241669749999
 21
329.42622888599999
 31
0.0
  0
LINE
  5
691B
  8
011形状
 10
1247.953589838
 20
327.711165376
 30
0.0
 11
1247.5535898380001
 21
328.40398569899997
 31
0.0
  0
LINE
  5
691C
  8
011形状
 10
1245.8535898380001
 20
331.34847207199999
 30
0.0
 11
1246.2535898379999
 21
330.65565174900001
 31
0.0
  0
LINE
  5
691D
  8
011形状
 10
1245.631346652
 20
328.33340856299998
 30
0.0
 11
1246.324166975
 21
328.73340856300001
 31
0.0
  0
LINE
  5
691E
  8
011形状
 10
1248.6464101619999
 20
328.11116537599997
 30
0.0
 11
1248.2464101620001
 21
328.80398569900001
 31
0.0
  0
ARC
  5
691F
  8
011形状
 10
1247.6892304850001
 20
331.36904920900002
 30
0.0
 40
0.8
 50
202.30000000000089
 51
307.69999999999987
  0
ARC
  5
6920
  8
011形状
 10
1245.6107695149999
 20
330.16904920899998
 30
0.0
 40
0.8
 50
292.30000000000689
 51
37.699999999999882
  0
ARC
  5
6921
  8
011形状
 10
1246.8107695149999
 20
328.090588239
 30
0.0
 40
0.8
 50
22.300000000000949
 51
127.6999999999999
  0
ARC
  5
6922
  8
011形状
 10
1248.8892304850001
 20
329.29058823899999
 30
0.0
 40
0.8
 50
112.3000000000069
 51
217.6999999999999
  0
CIRCLE
  5
6923
  8
011形状
 10
1247.25
 20
410.2701812759999
 30
0.0
 40
4.0
  0
LINE
  5
6924
  8
001センタ
 10
1250.25
 20
415.46633369900002
 30
0.0
 11
1244.25
 21
405.07402885300002
 31
0.0
  0
LINE
  5
6925
  8
011形状
 10
1248.6464101619999
 20
411.88883462400003
 30
0.0
 11
1247.953589838
 21
412.28883462399989
 31
0.0
  0
LINE
  5
6926
  8
011形状
 10
1245.631346652
 20
411.66659143699991
 30
0.0
 11
1245.231346652
 21
410.97377111399999
 31
0.0
  0
LINE
  5
6927
  8
011形状
 10
1245.8535898380001
 20
408.65152792800001
 30
0.0
 11
1246.546410162
 21
408.25152792799997
 31
0.0
  0
LINE
  5
6928
  8
011形状
 10
1249.268653348
 20
409.56659143699989
 30
0.0
 11
1248.868653348
 21
408.87377111400002
 31
0.0
  0
LINE
  5
6929
  8
011形状
 10
1245.231346652
 20
410.97377111399999
 30
0.0
 11
1245.9241669749999
 21
410.5737711139999
 31
0.0
  0
LINE
  5
692A
  8
011形状
 10
1245.631346652
 20
411.66659143699991
 30
0.0
 11
1246.324166975
 21
411.26659143699987
 31
0.0
  0
LINE
  5
692B
  8
011形状
 10
1245.8535898380001
 20
408.65152792800001
 30
0.0
 11
1246.2535898379999
 21
409.34434825099987
 31
0.0
  0
LINE
  5
692C
  8
011形状
 10
1248.868653348
 20
408.87377111400002
 30
0.0
 11
1248.175833025
 21
409.27377111399989
 31
0.0
  0
LINE
  5
692D
  8
011形状
 10
1248.6464101619999
 20
411.88883462400003
 30
0.0
 11
1248.2464101620001
 21
411.19601430099999
 31
0.0
  0
LINE
  5
692E
  8
011形状
 10
1246.546410162
 20
408.25152792799997
 30
0.0
 11
1246.9464101619999
 21
408.94434825100001
 31
0.0
  0
LINE
  5
692F
  8
011形状
 10
1249.268653348
 20
409.56659143699989
 30
0.0
 11
1248.5758330250001
 21
409.96659143699998
 31
0.0
  0
LINE
  5
6930
  8
011形状
 10
1247.953589838
 20
412.28883462399989
 30
0.0
 11
1247.5535898380001
 21
411.59601430099991
 31
0.0
  0
ARC
  5
6931
  8
011形状
 10
1245.6107695149999
 20
409.83095079099991
 30
0.0
 40
0.8
 50
322.30000000000013
 51
67.699999999993025
  0
ARC
  5
6932
  8
011形状
 10
1247.6892304850001
 20
408.63095079099998
 30
0.0
 40
0.8
 50
52.300000000000118
 51
157.69999999999899
  0
ARC
  5
6933
  8
011形状
 10
1248.8892304850001
 20
410.7094117609999
 30
0.0
 40
0.8
 50
142.3000000000001
 51
247.69999999999311
  0
ARC
  5
6934
  8
011形状
 10
1246.8107695149999
 20
411.909411761
 30
0.0
 40
0.8
 50
232.3000000000001
 51
337.69999999999902
  0
POINT
  5
6935
  8
011形状
 10
1216.5
 20
448.5
 30
0.0
  0
LINE
  5
6936
  8
011形状
 10
1150.0
 20
383.0
 30
0.0
 11
1172.103468324
 21
383.0
 31
0.0
  0
LINE
  5
6937
  8
011形状
 10
1150.0
 20
357.0
 30
0.0
 11
1172.103468324
 21
357.0
 31
0.0
  0
LINE
  5
6938
  8
011形状
 10
1150.0
 20
383.0
 30
0.0
 11
1150.0
 21
357.0
 31
0.0
  0
LINE
  5
6939
  8
011形状
 10
1137.5
 20
362.0
 30
0.0
 11
1137.5
 21
378.0
 31
0.0
  0
LINE
  5
693A
  8
011形状
 10
1148.5
 20
359.5
 30
0.0
 11
1148.5
 21
380.5
 31
0.0
  0
LINE
  5
693B
  8
011形状
 10
1150.0
 20
359.5
 30
0.0
 11
1150.0
 21
380.5
 31
0.0
  0
LINE
  5
693C
  8
011形状
 10
1148.5
 20
380.5
 30
0.0
 11
1150.0
 21
380.5
 31
0.0
  0
ARC
  5
693D
  8
011形状
 10
1148.6025
 20
378.0
 30
0.0
 40
2.1025
 50
92.794362055005806
 51
267.20563794499418
  0
LINE
  5
693E
  8
011形状
 10
1137.5
 20
378.0
 30
0.0
 11
1146.5
 21
378.0
 31
0.0
  0
LINE
  5
693F
  8
001センタ
 10
1146.5
 20
378.0
 30
0.0
 11
1151.5
 21
378.0
 31
0.0
  0
LINE
  5
6940
  8
011形状
 10
1148.5
 20
359.5
 30
0.0
 11
1150.0
 21
359.5
 31
0.0
  0
ARC
  5
6941
  8
011形状
 10
1148.6025
 20
362.0
 30
0.0
 40
2.1025
 50
92.794362055005806
 51
267.20563794499418
  0
LINE
  5
6942
  8
011形状
 10
1137.5
 20
362.0
 30
0.0
 11
1146.5
 21
362.0
 31
0.0
  0
LINE
  5
6943
  8
001センタ
 10
1146.5
 20
362.0
 30
0.0
 11
1151.5
 21
362.0
 31
0.0
  0
LINE
  5
6944
  8
011形状
 10
1150.0
 20
383.0
 30
0.0
 11
1147.5
 21
383.0
 31
0.0
  0
LINE
  5
6945
  8
011形状
 10
1147.5
 20
357.0
 30
0.0
 11
1150.0
 21
357.0
 31
0.0
  0
LINE
  5
6946
  8
011形状
 10
1147.5
 20
360.2097486209999
 30
0.0
 11
1147.5
 21
357.0
 31
0.0
  0
LINE
  5
6947
  8
011形状
 10
1147.5
 20
383.0
 30
0.0
 11
1147.5
 21
379.79025137899998
 31
0.0
  0
LINE
  5
6948
  8
011形状
 10
1147.5
 20
382.80000000000001
 30
0.0
 11
1146.5
 21
382.69999999999999
 31
0.0
  0
ARC
  5
6949
  8
011形状
 10
1146.7
 20
381.80000000000001
 30
0.0
 40
0.9
 50
102.60000000000051
 51
153.3999999999975
  0
ARC
  5
694A
  8
011形状
 10
1151.8
 20
380.0
 30
0.0
 40
6.2999999999999989
 50
159.3999999999966
 51
198.50940498199731
  0
LINE
  5
694B
  8
001センタ
 10
1144.0
 20
380.0
 30
0.0
 11
1151.5
 21
380.0
 31
0.0
  0
LINE
  5
694C
  8
011形状
 10
1147.5
 20
357.19999999999999
 30
0.0
 11
1146.5
 21
357.30000000000001
 31
0.0
  0
ARC
  5
694D
  8
011形状
 10
1146.7
 20
358.19999999999999
 30
0.0
 40
0.9
 50
206.6000000000025
 51
257.39999999999941
  0
ARC
  5
694E
  8
011形状
 10
1151.8
 20
360.0
 30
0.0
 40
6.2999999999999989
 50
161.49059501800261
 51
200.6000000000034
  0
LINE
  5
694F
  8
001センタ
 10
1144.0
 20
360.0
 30
0.0
 11
1151.5
 21
360.0
 31
0.0
  0
LINE
  5
6950
  8
011形状
 10
1174.281658285
 20
392.32345172999999
 30
0.0
 11
1175.193921436
 21
391.913847111
 31
0.0
  0
LINE
  5
6951
  8
011形状
 10
1174.281658285
 20
347.67654827000001
 30
0.0
 11
1175.193921436
 21
348.086152889
 31
0.0
  0
LINE
  5
6952
  8
011形状
 10
1174.1232970149999
 20
347.85492155600002
 30
0.0
 11
1172.116436497
 21
353.08297194400001
 31
0.0
  0
LINE
  5
6953
  8
011形状
 10
1174.1232970149999
 20
347.85492155600002
 30
0.0
 11
1173.153879793
 21
347.58991164899999
 31
0.0
  0
LINE
  5
6954
  8
011形状
 10
1172.116436497
 20
353.08297194400001
 30
0.0
 11
1171.2186928660001
 21
352.63124595199997
 31
0.0
  0
ARC
  5
6955
  8
011形状
 10
1171.727940106
 20
351.862697158
 30
0.0
 40
0.9
 50
123.5999999999984
 51
174.3999999999983
  0
ARC
  5
6956
  8
011形状
 10
1173.0180647239999
 20
348.501807622
 30
0.0
 40
0.9
 50
227.5999999999967
 51
278.40000000000759
  0
ARC
  5
6957
  8
011形状
 10
1177.1342625899999
 20
352.00992893300003
 30
0.0
 40
6.2999999999999989
 50
180.39999999999921
 51
221.60000000000079
  0
LINE
  5
6958
  8
001センタ
 10
1169.852335263
 20
349.21465892600003
 30
0.0
 11
1175.920608035
 21
351.54405059800001
 31
0.0
  0
LINE
  5
6959
  8
011形状
 10
1174.1232970149999
 20
392.14507844400009
 30
0.0
 11
1172.116436497
 21
386.91702805599999
 31
0.0
  0
LINE
  5
695A
  8
011形状
 10
1174.1232970149999
 20
392.14507844400009
 30
0.0
 11
1173.153879793
 21
392.41008835100001
 31
0.0
  0
LINE
  5
695B
  8
011形状
 10
1172.116436497
 20
386.91702805599999
 30
0.0
 11
1171.2186928660001
 21
387.36875404800003
 31
0.0
  0
ARC
  5
695C
  8
011形状
 10
1171.727940106
 20
388.137302842
 30
0.0
 40
0.9
 50
185.6000000000017
 51
236.4000000000016
  0
ARC
  5
695D
  8
011形状
 10
1173.0180647239999
 20
391.498192378
 30
0.0
 40
0.9
 50
81.599999999992363
 51
132.40000000000319
  0
ARC
  5
695E
  8
011形状
 10
1177.1342625899999
 20
387.99007106699997
 30
0.0
 40
6.2999999999999989
 50
138.39999999999921
 51
179.6000000000007
  0
LINE
  5
695F
  8
001センタ
 10
1169.852335263
 20
390.78534107400009
 30
0.0
 11
1175.920608035
 21
388.45594940199999
 31
0.0
  0
ARC
  5
6960
  8
011形状
 10
1224.0
 20
370.0
 30
0.0
 40
54.5
 50
193.7999204999991
 51
204.17999999999691
  0
LINE
  5
6961
  8
011形状
 10
1154.105892001
 20
353.442300999
 30
0.0
 11
1164.9723790979999
 21
355.15094319999997
 31
0.0
  0
LINE
  5
6962
  8
011形状
 10
1152.5464327520001
 20
353.70323556699998
 30
0.0
 11
1154.028226447
 21
353.93623223100002
 31
0.0
  0
LINE
  5
6963
  8
011形状
 10
1168.8461633970001
 20
356.26619886899999
 30
0.0
 11
1164.8947135440001
 21
355.64487443199999
 31
0.0
  0
LINE
  5
6964
  8
001センタ
 10
1181.5639600550001
 20
363.32737359700002
 30
0.0
 11
1146.830464889
 21
357.86589233699999
 31
0.0
  0
LINE
  5
6965
  8
011形状
 10
1152.0280507949999
 20
357.0
 30
0.0
 11
1152.5464327520001
 21
353.70323556699998
 31
0.0
  0
LINE
  5
6966
  8
011形状
 10
1153.546480795
 20
357.0
 30
0.0
 11
1154.105892001
 21
353.442300999
 31
0.0
  0
LINE
  5
6967
  8
011形状
 10
1164.9723790979999
 20
355.15094319999997
 30
0.0
 11
1164.6816341270001
 21
357.0
 31
0.0
  0
LINE
  5
6968
  8
011形状
 10
1168.7307807929999
 20
357.0
 30
0.0
 11
1168.8461633970001
 21
356.26619886899999
 31
0.0
  0
LINE
  5
6969
  8
011形状
 10
1168.8461633970001
 20
356.26619886899999
 30
0.0
 11
1169.7544048140001
 21
357.0
 31
0.0
  0
LINE
  5
696A
  8
011形状
  6
DASHED
 62
     1
 10
1150.99312166
 20
363.58186019999999
 30
0.0
 11
1152.4749153549999
 21
363.81485686400009
 31
0.0
  0
POINT
  5
696B
  8
011形状
  6
DASHED
 62
     1
 10
1152.4749153549999
 20
363.81485686400009
 30
0.0
  0
LINE
  5
696C
  8
011形状
  6
DASHED
 62
     1
 10
1152.4749153549999
 20
363.81485686400009
 30
0.0
 11
1150.99312166
 21
363.58186019999999
 31
0.0
  0
POINT
  5
696D
  8
011形状
  6
DASHED
 62
     1
 10
1150.99312166
 20
363.58186019999999
 30
0.0
  0
LINE
  5
696E
  8
011形状
  6
DASHED
 62
     1
 10
1150.99312166
 20
363.58186019999999
 30
0.0
 11
1152.0280507949999
 21
357.0
 31
0.0
  0
LINE
  5
696F
  8
011形状
  6
DASHED
 62
     1
 10
1152.3972498000001
 20
364.308788096
 30
0.0
 11
1153.546480795
 21
357.0
 31
0.0
  0
LINE
  5
6970
  8
011形状
  6
DASHED
 62
     1
 10
1163.341402452
 20
365.52349906500001
 30
0.0
 11
1167.292852305
 21
366.14482350199989
 31
0.0
  0
LINE
  5
6971
  8
011形状
  6
DASHED
 62
     1
 10
1164.6816341270001
 20
357.0
 30
0.0
 11
1163.2637368969999
 21
366.01743029699998
 31
0.0
  0
LINE
  5
6972
  8
011形状
  6
DASHED
 62
     1
 10
1167.292852305
 20
366.14482350199989
 30
0.0
 11
1168.7307807929999
 21
357.0
 31
0.0
  0
LINE
  5
6973
  8
011形状
  6
DASHED
 62
     1
 10
1163.2637368969999
 20
366.01743029699998
 30
0.0
 11
1152.3972498000001
 21
364.308788096
 31
0.0
  0
POINT
  5
6974
  8
011形状
 10
1277.5
 20
370.0
 30
0.0
  0
LINE
  5
6975
  8
011形状
 10
1269.297291114
 20
400.0
 30
0.0
 11
1271.297291114
 21
398.0
 31
0.0
  0
LINE
  5
6976
  8
011形状
 10
1271.297291114
 20
398.0
 30
0.0
 11
1271.297291114
 21
395.0043246919999
 31
0.0
  0
LINE
  5
6977
  8
011形状
 10
1268.297291114
 20
400.0
 30
0.0
 11
1269.297291114
 21
400.0
 31
0.0
  0
LINE
  5
6978
  8
011形状
  6
DASHED
 62
     1
 10
1268.297291114
 20
400.0
 30
0.0
 11
1268.297291114
 21
340.0
 31
0.0
  0
LINE
  5
6979
  8
011形状
  6
DASHED
 62
     1
 10
1271.297291114
 20
395.0043246919999
 30
0.0
 11
1271.297291114
 21
344.99567530799999
 31
0.0
  0
LINE
  5
697A
  8
011形状
 10
1271.297291114
 20
342.0
 30
0.0
 11
1269.297291114
 21
340.0
 31
0.0
  0
LINE
  5
697B
  8
011形状
 10
1271.297291114
 20
344.99567530799999
 30
0.0
 11
1271.297291114
 21
342.0
 31
0.0
  0
LINE
  5
697C
  8
011形状
 10
1269.297291114
 20
340.0
 30
0.0
 11
1268.297291114
 21
340.0
 31
0.0
  0
LINE
  5
697D
  8
011形状
 10
1175.3705923299999
 20
394.22860482700003
 30
0.0
 11
1176.1026431370001
 21
396.96065563500008
 31
0.0
  0
LINE
  5
697E
  8
011形状
 10
1176.1026431370001
 20
396.96065563500008
 30
0.0
 11
1178.6969740550001
 21
398.45849328800011
 31
0.0
  0
LINE
  5
697F
  8
011形状
 10
1175.8705923299999
 20
393.36257942300011
 30
0.0
 11
1175.3705923299999
 21
394.22860482700003
 31
0.0
  0
LINE
  5
6980
  8
011形状
  6
DASHED
 62
     1
 10
1175.8705923299999
 20
393.36257942300011
 30
0.0
 11
1227.8321165570001
 21
423.362579423
 31
0.0
  0
LINE
  5
6981
  8
011形状
  6
DASHED
 62
     1
 10
1227.8321165570001
 20
316.637420577
 30
0.0
 11
1175.8705923299999
 21
346.637420577
 31
0.0
  0
LINE
  5
6982
  8
011形状
 10
1176.1026431370001
 20
343.03934436499998
 30
0.0
 11
1175.3705923299999
 21
345.77139517299997
 31
0.0
  0
LINE
  5
6983
  8
011形状
 10
1178.6969740550001
 20
341.541506712
 30
0.0
 11
1176.1026431370001
 21
343.03934436499998
 31
0.0
  0
LINE
  5
6984
  8
011形状
 10
1175.3705923299999
 20
345.77139517299997
 30
0.0
 11
1175.8705923299999
 21
346.637420577
 31
0.0
  0
LINE
  5
6985
  8
011形状
 10
1227.3321165570001
 20
315.77139517299997
 30
0.0
 11
1224.6000657489999
 21
315.03934436499998
 31
0.0
  0
LINE
  5
6986
  8
011形状
 10
1224.6000657489999
 20
315.03934436499998
 30
0.0
 11
1222.005734830268
 21
316.53718201934362
 31
0.0
  0
LINE
  5
6987
  8
011形状
 10
1227.8321165570001
 20
316.637420577
 30
0.0
 11
1227.3321165570001
 21
315.77139517299997
 31
0.0
  0
LINE
  5
6988
  8
011形状
  6
DASHED
 62
     1
 10
1178.6969740550001
 20
398.45849328800011
 30
0.0
 11
1222.0057348302689
 21
423.46281798065638
 31
0.0
  0
LINE
  5
6989
  8
011形状
 10
1224.6000657489999
 20
424.96065563500002
 30
0.0
 11
1227.3321165570001
 21
424.22860482699991
 31
0.0
  0
LINE
  5
698A
  8
011形状
 10
1227.3321165570001
 20
424.22860482699991
 30
0.0
 11
1227.8321165570001
 21
423.362579423
 31
0.0
  0
LINE
  5
698B
  8
011形状
 10
1216.5
 20
446.49999999999989
 30
0.0
 11
1231.5
 21
446.49999999999989
 31
0.0
  0
LINE
  5
698C
  8
001センタ
 10
1211.5
 20
439.5
 30
0.0
 11
1236.5
 21
439.5
 31
0.0
  0
LINE
  5
698D
  8
011形状
  6
DASHED
 62
     1
 10
1216.5
 20
444.5
 30
0.0
 11
1231.5
 21
444.5
 31
0.0
  0
LINE
  5
698E
  8
011形状
  6
DASHED
 62
     1
 10
1216.5
 20
430.49999999999989
 30
0.0
 11
1231.5
 21
430.49999999999989
 31
0.0
  0
LINE
  5
698F
  8
011形状
  6
DASHED
 62
     1
 10
1216.5
 20
434.49999999999989
 30
0.0
 11
1231.5
 21
434.49999999999989
 31
0.0
  0
LINE
  5
6990
  8
011形状
 10
1216.5
 20
293.5
 30
0.0
 11
1231.5
 21
293.5
 31
0.0
  0
LINE
  5
6991
  8
001センタ
 10
1211.5
 20
300.5
 30
0.0
 11
1236.5
 21
300.5
 31
0.0
  0
LINE
  5
6992
  8
011形状
  6
DASHED
 62
     1
 10
1216.5
 20
295.5
 30
0.0
 11
1231.5
 21
295.5
 31
0.0
  0
LINE
  5
6993
  8
011形状
  6
DASHED
 62
     1
 10
1216.5
 20
309.5
 30
0.0
 11
1231.5
 21
309.5
 31
0.0
  0
LINE
  5
6994
  8
011形状
  6
DASHED
 62
     1
 10
1216.5
 20
305.5
 30
0.0
 11
1231.5
 21
305.5
 31
0.0
  0
CIRCLE
  5
6995
  8
011形状
 10
1224.0
 20
370.0
 30
0.0
 40
19.75
  0
ARC
  5
6996
  8
011形状
 10
1224.0
 20
370.0
 30
0.0
 40
54.5
 50
155.82000000000309
 51
166.20007950000081
  0
LINE
  5
6997
  8
011形状
  6
DASHED
 62
     1
 10
1167.292852305
 20
366.14482350199989
 30
0.0
 11
1169.710583043
 21
365.21364372199997
 31
0.0
  0
LINE
  5
6998
  8
011形状
  6
DASHED
 62
     1
 10
1169.7544048140001
 20
357.0
 30
0.0
 11
1170.8614541110001
 21
357.89442521699999
 31
0.0
  0
ARC
  5
6999
  8
011形状
 10
1224.0
 20
370.0
 30
0.0
 40
54.5
 50
166.20007950000081
 51
193.7999204999991
  0
CIRCLE
  5
699A
  8
011形状
 10
1224.0
 20
370.0
 30
0.0
 40
26.0
  0
ARC
  5
699B
  8
011形状
 10
1224.0
 20
370.0
 30
0.0
 40
17.0
 50
197.10463517699841
 51
162.8953648230015
  0
CIRCLE
  5
699C
  8
011形状
 10
1224.0
 20
370.0
 30
0.0
 40
53.5
  0
CIRCLE
  5
699D
  8
011形状
 10
1224.0
 20
370.0
 30
0.0
 40
27.0
  0
CIRCLE
  5
699E
  8
011形状
 10
1224.0
 20
370.0
 30
0.0
 40
19.0
  0
LINE
  5
699F
  8
011形状
 10
1216.5
 20
448.5
 30
0.0
 11
1231.5
 21
448.5
 31
0.0
  0
LINE
  5
69A0
  8
011形状
 10
1231.5
 20
448.5
 30
0.0
 11
1231.5
 21
422.97169055299997
 31
0.0
  0
LINE
  5
69A1
  8
011形状
 10
1216.5
 20
448.5
 30
0.0
 11
1216.5
 21
422.97169055299997
 31
0.0
  0
LINE
  5
69A2
  8
011形状
 10
1216.5
 20
291.5
 30
0.0
 11
1231.5
 21
291.5
 31
0.0
  0
LINE
  5
69A3
  8
011形状
 10
1231.5
 20
291.5
 30
0.0
 11
1231.5
 21
317.02830944700003
 31
0.0
  0
LINE
  5
69A4
  8
011形状
 10
1216.5
 20
291.5
 30
0.0
 11
1216.5
 21
317.02830944700003
 31
0.0
  0
LINE
  5
69A5
  8
001センタ
 10
1127.5
 20
370.0
 30
0.0
 11
1287.5
 21
370.0
 31
0.0
  0
LINE
  5
69A6
  8
001センタ
 10
1224.0
 20
281.5
 30
0.0
 11
1224.0
 21
458.49999999999989
 31
0.0
  0
LINE
  5
69A7
  8
011形状
 10
1210.0
 20
365.0
 30
0.0
 11
1210.0
 21
375.0
 31
0.0
  0
LINE
  5
69A8
  8
011形状
 10
1210.0
 20
375.0
 30
0.0
 11
1205.66969722
 21
375.0
 31
0.0
  0
LINE
  5
69A9
  8
011形状
 10
1205.66969722
 20
365.0
 30
0.0
 11
1210.0
 21
365.0
 31
0.0
  0
LINE
  5
69B8
  8
011形状
 10
1222.0057348302689
 20
423.46281798065638
 30
0.0
 11
1224.6000657489999
 21
424.96065563500002
 31
0.0
  0
LINE
  5
69B9
  8
011形状
  6
DASHED
 62
     1
 10
1222.005734830268
 20
316.53718201934362
 30
0.0
 11
1178.6969740550001
 21
341.541506712
 31
0.0
  0
DIMENSION
  5
69BA
  8
002寸法
  2
*D12
 10
1307.5
 20
439.5
 30
0.0
 11
1303.5
 21
370.00000000000023
 31
0.0
 70
     0
 13
1231.5
 23
300.5
 33
0.0
 14
1231.5
 24
439.5
 34
0.0
 50
90.0
1001
ACAD
1000
DSTYLE
1002
{
1070
   279
1070
     0
1002
}
  0
DIMENSION
  5
69D2
  8
002寸法
  2
*D13
 10
1327.5
 20
448.5
 30
0.0
 11
1327.5
 21
370.00000000000023
 31
0.0
 70
   128
 13
1231.5
 23
291.5
 33
0.0
 14
1231.5
 24
448.5
 34
0.0
 50
90.0
1001
ACAD
1000
DSTYLE
1002
{
1070
   279
1070
     0
1002
}
  0
DIMENSION
  5
69EA
  8
002寸法
  2
*D14
 10
1058.0
 20
389.0
 30
0.0
 11
1054.0
 21
370.00000000000023
 31
0.0
 70
     0
 13
1026.0
 23
351.0
 33
0.0
 14
1026.0
 24
389.0
 34
0.0
 50
90.0
1001
ACAD
1000
DSTYLE
1002
{
1070
     3
1000
\U+03C6<>h7
1070
   279
1070
     0
1002
}
  0
DIMENSION
  5
6A02
  8
002寸法
  2
*D15
 10
1078.0
 20
423.5
 30
0.0
 11
1078.0
 21
370.00000000000023
 31
0.0
 70
   128
 13
903.0
 23
316.5
 33
0.0
 14
903.0
 24
423.5
 34
0.0
 50
90.0
1001
ACAD
1000
DSTYLE
1002
{
1070
     3
1000
\U+03C6<>
1070
   279
1070
     0
1002
}
  0
DIMENSION
  5
6A1A
  8
002寸法
  2
*D16
 10
708.0
 20
389.0
 30
0.0
 11
703.99999999999989
 21
370.00000000000011
 31
0.0
 70
     0
 13
730.0
 23
351.0
 33
0.0
 14
730.0
 24
389.0
 34
0.0
 50
90.0
1001
ACAD
1000
DSTYLE
1002
{
1070
     3
1000
\U+03C6<>h7
1002
}
  0
INSERT
  5
6A96
  8
011形状
  2
*U53
 10
0.0
 20
0.0
 30
0.0
  0
INSERT
  5
6A97
  8
011形状
  2
*U54
 10
0.0
 20
0.0
 30
0.0
  0
INSERT
  5
6A99
  8
011形状
  2
*U55
 10
0.0
 20
0.0
 30
0.0
  0
INSERT
  5
6A9A
  8
011形状
  2
*U56
 10
0.0
 20
0.0
 30
0.0
  0
DIMENSION
  5
6A9C
  8
002寸法
  2
*D17
 10
862.0
 20
468.5
 30
0.0
 11
852.0
 21
472.5
 31
0.0
 70
     0
 13
842.0
 23
439.5
 33
0.0
 14
862.0
 24
439.5
 34
0.0
  0
DIMENSION
  5
6AB4
  8
002寸法
  2
*D18
 10
786.5
 20
444.5
 30
0.0
 11
782.49999999999989
 21
439.50000000000011
 31
0.0
 70
     0
 13
847.0
 23
434.49999999999989
 33
0.0
 14
847.0
 24
444.5
 34
0.0
 50
90.0
  0
DIMENSION
  5
6AD0
  8
002寸法
  2
*D19
 10
852.0
 20
261.5
 30
0.0
 11
826.0
 21
265.5
 31
0.0
 70
     0
 13
800.0
 23
317.5
 33
0.0
 14
852.0
 24
295.5
 34
0.0
1001
ACAD
1000
DSTYLE
1002
{
1070
   279
1070
     0
1002
}
  0
DIMENSION
  5
6AE8
  8
002寸法
  2
*D20
 10
800.0
 20
241.5
 30
0.0
 11
796.49999999999989
 21
241.5
 31
0.0
 70
   128
 13
793.0
 23
350.0
 33
0.0
 14
800.0
 24
317.5
 34
0.0
1001
ACAD
1000
DSTYLE
1002
{
1070
   279
1070
     0
1002
}
  0
DIMENSION
  5
6B04
  8
002寸法
  2
*D21
 10
793.0
 20
221.5
 30
0.0
 11
760.5
 21
221.5
 31
0.0
 70
   128
 13
728.0
 23
353.0
 33
0.0
 14
793.0
 24
350.0
 34
0.0
1001
ACAD
1000
DSTYLE
1002
{
1070
   279
1070
     0
1002
}
  0
DIMENSION
  5
6B1C
  8
002寸法
  2
*D22
 10
1028.0
 20
201.5
 30
0.0
 11
878.0
 21
201.5
 31
0.0
 70
   128
 13
728.0
 23
353.0
 33
0.0
 14
1028.0
 24
353.0
 34
0.0
1001
ACAD
1000
DSTYLE
1002
{
1070
   279
1070
     0
1002
}
  0
DIMENSION
  5
6B5A
  8
002寸法
  2
*D23
 10
778.0
 20
261.5
 30
0.0
 11
753.0
 21
265.5
 31
0.0
 70
     0
 13
728.0
 23
353.0
 33
0.0
 14
778.0
 24
370.0
 34
0.0
  0
DIMENSION
  5
6B72
  8
002寸法
  2
*D24
 10
905.0
 20
261.5
 30
0.0
 11
878.5
 21
265.5
 31
0.0
 70
     0
 13
852.0
 23
295.5
 33
0.0
 14
905.0
 24
319.5
 34
0.0
1001
ACAD
1000
DSTYLE
1002
{
1070
   287
1070
     4
1070
   279
1070
     1
1002
}
  0
DIMENSION
  5
6B8A
  8
002寸法
  2
*D25
 10
905.0
 20
241.5
 30
0.0
 11
852.5
 21
245.5
 31
0.0
 70
     0
 13
800.0
 23
317.5
 33
0.0
 14
905.0
 24
319.5
 34
0.0
1001
ACAD
1000
DSTYLE
1002
{
1070
   287
1070
     4
1070
   279
1070
     1
1002
}
  0
DIMENSION
  5
6BA2
  8
002寸法
  2
*D26
 10
968.0
 20
241.5
 30
0.0
 11
936.5
 21
245.5
 31
0.0
 70
     0
 13
905.0
 23
319.5
 33
0.0
 14
968.0
 24
344.0
 34
0.0
1001
ACAD
1000
DSTYLE
1002
{
1070
   287
1070
     4
1070
   279
1070
     1
1002
}
  0
DIMENSION
  5
6BBA
  8
002寸法
  2
*D27
 10
968.0
 20
221.5
 30
0.0
 11
880.49999999999989
 21
225.5
 31
0.0
 70
     0
 13
793.0
 23
350.0
 33
0.0
 14
968.0
 24
344.0
 34
0.0
1001
ACAD
1000
DSTYLE
1002
{
1070
   287
1070
     4
1070
   279
1070
     1
1002
}
  0
DIMENSION
  5
6BD2
  8
002寸法
  2
*D28
 10
1028.0
 20
221.5
 30
0.0
 11
998.0
 21
225.5
 31
0.0
 70
     0
 13
968.0
 23
344.0
 33
0.0
 14
1028.0
 24
353.0
 34
0.0
1001
ACAD
1000
DSTYLE
1002
{
1070
   287
1070
     4
1070
   279
1070
     1
1002
}
  0
DIMENSION
  5
6BEA
  8
002寸法
  2
*D29
 10
1028.0
 20
261.5
 30
0.0
 11
1003.0
 21
265.5
 31
0.0
 70
     0
 13
978.0
 23
370.0
 33
0.0
 14
1028.0
 24
353.0
 34
0.0
  0
DIMENSION
  5
6C0B
  8
002寸法
  2
*D30
 10
1277.5
 20
261.5
 30
0.0
 11
1207.5
 21
265.5
 31
0.0
 70
     0
 13
1137.5
 23
362.0
 33
0.0
 14
1277.5
 24
370.0
 34
0.0
  0
DIMENSION
  5
6C2B
  8
002寸法
  2
*D31
 10
1231.5
 20
468.5
 30
0.0
 11
1224.0
 21
472.5
 31
0.0
 70
     0
 13
1216.5
 23
448.5
 33
0.0
 14
1231.5
 24
448.5
 34
0.0
  0
DIMENSION
  5
6C97
  8
002寸法
  2
*D32
 10
1192.0
 20
374.99999999935238
 30
0.0
 11
1187.5
 21
382.87857142792399
 31
0.0
 70
   128
  1
<>\H0.5x;\S 0^ -0.036;
 13
1205.66969722
 23
365.0
 33
0.0
 14
1205.66969722
 24
374.99999999935238
 34
0.0
 50
90.0
1001
ACAD
1000
DSTYLE
1002
{
1070
   287
1070
     5
1070
   279
1070
     2
1002
}
  0
DIMENSION
  5
6CB3
  8
002寸法
  2
*D33
 10
1210.0
 20
400.0
 30
0.0
 11
1207.5
 21
400.0
 31
0.0
 70
   128
  1
<>\H0.5x;\S+0.2^  0
 13
1205.0
 23
370.0
 33
0.0
 14
1210.0
 24
375.0
 34
0.0
  0
VIEWPORT
  5
71
 67
     1
  8
0
 10
624.30697861446504
 20
307.75602246587403
 30
0.0
 40
994.76769694267671
 41
769.77311836716035
 68
     1
 69
     1
1001
ACAD
1000
MVIEW
1002
{
1070
    16
1010
0.0
1020
0.0
1030
0.0
1010
0.0
1020
0.0
1030
1.0
1040
0.0
1040
769.77311836716035
1040
624.30697861446504
1040
307.75602246587403
1040
50.0
1040
0.0
1040
0.0
1070
     0
1070
   100
1070
     1
1070
     1
1070
     1
1070
     0
1070
     0
1070
     0
1040
0.0
1040
0.0
1040
0.0
1040
0.5
1040
0.5
1040
10.0
1040
10.0
1070
     0
1002
{
1002
}
1002
}
  0
VIEWPORT
  5
73
 67
     1
  8
0
 10
693.0
 20
140.5
 30
0.0
 40
419.99999999999989
 41
297.0
 68
     2
 69
     2
1001
ACAD
1000
MVIEW
1002
{
1070
    16
1010
0.0
1020
0.0
1030
0.0
1010
0.0
1020
0.0
1030
1.0
1040
0.0
1040
297.0
1040
804.0
1040
148.5
1040
50.0
1040
0.0
1040
0.0
1070
     0
1070
   100
1070
     1
1070
     3
1070
     0
1070
     0
1070
     0
1070
     0
1040
0.0
1040
0.0
1040
0.0
1040
10.0
1040
10.0
1040
10.0
1040
10.0
1070
     0
1002
{
1002
}
1002
}
  0
ENDSEC
  0
EOF
